  0
SECTION
  2
HEADER
  9
$ACADVER
  1
AC1015
  9
$ACADMAINTVER
 70
    20
  9
$DWGCODEPAGE
  3
ANSI_936
  9
$INSBASE
 10
0.0
 20
0.0
 30
0.0
  9
$EXTMIN
 10
444.9239599433507
 20
-3934.657877714342
 30
0.0
  9
$EXTMAX
 10
6584.886127647123
 20
986.8822977610435
 30
0.0
  9
$LIMMIN
 10
0.0
 20
0.0
  9
$LIMMAX
 10
12.0
 20
9.0
  9
$ORTHOMODE
 70
     0
  9
$REGENMODE
 70
     1
  9
$FILLMODE
 70
     1
  9
$QTEXTMODE
 70
     0
  9
$MIRRTEXT
 70
     1
  9
$LTSCALE
 40
1.0
  9
$ATTMODE
 70
     1
  9
$TEXTSIZE
 40
0.2
  9
$TRACEWID
 40
0.05
  9
$TEXTSTYLE
  7
Standard
  9
$CLAYER
  8
0
  9
$CELTYPE
  6
ByLayer
  9
$CECOLOR
 62
   256
  9
$CELTSCALE
 40
1.0
  9
$DISPSILH
 70
     0
  9
$DIMSCALE
 40
1.0
  9
$DIMASZ
 40
9.8
  9
$DIMEXO
 40
0.0
  9
$DIMDLI
 40
0.3800000000000001
  9
$DIMRND
 40
0.0
  9
$DIMDLE
 40
0.0
  9
$DIMEXE
 40
5.0
  9
$DIMTP
 40
0.0
  9
$DIMTM
 40
0.0
  9
$DIMTXT
 40
10.0
  9
$DIMCEN
 40
0.09
  9
$DIMTSZ
 40
0.0
  9
$DIMTOL
 70
     0
  9
$DIMLIM
 70
     0
  9
$DIMTIH
 70
     1
  9
$DIMTOH
 70
     1
  9
$DIMSE1
 70
     0
  9
$DIMSE2
 70
     0
  9
$DIMTAD
 70
     0
  9
$DIMZIN
 70
     8
  9
$DIMBLK
  1

  9
$DIMASO
 70
     1
  9
$DIMSHO
 70
     1
  9
$DIMPOST
  1

  9
$DIMAPOST
  1

  9
$DIMALT
 70
     0
  9
$DIMALTD
 70
     2
  9
$DIMALTF
 40
25.4
  9
$DIMLFAC
 40
1.0
  9
$DIMTOFL
 70
     0
  9
$DIMTVP
 40
0.0
  9
$DIMTIX
 70
     0
  9
$DIMSOXD
 70
     0
  9
$DIMSAH
 70
     0
  9
$DIMBLK1
  1

  9
$DIMBLK2
  1

  9
$DIMSTYLE
  2
SCALE 7
  9
$DIMCLRD
 70
     0
  9
$DIMCLRE
 70
     0
  9
$DIMCLRT
 70
     0
  9
$DIMTFAC
 40
1.0
  9
$DIMGAP
 40
2.5
  9
$DIMJUST
 70
     0
  9
$DIMSD1
 70
     0
  9
$DIMSD2
 70
     0
  9
$DIMTOLJ
 70
     1
  9
$DIMTZIN
 70
     0
  9
$DIMALTZ
 70
     0
  9
$DIMALTTZ
 70
     0
  9
$DIMUPT
 70
     0
  9
$DIMDEC
 70
     1
  9
$DIMTDEC
 70
     1
  9
$DIMALTU
 70
     2
  9
$DIMALTTD
 70
     2
  9
$DIMTXSTY
  7
Standard
  9
$DIMAUNIT
 70
     0
  9
$DIMADEC
 70
     0
  9
$DIMALTRND
 40
0.0
  9
$DIMAZIN
 70
     0
  9
$DIMDSEP
 70
    46
  9
$DIMATFIT
 70
     3
  9
$DIMFRAC
 70
     0
  9
$DIMLDRBLK
  1

  9
$DIMLUNIT
 70
     2
  9
$DIMLWD
 70
    -2
  9
$DIMLWE
 70
    -2
  9
$DIMTMOVE
 70
     0
  9
$LUNITS
 70
     2
  9
$LUPREC
 70
     4
  9
$SKETCHINC
 40
0.1
  9
$FILLETRAD
 40
0.5
  9
$AUNITS
 70
     0
  9
$AUPREC
 70
     0
  9
$MENU
  1
.
  9
$ELEVATION
 40
0.0
  9
$PELEVATION
 40
0.0
  9
$THICKNESS
 40
0.0
  9
$LIMCHECK
 70
     0
  9
$CHAMFERA
 40
0.5
  9
$CHAMFERB
 40
0.5
  9
$CHAMFERC
 40
1.0
  9
$CHAMFERD
 40
0.0
  9
$SKPOLY
 70
     0
  9
$TDCREATE
 40
2453354.050459155
  9
$TDUCREATE
 40
2453353.717125822
  9
$TDUPDATE
 40
2460426.440661713
  9
$TDUUPDATE
 40
2460426.107328380
  9
$TDINDWG
 40
0.939685995
  9
$TDUSRTIMER
 40
0.939569549
  9
$USRTIMER
 70
     1
  9
$ANGBASE
 50
0.0
  9
$ANGDIR
 70
     0
  9
$PDMODE
 70
     0
  9
$PDSIZE
 40
0.0
  9
$PLINEWID
 40
0.0
  9
$SPLFRAME
 70
     0
  9
$SPLINETYPE
 70
     6
  9
$SPLINESEGS
 70
     8
  9
$HANDSEED
  5
3182D
  9
$SURFTAB1
 70
     6
  9
$SURFTAB2
 70
     6
  9
$SURFTYPE
 70
     6
  9
$SURFU
 70
     6
  9
$SURFV
 70
     6
  9
$UCSBASE
  2

  9
$UCSNAME
  2

  9
$UCSORG
 10
0.0
 20
0.0
 30
0.0
  9
$UCSXDIR
 10
1.0
 20
0.0
 30
0.0
  9
$UCSYDIR
 10
0.0
 20
1.0
 30
0.0
  9
$UCSORTHOREF
  2

  9
$UCSORTHOVIEW
 70
     0
  9
$UCSORGTOP
 10
0.0
 20
0.0
 30
0.0
  9
$UCSORGBOTTOM
 10
0.0
 20
0.0
 30
0.0
  9
$UCSORGLEFT
 10
0.0
 20
0.0
 30
0.0
  9
$UCSORGRIGHT
 10
0.0
 20
0.0
 30
0.0
  9
$UCSORGFRONT
 10
0.0
 20
0.0
 30
0.0
  9
$UCSORGBACK
 10
0.0
 20
0.0
 30
0.0
  9
$PUCSBASE
  2

  9
$PUCSNAME
  2

  9
$PUCSORG
 10
0.0
 20
0.0
 30
0.0
  9
$PUCSXDIR
 10
1.0
 20
0.0
 30
0.0
  9
$PUCSYDIR
 10
0.0
 20
1.0
 30
0.0
  9
$PUCSORTHOREF
  2

  9
$PUCSORTHOVIEW
 70
     0
  9
$PUCSORGTOP
 10
0.0
 20
0.0
 30
0.0
  9
$PUCSORGBOTTOM
 10
0.0
 20
0.0
 30
0.0
  9
$PUCSORGLEFT
 10
0.0
 20
0.0
 30
0.0
  9
$PUCSORGRIGHT
 10
0.0
 20
0.0
 30
0.0
  9
$PUCSORGFRONT
 10
0.0
 20
0.0
 30
0.0
  9
$PUCSORGBACK
 10
0.0
 20
0.0
 30
0.0
  9
$USERI1
 70
     0
  9
$USERI2
 70
     0
  9
$USERI3
 70
     0
  9
$USERI4
 70
     0
  9
$USERI5
 70
     0
  9
$USERR1
 40
0.0
  9
$USERR2
 40
0.0
  9
$USERR3
 40
0.0
  9
$USERR4
 40
0.0
  9
$USERR5
 40
0.0
  9
$WORLDVIEW
 70
     1
  9
$SHADEDGE
 70
     3
  9
$SHADEDIF
 70
    70
  9
$TILEMODE
 70
     1
  9
$MAXACTVP
 70
    64
  9
$PINSBASE
 10
0.0
 20
0.0
 30
0.0
  9
$PLIMCHECK
 70
     0
  9
$PEXTMIN
 10
0.0
 20
0.0
 30
0.0
  9
$PEXTMAX
 10
0.0
 20
0.0
 30
0.0
  9
$PLIMMIN
 10
0.0
 20
0.0
  9
$PLIMMAX
 10
12.0
 20
9.0
  9
$UNITMODE
 70
     0
  9
$VISRETAIN
 70
     1
  9
$PLINEGEN
 70
     0
  9
$PSLTSCALE
 70
     1
  9
$TREEDEPTH
 70
  3020
  9
$CMLSTYLE
  2
Standard
  9
$CMLJUST
 70
     0
  9
$CMLSCALE
 40
1.0
  9
$PROXYGRAPHICS
 70
     1
  9
$MEASUREMENT
 70
     0
  9
$CELWEIGHT
370
    -1
  9
$ENDCAPS
280
     0
  9
$JOINSTYLE
280
     0
  9
$LWDISPLAY
290
     0
  9
$INSUNITS
 70
     1
  9
$HYPERLINKBASE
  1

  9
$STYLESHEET
  1

  9
$XEDIT
290
     1
  9
$CEPSNTYPE
380
     0
  9
$PSTYLEMODE
290
     1
  9
$FINGERPRINTGUID
  2
{FDEAD576-A652-11D2-9A35-0060089B3A3F}
  9
$VERSIONGUID
  2
{A5EBC069-3DC2-4637-9EA1-7A45EE6EB4C1}
  9
$EXTNAMES
290
     1
  9
$PSVPSCALE
 40
0.0
  9
$OLESTARTUP
290
     0
  0
ENDSEC
  0
SECTION
  2
CLASSES
  0
CLASS
  1
ACDBDICTIONARYWDFLT
  2
AcDbDictionaryWithDefault
  3
ObjectDBX Classes
 90
        0
280
     0
281
     0
  0
CLASS
  1
ACDBPLACEHOLDER
  2
AcDbPlaceHolder
  3
ObjectDBX Classes
 90
    32768
280
     0
281
     0
  0
CLASS
  1
LAYOUT
  2
AcDbLayout
  3
ObjectDBX Classes
 90
    32768
280
     0
281
     0
  0
CLASS
  1
DICTIONARYVAR
  2
AcDbDictionaryVar
  3
ObjectDBX Classes
 90
        0
280
     0
281
     0
  0
CLASS
  1
TABLESTYLE
  2
AcDbTableStyle
  3
ObjectDBX Classes
 90
     4095
280
     0
281
     0
  0
CLASS
  1
PLOTSETTINGS
  2
AcDbPlotSettings
  3
ObjectDBX Classes
 90
        0
280
     0
281
     0
  0
CLASS
  1
WIPEOUTVARIABLES
  2
AcDbWipeoutVariables
  3
WipeOut|AutoCAD Express Tool|expresstools@autodesk.com
 90
        0
280
     0
281
     0
  0
CLASS
  1
MATERIAL
  2
AcDbMaterial
  3
ObjectDBX Classes
 90
        0
280
     0
281
     0
  0
CLASS
  1
VISUALSTYLE
  2
AcDbVisualStyle
  3
ObjectDBX Classes
 90
     4095
280
     0
281
     0
  0
CLASS
  1
MLEADERSTYLE
  2
AcDbMLeaderStyle
  3
ACDB_MLEADERSTYLE_CLASS
 90
     4095
280
     0
281
     0
  0
CLASS
  1
SCALE
  2
AcDbScale
  3
ObjectDBX Classes
 90
     1153
280
     0
281
     0
  0
CLASS
  1
CELLSTYLEMAP
  2
AcDbCellStyleMap
  3
ObjectDBX Classes
 90
     1152
280
     0
281
     0
  0
CLASS
  1
ACDBPLACEHOLDER
  2
AcDbPlaceHolder
  3
ObjectDBX Classes
 90
        0
280
     0
281
     0
  0
CLASS
  1
LAYOUT
  2
AcDbLayout
  3
ObjectDBX Classes
 90
        0
280
     0
281
     0
  0
ENDSEC
  0
SECTION
  2
TABLES
  0
TABLE
  2
VPORT
  5
8
102
{ACAD_XDICTIONARY
360
317EF
102
}
330
0
100
AcDbSymbolTable
 70
     1
  0
VPORT
  5
97
330
8
100
AcDbSymbolTableRecord
100
AcDbViewportTableRecord
  2
*Active
 70
     0
 10
0.0
 20
0.0
 11
1.0
 21
1.0
 12
6329.500483104273
 22
-3806.119713388954
 13
0.0
 23
0.0
 14
0.5
 24
0.5
 15
0.5
 25
0.5
 16
0.0
 26
0.0
 36
1.0
 17
0.0
 27
0.0
 37
0.0
 40
661.8123171990851
 41
2.203791469194313
 42
50.0
 43
0.0
 44
0.0
 50
0.0
 51
0.0
 71
    16
 72
   100
 73
     1
 74
     1
 75
     0
 76
     0
 77
     0
 78
     0
281
     0
 65
     1
110
0.0
120
0.0
130
0.0
111
1.0
121
0.0
131
0.0
112
0.0
122
1.0
132
0.0
 79
     0
146
0.0
  0
ENDTAB
  0
TABLE
  2
LTYPE
  5
5
330
0
100
AcDbSymbolTable
 70
     4
  0
LTYPE
  5
14
330
5
100
AcDbSymbolTableRecord
100
AcDbLinetypeTableRecord
  2
ByBlock
 70
     0
  3

 72
    65
 73
     0
 40
0.0
  0
LTYPE
  5
15
330
5
100
AcDbSymbolTableRecord
100
AcDbLinetypeTableRecord
  2
ByLayer
 70
     0
  3

 72
    65
 73
     0
 40
0.0
  0
LTYPE
  5
16
330
5
100
AcDbSymbolTableRecord
100
AcDbLinetypeTableRecord
  2
Continuous
 70
     0
  3
Solid line
 72
    65
 73
     0
 40
0.0
  0
LTYPE
  5
31753
330
5
100
AcDbSymbolTableRecord
100
AcDbLinetypeTableRecord
  2
HIDDEN
 70
     0
  3
- - - - - - - - - - - - - - - - - - - -
 72
    65
 73
     2
 40
0.2
 49
0.1
 74
     4
 75
     0
340
0
 46
1.0
 50
0.0
 44
0.0
 45
0.0
 49
-0.1
 74
     4
 75
     0
340
0
 46
1.0
 50
0.0
 44
0.0
 45
0.0
  0
LTYPE
  5
31754
330
5
100
AcDbSymbolTableRecord
100
AcDbLinetypeTableRecord
  2
PHANTOM
 70
     0
  3
_____ _ _ _____ _ _ _____ _ _ _____
 72
    65
 73
     6
 40
0.8
 49
0.45
 74
     4
 75
     0
340
0
 46
1.0
 50
0.0
 44
0.0
 45
0.0
 49
-0.05
 74
     4
 75
     0
340
0
 46
1.0
 50
0.0
 44
0.0
 45
0.0
 49
0.1
 74
     4
 75
     0
340
0
 46
1.0
 50
0.0
 44
0.0
 45
0.0
 49
-0.05
 74
     4
 75
     0
340
0
 46
1.0
 50
0.0
 44
0.0
 45
0.0
 49
0.1
 74
     4
 75
     0
340
0
 46
1.0
 50
0.0
 44
0.0
 45
0.0
 49
-0.05
 74
     4
 75
     0
340
0
 46
1.0
 50
0.0
 44
0.0
 45
0.0
  0
LTYPE
  5
31755
330
5
100
AcDbSymbolTableRecord
100
AcDbLinetypeTableRecord
  2
DASHED2
 70
     0
  3
_ _ _ _ _ _ _ _ _ _ _ _ _ _ _ _ _ _ _ _ _ _ _ _ _ _ _ _ _ _ _
 72
    65
 73
     2
 40
0.375
 49
0.25
 74
     4
 75
     0
340
0
 46
1.0
 50
0.0
 44
0.0
 45
0.0
 49
-0.125
 74
     4
 75
     0
340
0
 46
1.0
 50
0.0
 44
0.0
 45
0.0
  0
ENDTAB
  0
TABLE
  2
LAYER
  5
2
330
0
100
AcDbSymbolTable
 70
     9
  0
LAYER
  5
10
102
{ACAD_XDICTIONARY
360
317E9
102
}
330
2
100
AcDbSymbolTableRecord
100
AcDbLayerTableRecord
  2
0
 70
     0
 62
     7
  6
Continuous
370
     9
390
F
1071
 33554687
  0
LAYER
  5
A7
102
{ACAD_XDICTIONARY
360
317EB
102
}
330
2
100
AcDbSymbolTableRecord
100
AcDbLayerTableRecord
  2
DEFPOINTS
 70
     0
 62
     7
  6
Continuous
290
     0
370
    -3
390
F
1071
 33554687
  0
LAYER
  5
D3DC
330
2
100
AcDbSymbolTableRecord
100
AcDbLayerTableRecord
  2
方框
 70
     0
 62
     1
  6
Continuous
290
     0
370
    -3
390
F
1071
 33554687
  0
LAYER
  5
D567
330
2
100
AcDbSymbolTableRecord
100
AcDbLayerTableRecord
  2
03___PRT_ALL_CURVES
 70
     0
 62
     7
  6
Continuous
370
    -3
390
F
1071
 33554687
  0
LAYER
  5
D568
330
2
100
AcDbSymbolTableRecord
100
AcDbLayerTableRecord
  2
DEFAULT_2
 70
     0
 62
     8
  6
HIDDEN
370
    -3
390
F
1071
 33554687
  0
LAYER
  5
13FF0
102
{ACAD_XDICTIONARY
360
317ED
102
}
330
2
100
AcDbSymbolTableRecord
100
AcDbLayerTableRecord
  2
02___PRT_ALL_AXES
 70
     0
 62
     7
  6
Continuous
370
    -3
390
F
1071
 33554687
  0
LAYER
  5
13FF1
330
2
100
AcDbSymbolTableRecord
100
AcDbLayerTableRecord
  2
3_ALL_AXES
 70
     0
 62
     7
  6
Continuous
370
    -3
390
F
1071
 33554687
  0
LAYER
  5
13FF2
330
2
100
AcDbSymbolTableRecord
100
AcDbLayerTableRecord
  2
06___PRT_ALL_SURFS
 70
     0
 62
     7
  6
Continuous
370
    -3
390
F
1071
 33554687
  0
LAYER
  5
187AD
330
2
100
AcDbSymbolTableRecord
100
AcDbLayerTableRecord
  2
03__ASM_ALL_CURVES
 70
     0
 62
     7
  6
Continuous
370
    -3
390
F
1071
 33554687
  0
ENDTAB
  0
TABLE
  2
STYLE
  5
3
330
0
100
AcDbSymbolTable
 70
     1
  0
STYLE
  5
11
330
3
100
AcDbSymbolTableRecord
100
AcDbTextStyleTableRecord
  2
Standard
 70
     0
 40
0.0
 41
1.0
 50
0.0
 71
     0
 42
0.2
  3
ARIAL.TTF
  4

1001
ACAD
1000
Arial
1071
       34
  0
ENDTAB
  0
TABLE
  2
VIEW
  5
6
330
0
100
AcDbSymbolTable
 70
     0
  0
ENDTAB
  0
TABLE
  2
UCS
  5
7
330
0
100
AcDbSymbolTable
 70
     0
  0
ENDTAB
  0
TABLE
  2
APPID
  5
9
330
0
100
AcDbSymbolTable
 70
     2
  0
APPID
  5
12
330
9
100
AcDbSymbolTableRecord
100
AcDbRegAppTableRecord
  2
ACAD
 70
     0
  0
APPID
  5
317F7
330
9
100
AcDbSymbolTableRecord
100
AcDbRegAppTableRecord
  2
ACAD_MLEADERVER
 70
     0
  0
ENDTAB
  0
TABLE
  2
DIMSTYLE
  5
A
330
0
100
AcDbSymbolTable
 70
    12
100
AcDbDimStyleTable
 71
     0
  0
DIMSTYLE
105
27
330
A
100
AcDbSymbolTableRecord
100
AcDbDimStyleTableRecord
  2
Standard
 70
     0
 41
14.0
 42
0.0
 43
0.3800000000000001
 44
7.5
 73
     0
 74
     0
 78
     8
140
16.0
141
0.09
147
3.0
271
     1
340
11
  0
DIMSTYLE
105
D1E1
330
A
100
AcDbSymbolTableRecord
100
AcDbDimStyleTableRecord
  2
SCALE 1
 70
     0
 41
1.399999999999999
 42
0.0
 43
0.3800000000000001
 44
0.8
 78
     8
140
1.5
141
0.09
147
0.5
271
     1
340
11
  0
DIMSTYLE
105
D1E2
330
A
100
AcDbSymbolTableRecord
100
AcDbDimStyleTableRecord
  2
SCALE 2
 70
     0
 41
2.6
 42
0.0
 43
0.3800000000000001
 44
1.399999999999999
 78
     8
140
2.799999999999999
141
0.0
147
1.0
271
     1
340
11
  0
DIMSTYLE
105
D1E8
330
A
100
AcDbSymbolTableRecord
100
AcDbDimStyleTableRecord
  2
SCALE 8
 70
     0
 41
10.6
 42
0.0
 43
0.3800000000000001
 44
5.5
 78
     8
140
11.0
141
0.09
147
3.0
271
     1
340
11
  0
DIMSTYLE
105
D1E9
330
A
100
AcDbSymbolTableRecord
100
AcDbDimStyleTableRecord
  2
SCALE 9
 70
     0
 41
12.0
 42
0.0
 43
0.3800000000000001
 44
6.5
 78
     8
140
13.0
141
0.09
147
3.0
271
     1
340
11
  0
DIMSTYLE
105
D1EA
330
A
100
AcDbSymbolTableRecord
100
AcDbDimStyleTableRecord
  2
SCALE 10
 70
     0
 41
14.0
 42
0.0
 43
0.3800000000000001
 44
7.5
 78
     8
140
15.0
141
0.09
147
3.0
271
     1
340
11
  0
DIMSTYLE
105
D413
330
A
100
AcDbSymbolTableRecord
100
AcDbDimStyleTableRecord
  2
SCALE 3
 70
     0
 41
3.6
 42
0.0
 43
0.3800000000000001
 44
2.1
 78
     8
140
4.2
141
0.09
147
1.0
271
     1
340
11
  0
DIMSTYLE
105
D414
330
A
100
AcDbSymbolTableRecord
100
AcDbDimStyleTableRecord
  2
SCALE 4
 70
     0
 41
4.799999999999999
 42
0.0
 43
0.3800000000000001
 44
2.6
 78
     8
140
5.2
141
0.09
147
1.199999999999999
271
     1
340
11
  0
DIMSTYLE
105
D415
330
A
100
AcDbSymbolTableRecord
100
AcDbDimStyleTableRecord
  2
SCALE 5
 70
     0
 41
5.4
 42
0.0
 43
0.3800000000000001
 44
3.0
 78
     8
140
6.0
141
0.09
147
1.5
271
     1
340
11
  0
DIMSTYLE
105
D416
330
A
100
AcDbSymbolTableRecord
100
AcDbDimStyleTableRecord
  2
SCALE 6
 70
     0
 41
7.599999999999999
 42
0.0
 43
0.3800000000000001
 44
4.0
 78
     8
140
8.0
141
0.09
147
2.0
271
     1
340
11
  0
DIMSTYLE
105
D417
102
{ACAD_REACTORS
330
31598
330
315ED
330
315FC
330
3160B
330
3161A
330
31699
330
316A8
330
316B7
102
}
330
A
100
AcDbSymbolTableRecord
100
AcDbDimStyleTableRecord
  2
SCALE 7
 70
     0
 41
9.8
 42
0.0
 43
0.3800000000000001
 44
5.0
 78
     8
140
10.0
141
0.09
147
2.5
271
     1
340
11
  0
DIMSTYLE
105
21B1D
330
A
100
AcDbSymbolTableRecord
100
AcDbDimStyleTableRecord
  2
ISO
 70
     0
 41
9.0
 42
1.0
 43
2.0
 44
1.5
 73
     0
 74
     0
 77
     1
 78
     8
140
15.0
141
3.0
143
0.03937007874016
147
1.0
171
     3
172
     1
176
     7
177
     7
271
     2
178
     7
271
     2
272
     2
274
     3
283
     0
284
     8
340
11
  0
ENDTAB
  0
TABLE
  2
BLOCK_RECORD
  5
1
330
0
100
AcDbSymbolTable
 70
    39
  0
BLOCK_RECORD
  5
1F
330
1
100
AcDbSymbolTableRecord
100
AcDbBlockTableRecord
  2
*Model_Space
340
22
  0
BLOCK_RECORD
  5
73
330
1
100
AcDbSymbolTableRecord
100
AcDbBlockTableRecord
  2
*Paper_Space
340
26
  0
BLOCK_RECORD
  5
1B
330
1
100
AcDbSymbolTableRecord
100
AcDbBlockTableRecord
  2
*Paper_Space0
340
1E
  0
BLOCK_RECORD
  5
1810D
330
1
100
AcDbSymbolTableRecord
100
AcDbBlockTableRecord
  2
_FILLED
340
0
  0
BLOCK_RECORD
  5
30E6E
330
1
100
AcDbSymbolTableRecord
100
AcDbBlockTableRecord
  2
SF0_BL3
340
0
  0
BLOCK_RECORD
  5
315EA
330
1
100
AcDbSymbolTableRecord
100
AcDbBlockTableRecord
  2
*D13
340
0
  0
BLOCK_RECORD
  5
31642
330
1
100
AcDbSymbolTableRecord
100
AcDbBlockTableRecord
  2
*D19
340
0
  0
BLOCK_RECORD
  5
3165E
330
1
100
AcDbSymbolTableRecord
100
AcDbBlockTableRecord
  2
*D21
340
0
  0
BLOCK_RECORD
  5
3167A
330
1
100
AcDbSymbolTableRecord
100
AcDbBlockTableRecord
  2
*D23
340
0
  0
BLOCK_RECORD
  5
31696
330
1
100
AcDbSymbolTableRecord
100
AcDbBlockTableRecord
  2
*D25
340
0
  0
BLOCK_RECORD
  5
31733
330
1
100
AcDbSymbolTableRecord
100
AcDbBlockTableRecord
  2
*D36
340
0
  0
BLOCK_RECORD
  5
31741
330
1
100
AcDbSymbolTableRecord
100
AcDbBlockTableRecord
  2
*D37
340
0
  0
BLOCK_RECORD
  5
3174F
330
1
100
AcDbSymbolTableRecord
100
AcDbBlockTableRecord
  2
*D38
340
0
  0
ENDTAB
  0
ENDSEC
  0
SECTION
  2
BLOCKS
  0
BLOCK
  5
20
330
1F
100
AcDbEntity
  8
0
100
AcDbBlockBegin
  2
*Model_Space
 70
     0
 10
0.0
 20
0.0
 30
0.0
  3
*Model_Space
  1

  0
ENDBLK
  5
21
330
1F
100
AcDbEntity
  8
0
100
AcDbBlockEnd
  0
BLOCK
  5
75
330
73
100
AcDbEntity
 67
     1
  8
0
100
AcDbBlockBegin
  2
*Paper_Space
 70
     0
 10
0.0
 20
0.0
 30
0.0
  3
*Paper_Space
  1

  0
ENDBLK
  5
76
330
73
100
AcDbEntity
 67
     1
  8
0
100
AcDbBlockEnd
  0
BLOCK
  5
31757
330
1B
100
AcDbEntity
  8
0
100
AcDbBlockBegin
  2
*Paper_Space0
 70
     0
 10
0.0
 20
0.0
 30
0.0
  3
*Paper_Space0
  1

  0
VIEWPORT
  5
53
102
{ACAD_XDICTIONARY
360
317E7
102
}
330
1B
100
AcDbEntity
  8
0
100
AcDbViewport
 10
7.799999999999999
 20
4.5
 30
0.0
 40
15.64
 41
9.0
 68
     1
 69
    -1
 12
6.0
 22
4.5
 13
0.0
 23
0.0
 14
0.5
 24
0.5
 15
0.5
 25
0.5
 16
0.0
 26
0.0
 36
1.0
 17
0.0
 27
0.0
 37
0.0
 42
50.0
 43
0.0
 44
0.0
 45
12.0
 50
0.0
 51
0.0
 72
   100
 90
   557088
  1

281
     0
 71
     0
 74
     0
110
0.0
120
0.0
130
0.0
111
1.0
121
0.0
131
0.0
112
0.0
122
1.0
132
0.0
 79
     0
146
0.0
  0
ENDBLK
  5
31758
330
1B
100
AcDbEntity
  8
0
100
AcDbBlockEnd
  0
BLOCK
  5
31759
330
1810D
100
AcDbEntity
  8
0
100
AcDbBlockBegin
  2
_FILLED
 70
     0
 10
0.0
 20
0.0
 30
0.0
  3
_FILLED
  1

  0
SOLID
  5
1810B
330
1810D
100
AcDbEntity
  8
0
  6
ByBlock
 62
     0
100
AcDbTrace
 10
0.0
 20
0.0
 30
0.0
 11
-1.0
 21
0.1666666667
 31
0.0
 12
-1.0
 22
-0.1666666667
 32
0.0
 13
-1.0
 23
-0.1666666667
 33
0.0
  0
ENDBLK
  5
3175A
330
1810D
100
AcDbEntity
  8
0
100
AcDbBlockEnd
  0
BLOCK
  5
31765
330
30E6E
100
AcDbEntity
  8
0
100
AcDbBlockBegin
  2
SF0_BL3
 70
     0
 10
495.6077909230999
 20
148.6518511249
 30
0.0
  3
SF0_BL3
  1

  0
LINE
  5
30D8A
330
30E6E
100
AcDbEntity
  8
0
  6
Continuous
 62
     2
100
AcDbLine
 10
499.4945129352999
 20
148.6597711249
 30
0.0
 11
494.3183137379
 21
148.6597711249
 31
0.0
  0
LINE
  5
30D8B
330
30E6E
100
AcDbEntity
  8
0
  6
Continuous
 62
     2
100
AcDbLine
 10
499.4945129352999
 20
148.6597711249
 30
0.0
 11
496.9064133366
 21
153.1424911249
 31
0.0
  0
LINE
  5
30D8C
330
30E6E
100
AcDbEntity
  8
0
  6
Continuous
 62
     2
100
AcDbLine
 10
496.9064133366
 20
153.1424911249
 30
0.0
 11
494.3183137379
 21
148.6597711249
 31
0.0
  0
LINE
  5
30D8D
330
30E6E
100
AcDbEntity
  8
0
  6
Continuous
 62
     2
100
AcDbLine
 10
494.3183137379
 20
148.6597711249
 30
0.0
 11
491.7210689108999
 21
144.1612111249
 31
0.0
  0
SOLID
  5
30D8E
330
30E6E
100
AcDbEntity
  8
0
  6
Continuous
 62
     2
100
AcDbTrace
 10
497.6490610689999
 20
144.5985725153
 30
0.0
 11
497.5274394473999
 21
144.5783019357
 31
0.0
 12
497.3855475555
 22
144.5985725153
 32
0.0
 13
497.3855475555
 23
144.5985725153
 33
0.0
  0
SOLID
  5
30D8F
330
30E6E
100
AcDbEntity
  8
0
  6
Continuous
 62
     2
100
AcDbTrace
 10
497.3855475555
 20
144.5985725153
 30
0.0
 11
497.7706826907
 21
144.6188415484
 31
0.0
 12
497.6490610689999
 22
144.5985725153
 32
0.0
 13
497.6490610689999
 23
144.5985725153
 33
0.0
  0
SOLID
  5
30D90
330
30E6E
100
AcDbEntity
  8
0
  6
Continuous
 62
     2
100
AcDbTrace
 10
497.7706826907
 20
144.6188415484
 30
0.0
 11
497.3855475555
 21
144.5985725153
 31
0.0
 12
497.2639259339
 22
144.6188415484
 32
0.0
 13
497.2639259339
 23
144.6188415484
 33
0.0
  0
SOLID
  5
30D91
330
30E6E
100
AcDbEntity
  8
0
  6
Continuous
 62
     2
100
AcDbTrace
 10
497.567979988
 20
144.6593820889
 30
0.0
 11
497.2639259339
 21
144.6188415484
 31
0.0
 12
497.1625745826
 22
144.6593820889
 32
0.0
 13
497.1625745826
 23
144.6593820889
 33
0.0
  0
SOLID
  5
30D92
330
30E6E
100
AcDbEntity
  8
0
  6
Continuous
 62
     2
100
AcDbTrace
 10
497.2639259339
 20
144.6188415484
 30
0.0
 11
497.567979988
 21
144.6593820889
 31
0.0
 12
497.8720340419999
 22
144.6796535964
 32
0.0
 13
497.8720340419999
 23
144.6796535964
 33
0.0
  0
SOLID
  5
30D93
330
30E6E
100
AcDbEntity
  8
0
  6
Continuous
 62
     2
100
AcDbTrace
 10
497.2639259339
 20
144.6188415484
 30
0.0
 11
497.8720340419999
 21
144.6796535964
 31
0.0
 12
497.7706826907
 22
144.6188415484
 32
0.0
 13
497.7706826907
 23
144.6188415484
 33
0.0
  0
SOLID
  5
30D94
330
30E6E
100
AcDbEntity
  8
0
  6
Continuous
 62
     2
100
AcDbTrace
 10
497.8720340419999
 20
144.6796535964
 30
0.0
 11
497.567979988
 21
144.6593820889
 31
0.0
 12
497.6490610689999
 22
144.6796535964
 32
0.0
 13
497.6490610689999
 23
144.6796535964
 33
0.0
  0
SOLID
  5
30D95
330
30E6E
100
AcDbEntity
  8
0
  6
Continuous
 62
     2
100
AcDbTrace
 10
497.1625745826
 20
144.6593820889
 30
0.0
 11
497.4868989069
 21
144.6796535964
 31
0.0
 12
497.567979988
 22
144.6593820889
 32
0.0
 13
497.567979988
 23
144.6593820889
 33
0.0
  0
SOLID
  5
30D96
330
30E6E
100
AcDbEntity
  8
0
  6
Continuous
 62
     2
100
AcDbTrace
 10
497.4058178257999
 20
144.6999226295
 30
0.0
 11
497.4868989069
 21
144.6796535964
 31
0.0
 12
497.1625745826
 22
144.6593820889
 32
0.0
 13
497.1625745826
 23
144.6593820889
 33
0.0
  0
SOLID
  5
30D97
330
30E6E
100
AcDbEntity
  8
0
  6
Continuous
 62
     2
100
AcDbTrace
 10
497.4058178257999
 20
144.6999226295
 30
0.0
 11
497.1625745826
 21
144.6593820889
 31
0.0
 12
497.0814935015
 22
144.7201941369
 32
0.0
 13
497.0814935015
 23
144.7201941369
 33
0.0
  0
SOLID
  5
30D98
330
30E6E
100
AcDbEntity
  8
0
  6
Continuous
 62
     2
100
AcDbTrace
 10
497.7301421501
 20
144.6999226295
 30
0.0
 11
497.8112232312
 21
144.7201941369
 31
0.0
 12
497.9733853933999
 22
144.74046317
 32
0.0
 13
497.9733853933999
 23
144.74046317
 33
0.0
  0
SOLID
  5
30D99
330
30E6E
100
AcDbEntity
  8
0
  6
Continuous
 62
     2
100
AcDbTrace
 10
497.6490610689999
 20
144.6796535964
 30
0.0
 11
497.7301421501
 21
144.6999226295
 31
0.0
 12
497.9733853933999
 22
144.74046317
 32
0.0
 13
497.9733853933999
 23
144.74046317
 33
0.0
  0
SOLID
  5
30D9A
330
30E6E
100
AcDbEntity
  8
0
  6
Continuous
 62
     2
100
AcDbTrace
 10
497.6490610689999
 20
144.6796535964
 30
0.0
 11
497.9733853933999
 21
144.74046317
 31
0.0
 12
497.8720340419999
 22
144.6796535964
 32
0.0
 13
497.8720340419999
 23
144.6796535964
 33
0.0
  0
SOLID
  5
30D9B
330
30E6E
100
AcDbEntity
  8
0
  6
Continuous
 62
     2
100
AcDbTrace
 10
497.0814935015
 20
144.7201941369
 30
0.0
 11
497.345007015
 21
144.74046317
 31
0.0
 12
497.4058178257999
 22
144.6999226295
 32
0.0
 13
497.4058178257999
 23
144.6999226295
 33
0.0
  0
SOLID
  5
30D9C
330
30E6E
100
AcDbEntity
  8
0
  6
Continuous
 62
     2
100
AcDbTrace
 10
497.9733853933999
 20
144.74046317
 30
0.0
 11
497.8112232312
 21
144.7201941369
 31
0.0
 12
497.8720340419999
 22
144.7810034012
 32
0.0
 13
497.8720340419999
 23
144.7810034012
 33
0.0
  0
SOLID
  5
30D9D
330
30E6E
100
AcDbEntity
  8
0
  6
Continuous
 62
     2
100
AcDbTrace
 10
497.2841962041999
 20
144.7810034012
 30
0.0
 11
497.345007015
 21
144.74046317
 31
0.0
 12
497.0814935015
 22
144.7201941369
 32
0.0
 13
497.0814935015
 23
144.7201941369
 33
0.0
  0
SOLID
  5
30D9E
330
30E6E
100
AcDbEntity
  8
0
  6
Continuous
 62
     2
100
AcDbTrace
 10
497.2841962041999
 20
144.7810034012
 30
0.0
 11
497.0814935015
 21
144.7201941369
 31
0.0
 12
497.0004124204
 22
144.7810034012
 32
0.0
 13
497.0004124204
 23
144.7810034012
 33
0.0
  0
SOLID
  5
30D9F
330
30E6E
100
AcDbEntity
  8
0
  6
Continuous
 62
     2
100
AcDbTrace
 10
497.8720340419999
 20
144.7810034012
 30
0.0
 11
498.0544664744
 21
144.821545179
 31
0.0
 12
497.9733853933999
 22
144.74046317
 32
0.0
 13
497.9733853933999
 23
144.74046317
 33
0.0
  0
SOLID
  5
30DA0
330
30E6E
100
AcDbEntity
  8
0
  6
Continuous
 62
     2
100
AcDbTrace
 10
498.0544664744
 20
144.821545179
 30
0.0
 11
497.8720340419999
 21
144.7810034012
 31
0.0
 12
497.9328448528
 22
144.8418154493
 32
0.0
 13
497.9328448528
 23
144.8418154493
 33
0.0
  0
SOLID
  5
30DA1
330
30E6E
100
AcDbEntity
  8
0
  6
Continuous
 62
     2
100
AcDbTrace
 10
497.0004124204
 20
144.7810034012
 30
0.0
 11
497.2436556636
 21
144.8418154493
 31
0.0
 12
497.2841962041999
 22
144.7810034012
 32
0.0
 13
497.2841962041999
 23
144.7810034012
 33
0.0
  0
SOLID
  5
30DA2
330
30E6E
100
AcDbEntity
  8
0
  6
Continuous
 62
     2
100
AcDbTrace
 10
497.2436556636
 20
144.8418154493
 30
0.0
 11
497.0004124204
 21
144.7810034012
 31
0.0
 12
496.9598718799
 22
144.8620857195
 32
0.0
 13
496.9598718799
 23
144.8620857195
 33
0.0
  0
SOLID
  5
30DA3
330
30E6E
100
AcDbEntity
  8
0
  6
Continuous
 62
     2
100
AcDbTrace
 10
497.9328448528
 20
144.8418154493
 30
0.0
 11
498.1152772853
 21
144.9026250229
 31
0.0
 12
498.0544664744
 22
144.821545179
 32
0.0
 13
498.0544664744
 23
144.821545179
 33
0.0
  0
SOLID
  5
30DA4
330
30E6E
100
AcDbEntity
  8
0
  6
Continuous
 62
     2
100
AcDbTrace
 10
498.1152772853
 20
144.9026250229
 30
0.0
 11
497.9328448528
 21
144.8418154493
 31
0.0
 12
497.9733853933999
 22
144.9026250229
 32
0.0
 13
497.9733853933999
 23
144.9026250229
 33
0.0
  0
SOLID
  5
30DA5
330
30E6E
100
AcDbEntity
  8
0
  6
Continuous
 62
     2
100
AcDbTrace
 10
496.9598718799
 20
144.8620857195
 30
0.0
 11
497.2233853933999
 21
144.9026250229
 31
0.0
 12
497.2436556636
 22
144.8418154493
 32
0.0
 13
497.2436556636
 23
144.8418154493
 33
0.0
  0
SOLID
  5
30DA6
330
30E6E
100
AcDbEntity
  8
0
  6
Continuous
 62
     2
100
AcDbTrace
 10
497.2233853933999
 20
144.9026250229
 30
0.0
 11
496.9598718799
 21
144.8620857195
 31
0.0
 12
496.9193313393
 22
144.9634370709
 32
0.0
 13
496.9193313393
 23
144.9634370709
 33
0.0
  0
SOLID
  5
30DA7
330
30E6E
100
AcDbEntity
  8
0
  6
Continuous
 62
     2
100
AcDbTrace
 10
496.9193313393
 20
144.9634370709
 30
0.0
 11
497.2031151230999
 21
144.9837073411
 31
0.0
 12
497.2233853933999
 22
144.9026250229
 32
0.0
 13
497.2233853933999
 23
144.9026250229
 33
0.0
  0
SOLID
  5
30DA8
330
30E6E
100
AcDbEntity
  8
0
  6
Continuous
 62
     2
100
AcDbTrace
 10
497.9733853933999
 20
144.9026250229
 30
0.0
 11
497.9936556635999
 21
144.9634370709
 31
0.0
 12
498.1558178258
 22
145.0039776114
 32
0.0
 13
498.1558178258
 23
145.0039776114
 33
0.0
  0
SOLID
  5
30DA9
330
30E6E
100
AcDbEntity
  8
0
  6
Continuous
 62
     2
100
AcDbTrace
 10
497.9733853933999
 20
144.9026250229
 30
0.0
 11
498.1558178258
 21
145.0039776114
 31
0.0
 12
498.1152772853
 22
144.9026250229
 32
0.0
 13
498.1152772853
 23
144.9026250229
 33
0.0
  0
SOLID
  5
30DAA
330
30E6E
100
AcDbEntity
  8
0
  6
Continuous
 62
     2
100
AcDbTrace
 10
498.1558178258
 20
145.0039776114
 30
0.0
 11
497.9936556635999
 21
144.9634370709
 31
0.0
 12
497.9936556635999
 22
145.0445179973
 32
0.0
 13
497.9936556635999
 23
145.0445179973
 33
0.0
  0
SOLID
  5
30DAB
330
30E6E
100
AcDbEntity
  8
0
  6
Continuous
 62
     2
100
AcDbTrace
 10
497.2031151230999
 20
144.9837073411
 30
0.0
 11
496.9193313393
 21
144.9634370709
 31
0.0
 12
496.899061069
 22
145.0445179973
 32
0.0
 13
496.899061069
 23
145.0445179973
 33
0.0
  0
SOLID
  5
30DAC
330
30E6E
100
AcDbEntity
  8
0
  6
Continuous
 62
     2
100
AcDbTrace
 10
496.899061069
 20
145.0445179973
 30
0.0
 11
497.1828448527999
 21
145.0850586925
 31
0.0
 12
497.2031151230999
 22
144.9837073411
 32
0.0
 13
497.2031151230999
 23
144.9837073411
 33
0.0
  0
SOLID
  5
30DAD
330
30E6E
100
AcDbEntity
  8
0
  6
Continuous
 62
     2
100
AcDbTrace
 10
497.9936556635999
 20
145.0445179973
 30
0.0
 11
498.1558178258
 21
145.1053300453
 31
0.0
 12
498.1558178258
 22
145.0039776114
 32
0.0
 13
498.1558178258
 23
145.0039776114
 33
0.0
  0
SOLID
  5
30DAE
330
30E6E
100
AcDbEntity
  8
0
  6
Continuous
 62
     2
100
AcDbTrace
 10
498.1558178258
 20
145.1053300453
 30
0.0
 11
497.9936556635999
 21
145.0445179973
 31
0.0
 12
497.9936556635999
 22
145.1053300453
 32
0.0
 13
497.9936556635999
 23
145.1053300453
 33
0.0
  0
SOLID
  5
30DAF
330
30E6E
100
AcDbEntity
  8
0
  6
Continuous
 62
     2
100
AcDbTrace
 10
497.1828448527999
 20
145.0850586925
 30
0.0
 11
496.899061069
 21
145.0445179973
 31
0.0
 12
496.9193313393
 22
145.125599233
 32
0.0
 13
496.9193313393
 23
145.125599233
 33
0.0
  0
SOLID
  5
30DB0
330
30E6E
100
AcDbEntity
  8
0
  6
Continuous
 62
     2
100
AcDbTrace
 10
496.9193313393
 20
145.125599233
 30
0.0
 11
497.2031151230999
 21
145.1661397736
 31
0.0
 12
497.1828448527999
 22
145.0850586925
 32
0.0
 13
497.1828448527999
 23
145.0850586925
 33
0.0
  0
SOLID
  5
30DB1
330
30E6E
100
AcDbEntity
  8
0
  6
Continuous
 62
     2
100
AcDbTrace
 10
497.2031151230999
 20
145.1661397736
 30
0.0
 11
496.9193313393
 21
145.125599233
 31
0.0
 12
496.9396016095999
 22
145.1864100437999
 32
0.0
 13
496.9396016095999
 23
145.1864100437999
 33
0.0
  0
SOLID
  5
30DB2
330
30E6E
100
AcDbEntity
  8
0
  6
Continuous
 62
     2
100
AcDbTrace
 10
497.9936556635999
 20
145.1053300453
 30
0.0
 11
497.9936556635999
 21
145.1458695033
 31
0.0
 12
498.1558178258
 22
145.2066800048
 32
0.0
 13
498.1558178258
 23
145.2066800048
 33
0.0
  0
SOLID
  5
30DB3
330
30E6E
100
AcDbEntity
  8
0
  6
Continuous
 62
     2
100
AcDbTrace
 10
497.9936556635999
 20
145.1053300453
 30
0.0
 11
498.1558178258
 21
145.2066800048
 31
0.0
 12
498.1558178258
 22
145.1053300453
 32
0.0
 13
498.1558178258
 23
145.1053300453
 33
0.0
  0
SOLID
  5
30DB4
330
30E6E
100
AcDbEntity
  8
0
  6
Continuous
 62
     2
100
AcDbTrace
 10
498.1558178258
 20
145.2066800048
 30
0.0
 11
497.9936556635999
 21
145.1458695033
 31
0.0
 12
497.9733853933999
 22
145.2066800048
 32
0.0
 13
497.9733853933999
 23
145.2066800048
 33
0.0
  0
SOLID
  5
30DB5
330
30E6E
100
AcDbEntity
  8
0
  6
Continuous
 62
     2
100
AcDbTrace
 10
496.9396016095999
 20
145.1864100437999
 30
0.0
 11
497.2233853933999
 21
145.2472205454
 31
0.0
 12
497.2031151230999
 22
145.1661397736
 32
0.0
 13
497.2031151230999
 23
145.1661397736
 33
0.0
  0
SOLID
  5
30DB6
330
30E6E
100
AcDbEntity
  8
0
  6
Continuous
 62
     2
100
AcDbTrace
 10
497.2233853933999
 20
145.2472205454
 30
0.0
 11
496.9396016095999
 21
145.1864100437999
 31
0.0
 12
496.9598718799
 22
145.2472205454
 32
0.0
 13
496.9598718799
 23
145.2472205454
 33
0.0
  0
SOLID
  5
30DB7
330
30E6E
100
AcDbEntity
  8
0
  6
Continuous
 62
     2
100
AcDbTrace
 10
497.9328448528
 20
145.2472205454
 30
0.0
 11
497.8923043123
 21
145.2877613952
 31
0.0
 12
498.1152772853
 22
145.3080325934
 32
0.0
 13
498.1152772853
 23
145.3080325934
 33
0.0
  0
SOLID
  5
30DB8
330
30E6E
100
AcDbEntity
  8
0
  6
Continuous
 62
     2
100
AcDbTrace
 10
497.9733853933999
 20
145.2066800048
 30
0.0
 11
497.9328448528
 21
145.2472205454
 31
0.0
 12
498.1152772853
 22
145.3080325934
 32
0.0
 13
498.1152772853
 23
145.3080325934
 33
0.0
  0
SOLID
  5
30DB9
330
30E6E
100
AcDbEntity
  8
0
  6
Continuous
 62
     2
100
AcDbTrace
 10
497.9733853933999
 20
145.2066800048
 30
0.0
 11
498.1152772853
 21
145.3080325934
 31
0.0
 12
498.1558178258
 22
145.2066800048
 32
0.0
 13
498.1558178258
 23
145.2066800048
 33
0.0
  0
SOLID
  5
30DBA
330
30E6E
100
AcDbEntity
  8
0
  6
Continuous
 62
     2
100
AcDbTrace
 10
498.1152772853
 20
145.3080325934
 30
0.0
 11
497.8923043123
 21
145.2877613952
 31
0.0
 12
497.8720340419999
 22
145.3080325934
 32
0.0
 13
497.8720340419999
 23
145.3080325934
 33
0.0
  0
SOLID
  5
30DBB
330
30E6E
100
AcDbEntity
  8
0
  6
Continuous
 62
     2
100
AcDbTrace
 10
496.9598718799
 20
145.2472205454
 30
0.0
 11
497.0004124204
 21
145.3080325934
 31
0.0
 12
497.2436556636
 22
145.3283019357
 32
0.0
 13
497.2436556636
 23
145.3283019357
 33
0.0
  0
SOLID
  5
30DBC
330
30E6E
100
AcDbEntity
  8
0
  6
Continuous
 62
     2
100
AcDbTrace
 10
496.9598718799
 20
145.2472205454
 30
0.0
 11
497.2436556636
 21
145.3283019357
 31
0.0
 12
497.2233853933999
 22
145.2472205454
 32
0.0
 13
497.2233853933999
 23
145.2472205454
 33
0.0
  0
SOLID
  5
30DBD
330
30E6E
100
AcDbEntity
  8
0
  6
Continuous
 62
     2
100
AcDbTrace
 10
497.8720340419999
 20
145.3080325934
 30
0.0
 11
498.095007015
 21
145.3485731339
 31
0.0
 12
498.1152772853
 22
145.3080325934
 32
0.0
 13
498.1152772853
 23
145.3080325934
 33
0.0
  0
SOLID
  5
30DBE
330
30E6E
100
AcDbEntity
  8
0
  6
Continuous
 62
     2
100
AcDbTrace
 10
498.095007015
 20
145.3485731339
 30
0.0
 11
497.8720340419999
 21
145.3080325934
 31
0.0
 12
497.8923043123
 22
145.3485731339
 32
0.0
 13
497.8923043123
 23
145.3485731339
 33
0.0
  0
SOLID
  5
30DBF
330
30E6E
100
AcDbEntity
  8
0
  6
Continuous
 62
     2
100
AcDbTrace
 10
497.8923043123
 20
145.3485731339
 30
0.0
 11
498.0747367447
 21
145.3688420123
 31
0.0
 12
498.095007015
 22
145.3485731339
 32
0.0
 13
498.095007015
 23
145.3485731339
 33
0.0
  0
SOLID
  5
30DC0
330
30E6E
100
AcDbEntity
  8
0
  6
Continuous
 62
     2
100
AcDbTrace
 10
498.0747367447
 20
145.3688420123
 30
0.0
 11
497.8923043123
 21
145.3485731339
 31
0.0
 12
497.9328448528
 22
145.3688420123
 32
0.0
 13
497.9328448528
 23
145.3688420123
 33
0.0
  0
SOLID
  5
30DC1
330
30E6E
100
AcDbEntity
  8
0
  6
Continuous
 62
     2
100
AcDbTrace
 10
497.2436556636
 20
145.3283019357
 30
0.0
 11
497.0004124204
 21
145.3080325934
 31
0.0
 12
497.0409529608999
 22
145.3688420123
 32
0.0
 13
497.0409529608999
 23
145.3688420123
 33
0.0
  0
SOLID
  5
30DC2
330
30E6E
100
AcDbEntity
  8
0
  6
Continuous
 62
     2
100
AcDbTrace
 10
497.9328448528
 20
145.3688420123
 30
0.0
 11
498.0544664744
 21
145.3891136745
 31
0.0
 12
498.0747367447
 22
145.3688420123
 32
0.0
 13
498.0747367447
 23
145.3688420123
 33
0.0
  0
SOLID
  5
30DC3
330
30E6E
100
AcDbEntity
  8
0
  6
Continuous
 62
     2
100
AcDbTrace
 10
498.0341962041999
 20
145.3891136745
 30
0.0
 11
498.0544664744
 21
145.3891136745
 31
0.0
 12
497.9328448528
 22
145.3688420123
 32
0.0
 13
497.9328448528
 23
145.3688420123
 33
0.0
  0
SOLID
  5
30DC4
330
30E6E
100
AcDbEntity
  8
0
  6
Continuous
 62
     2
100
AcDbTrace
 10
498.0341962041999
 20
145.3891136745
 30
0.0
 11
497.9328448528
 21
145.3688420123
 31
0.0
 12
497.9936556635999
 22
145.3891136745
 32
0.0
 13
497.9936556635999
 23
145.3891136745
 33
0.0
  0
SOLID
  5
30DC5
330
30E6E
100
AcDbEntity
  8
0
  6
Continuous
 62
     2
100
AcDbTrace
 10
497.0409529608999
 20
145.3688420123
 30
0.0
 11
497.2841962041999
 21
145.4093830168
 31
0.0
 12
497.2436556636
 22
145.3283019357
 32
0.0
 13
497.2436556636
 23
145.3283019357
 33
0.0
  0
SOLID
  5
30DC6
330
30E6E
100
AcDbEntity
  8
0
  6
Continuous
 62
     2
100
AcDbTrace
 10
497.2841962041999
 20
145.4093830168
 30
0.0
 11
497.0409529608999
 21
145.3688420123
 31
0.0
 12
497.1017637716999
 22
145.4296532871
 32
0.0
 13
497.1017637716999
 23
145.4296532871
 33
0.0
  0
SOLID
  5
30DC7
330
30E6E
100
AcDbEntity
  8
0
  6
Continuous
 62
     2
100
AcDbTrace
 10
497.1017637716999
 20
145.4296532871
 30
0.0
 11
497.345007015
 21
145.4701938276
 31
0.0
 12
497.2841962041999
 22
145.4093830168
 32
0.0
 13
497.2841962041999
 23
145.4093830168
 33
0.0
  0
SOLID
  5
30DC8
330
30E6E
100
AcDbEntity
  8
0
  6
Continuous
 62
     2
100
AcDbTrace
 10
497.345007015
 20
145.4701938276
 30
0.0
 11
497.1017637716999
 21
145.4296532871
 31
0.0
 12
497.1828448527999
 22
145.4904640979
 32
0.0
 13
497.1828448527999
 23
145.4904640979
 33
0.0
  0
SOLID
  5
30DC9
330
30E6E
100
AcDbEntity
  8
0
  6
Continuous
 62
     2
100
AcDbTrace
 10
497.1828448527999
 20
145.4904640979
 30
0.0
 11
497.4260880961
 21
145.5512755273
 31
0.0
 12
497.345007015
 22
145.4701938276
 32
0.0
 13
497.345007015
 23
145.4701938276
 33
0.0
  0
SOLID
  5
30DCA
330
30E6E
100
AcDbEntity
  8
0
  6
Continuous
 62
     2
100
AcDbTrace
 10
497.4260880961
 20
145.5512755273
 30
0.0
 11
497.1828448527999
 21
145.4904640979
 31
0.0
 12
497.2639259339
 22
145.5512755273
 32
0.0
 13
497.2639259339
 23
145.5512755273
 33
0.0
  0
SOLID
  5
30DCB
330
30E6E
100
AcDbEntity
  8
0
  6
Continuous
 62
     2
100
AcDbTrace
 10
497.2639259339
 20
145.5512755273
 30
0.0
 11
497.5274394473999
 21
145.6526262601
 31
0.0
 12
497.4260880961
 22
145.5512755273
 32
0.0
 13
497.4260880961
 23
145.5512755273
 33
0.0
  0
SOLID
  5
30DCC
330
30E6E
100
AcDbEntity
  8
0
  6
Continuous
 62
     2
100
AcDbTrace
 10
497.5274394473999
 20
145.6526262601
 30
0.0
 11
497.2639259339
 21
145.5512755273
 31
0.0
 12
497.4868989069
 22
145.7134375348
 32
0.0
 13
497.4868989069
 23
145.7134375348
 33
0.0
  0
SOLID
  5
30DCD
330
30E6E
100
AcDbEntity
  8
0
  6
Continuous
 62
     2
100
AcDbTrace
 10
497.5274394473999
 20
145.7337065679
 30
0.0
 11
497.4058178257999
 21
145.7134375348
 31
0.0
 12
497.2841962041999
 22
145.7337065679
 32
0.0
 13
497.2841962041999
 23
145.7337065679
 33
0.0
  0
SOLID
  5
30DCE
330
30E6E
100
AcDbEntity
  8
0
  6
Continuous
 62
     2
100
AcDbTrace
 10
497.5274394473999
 20
145.7337065679
 30
0.0
 11
497.2841962041999
 21
145.7337065679
 31
0.0
 12
497.6693313393
 22
145.7539776114
 32
0.0
 13
497.6693313393
 23
145.7539776114
 33
0.0
  0
SOLID
  5
30DCF
330
30E6E
100
AcDbEntity
  8
0
  6
Continuous
 62
     2
100
AcDbTrace
 10
497.4868989069
 20
145.7134375348
 30
0.0
 11
497.5274394473999
 21
145.7337065679
 31
0.0
 12
497.6693313393
 22
145.7539776114
 32
0.0
 13
497.6693313393
 23
145.7539776114
 33
0.0
  0
SOLID
  5
30DD0
330
30E6E
100
AcDbEntity
  8
0
  6
Continuous
 62
     2
100
AcDbTrace
 10
497.4868989069
 20
145.7134375348
 30
0.0
 11
497.6693313393
 21
145.7539776114
 31
0.0
 12
497.5274394473999
 22
145.6526262601
 32
0.0
 13
497.5274394473999
 23
145.6526262601
 33
0.0
  0
SOLID
  5
30DD1
330
30E6E
100
AcDbEntity
  8
0
  6
Continuous
 62
     2
100
AcDbTrace
 10
497.6693313393
 20
145.7539776114
 30
0.0
 11
497.2841962041999
 21
145.7337065679
 31
0.0
 12
497.1828448527999
 22
145.7742478817
 32
0.0
 13
497.1828448527999
 23
145.7742478817
 33
0.0
  0
SOLID
  5
30DD2
330
30E6E
100
AcDbEntity
  8
0
  6
Continuous
 62
     2
100
AcDbTrace
 10
497.1828448527999
 20
145.7742478817
 30
0.0
 11
497.4666286366
 21
145.794518152
 31
0.0
 12
497.7504124203999
 22
145.8147874943
 32
0.0
 13
497.7504124203999
 23
145.8147874943
 33
0.0
  0
SOLID
  5
30DD3
330
30E6E
100
AcDbEntity
  8
0
  6
Continuous
 62
     2
100
AcDbTrace
 10
497.1828448527999
 20
145.7742478817
 30
0.0
 11
497.7504124203999
 21
145.8147874943
 31
0.0
 12
497.6693313393
 22
145.7539776114
 32
0.0
 13
497.6693313393
 23
145.7539776114
 33
0.0
  0
SOLID
  5
30DD4
330
30E6E
100
AcDbEntity
  8
0
  6
Continuous
 62
     2
100
AcDbTrace
 10
497.7504124203999
 20
145.8147874943
 30
0.0
 11
497.4666286366
 21
145.794518152
 31
0.0
 12
497.5477097176999
 22
145.8147874943
 32
0.0
 13
497.5477097176999
 23
145.8147874943
 33
0.0
  0
SOLID
  5
30DD5
330
30E6E
100
AcDbEntity
  8
0
  6
Continuous
 62
     2
100
AcDbTrace
 10
497.4058178257999
 20
145.8147874943
 30
0.0
 11
497.4666286366
 21
145.794518152
 31
0.0
 12
497.1828448527999
 22
145.7742478817
 32
0.0
 13
497.1828448527999
 23
145.7742478817
 33
0.0
  0
SOLID
  5
30DD6
330
30E6E
100
AcDbEntity
  8
0
  6
Continuous
 62
     2
100
AcDbTrace
 10
497.4058178257999
 20
145.8147874943
 30
0.0
 11
497.1828448527999
 21
145.7742478817
 31
0.0
 12
497.0814935015
 22
145.8147874943
 32
0.0
 13
497.0814935015
 23
145.8147874943
 33
0.0
  0
SOLID
  5
30DD7
330
30E6E
100
AcDbEntity
  8
0
  6
Continuous
 62
     2
100
AcDbTrace
 10
497.0814935015
 20
145.8147874943
 30
0.0
 11
497.3247367447
 21
145.8350591564
 31
0.0
 12
497.4058178257999
 22
145.8147874943
 32
0.0
 13
497.4058178257999
 23
145.8147874943
 33
0.0
  0
SOLID
  5
30DD8
330
30E6E
100
AcDbEntity
  8
0
  6
Continuous
 62
     2
100
AcDbTrace
 10
497.5477097176999
 20
145.8147874943
 30
0.0
 11
497.6085205284999
 21
145.8350591564
 31
0.0
 12
497.8112232312
 22
145.8553289628
 32
0.0
 13
497.8112232312
 23
145.8553289628
 33
0.0
  0
SOLID
  5
30DD9
330
30E6E
100
AcDbEntity
  8
0
  6
Continuous
 62
     2
100
AcDbTrace
 10
497.5477097176999
 20
145.8147874943
 30
0.0
 11
497.8112232312
 21
145.8553289628
 31
0.0
 12
497.7504124203999
 22
145.8147874943
 32
0.0
 13
497.7504124203999
 23
145.8147874943
 33
0.0
  0
SOLID
  5
30DDA
330
30E6E
100
AcDbEntity
  8
0
  6
Continuous
 62
     2
100
AcDbTrace
 10
497.8517637717
 20
145.8958685754
 30
0.0
 11
497.8112232312
 21
145.8553289628
 31
0.0
 12
497.6085205284999
 22
145.8350591564
 32
0.0
 13
497.6085205284999
 23
145.8350591564
 33
0.0
  0
SOLID
  5
30DDB
330
30E6E
100
AcDbEntity
  8
0
  6
Continuous
 62
     2
100
AcDbTrace
 10
497.8517637717
 20
145.8958685754
 30
0.0
 11
497.6085205284999
 21
145.8350591564
 31
0.0
 12
497.6896016096
 22
145.8958685754
 32
0.0
 13
497.6896016096
 23
145.8958685754
 33
0.0
  0
SOLID
  5
30DDC
330
30E6E
100
AcDbEntity
  8
0
  6
Continuous
 62
     2
100
AcDbTrace
 10
497.2639259339
 20
145.8958685754
 30
0.0
 11
497.3247367447
 21
145.8350591564
 31
0.0
 12
497.0814935015
 22
145.8147874943
 32
0.0
 13
497.0814935015
 23
145.8147874943
 33
0.0
  0
SOLID
  5
30DDD
330
30E6E
100
AcDbEntity
  8
0
  6
Continuous
 62
     2
100
AcDbTrace
 10
497.2639259339
 20
145.8958685754
 30
0.0
 11
497.0814935015
 21
145.8147874943
 31
0.0
 12
496.9801421500999
 22
145.8958685754
 32
0.0
 13
496.9801421500999
 23
145.8958685754
 33
0.0
  0
SOLID
  5
30DDE
330
30E6E
100
AcDbEntity
  8
0
  6
Continuous
 62
     2
100
AcDbTrace
 10
497.6896016096
 20
145.8958685754
 30
0.0
 11
497.8720340419999
 21
145.9364100438
 31
0.0
 12
497.8517637717
 22
145.8958685754
 32
0.0
 13
497.8517637717
 23
145.8958685754
 33
0.0
  0
SOLID
  5
30DDF
330
30E6E
100
AcDbEntity
  8
0
  6
Continuous
 62
     2
100
AcDbTrace
 10
497.8517637717
 20
145.9566806234
 30
0.0
 11
497.8720340419999
 21
145.9364100438
 31
0.0
 12
497.6896016096
 22
145.8958685754
 32
0.0
 13
497.6896016096
 23
145.8958685754
 33
0.0
  0
SOLID
  5
30DE0
330
30E6E
100
AcDbEntity
  8
0
  6
Continuous
 62
     2
100
AcDbTrace
 10
497.8517637717
 20
145.9566806234
 30
0.0
 11
497.6896016096
 21
145.8958685754
 31
0.0
 12
497.7504124203999
 22
145.9566806234
 32
0.0
 13
497.7504124203999
 23
145.9566806234
 33
0.0
  0
SOLID
  5
30DE1
330
30E6E
100
AcDbEntity
  8
0
  6
Continuous
 62
     2
100
AcDbTrace
 10
496.9801421500999
 20
145.8958685754
 30
0.0
 11
497.2031151230999
 21
145.9566806234
 31
0.0
 12
497.2639259339
 22
145.8958685754
 32
0.0
 13
497.2639259339
 23
145.8958685754
 33
0.0
  0
SOLID
  5
30DE2
330
30E6E
100
AcDbEntity
  8
0
  6
Continuous
 62
     2
100
AcDbTrace
 10
497.7504124203999
 20
145.9566806234
 30
0.0
 11
497.8517637717
 21
145.9769495018
 31
0.0
 12
497.8517637717
 22
145.9566806234
 32
0.0
 13
497.8517637717
 23
145.9566806234
 33
0.0
  0
SOLID
  5
30DE3
330
30E6E
100
AcDbEntity
  8
0
  6
Continuous
 62
     2
100
AcDbTrace
 10
497.8314935014999
 20
145.9769495018
 30
0.0
 11
497.8517637717
 21
145.9769495018
 31
0.0
 12
497.7504124203999
 22
145.9566806234
 32
0.0
 13
497.7504124203999
 23
145.9566806234
 33
0.0
  0
SOLID
  5
30DE4
330
30E6E
100
AcDbEntity
  8
0
  6
Continuous
 62
     2
100
AcDbTrace
 10
497.8112232312
 20
145.9769495018
 30
0.0
 11
497.8314935014999
 21
145.9769495018
 31
0.0
 12
497.7504124203999
 22
145.9566806234
 32
0.0
 13
497.7504124203999
 23
145.9566806234
 33
0.0
  0
SOLID
  5
30DE5
330
30E6E
100
AcDbEntity
  8
0
  6
Continuous
 62
     2
100
AcDbTrace
 10
497.8112232312
 20
145.9769495018
 30
0.0
 11
497.7504124203999
 21
145.9566806234
 31
0.0
 12
497.7909529608999
 22
145.9769495018
 32
0.0
 13
497.7909529608999
 23
145.9769495018
 33
0.0
  0
SOLID
  5
30DE6
330
30E6E
100
AcDbEntity
  8
0
  6
Continuous
 62
     2
100
AcDbTrace
 10
497.2031151230999
 20
145.9566806234
 30
0.0
 11
496.9801421500999
 21
145.8958685754
 31
0.0
 12
496.9193313393
 22
145.9972208547
 32
0.0
 13
496.9193313393
 23
145.9972208547
 33
0.0
  0
SOLID
  5
30DE7
330
30E6E
100
AcDbEntity
  8
0
  6
Continuous
 62
     2
100
AcDbTrace
 10
496.9193313393
 20
145.9972208547
 30
0.0
 11
497.1625745826
 21
146.0377613952
 31
0.0
 12
497.2031151230999
 22
145.9566806234
 32
0.0
 13
497.2031151230999
 23
145.9566806234
 33
0.0
  0
SOLID
  5
30DE8
330
30E6E
100
AcDbEntity
  8
0
  6
Continuous
 62
     2
100
AcDbTrace
 10
497.1625745826
 20
146.0377613952
 30
0.0
 11
496.9193313393
 21
145.9972208547
 31
0.0
 12
496.8585205284999
 22
146.1188424762999
 32
0.0
 13
496.8585205284999
 23
146.1188424762999
 33
0.0
  0
SOLID
  5
30DE9
330
30E6E
100
AcDbEntity
  8
0
  6
Continuous
 62
     2
100
AcDbTrace
 10
496.8585205284999
 20
146.1188424762999
 30
0.0
 11
497.1423043123
 21
146.1391127466
 31
0.0
 12
497.1625745826
 22
146.0377613952
 32
0.0
 13
497.1625745826
 23
146.0377613952
 33
0.0
  0
SOLID
  5
30DEA
330
30E6E
100
AcDbEntity
  8
0
  6
Continuous
 62
     2
100
AcDbTrace
 10
497.122034042
 20
146.2404640979
 30
0.0
 11
497.1423043123
 21
146.1391127466
 31
0.0
 12
496.8585205284999
 22
146.1188424762999
 32
0.0
 13
496.8585205284999
 23
146.1188424762999
 33
0.0
  0
SOLID
  5
30DEB
330
30E6E
100
AcDbEntity
  8
0
  6
Continuous
 62
     2
100
AcDbTrace
 10
497.122034042
 20
146.2404640979
 30
0.0
 11
496.8585205284999
 21
146.1188424762999
 31
0.0
 12
496.8382502582
 22
146.2404640979
 32
0.0
 13
496.8382502582
 23
146.2404640979
 33
0.0
  0
SOLID
  5
30DEC
330
30E6E
100
AcDbEntity
  8
0
  6
Continuous
 62
     2
100
AcDbTrace
 10
496.8382502582
 20
146.2404640979
 30
0.0
 11
497.1017637716999
 21
146.3620857195
 31
0.0
 12
497.122034042
 22
146.2404640979
 32
0.0
 13
497.122034042
 23
146.2404640979
 33
0.0
  0
SOLID
  5
30DED
330
30E6E
100
AcDbEntity
  8
0
  6
Continuous
 62
     2
100
AcDbTrace
 10
497.1017637716999
 20
146.3620857195
 30
0.0
 11
496.8382502582
 21
146.2404640979
 31
0.0
 12
496.817979988
 22
146.3823559898
 32
0.0
 13
496.817979988
 23
146.3823559898
 33
0.0
  0
SOLID
  5
30DEE
330
30E6E
100
AcDbEntity
  8
0
  6
Continuous
 62
     2
100
AcDbTrace
 10
496.817979988
 20
146.3823559898
 30
0.0
 11
497.122034042
 21
146.5242478817
 31
0.0
 12
497.1017637716999
 22
146.3620857195
 32
0.0
 13
497.1017637716999
 23
146.3620857195
 33
0.0
  0
SOLID
  5
30DEF
330
30E6E
100
AcDbEntity
  8
0
  6
Continuous
 62
     2
100
AcDbTrace
 10
497.122034042
 20
146.5242478817
 30
0.0
 11
496.817979988
 21
146.3823559898
 31
0.0
 12
496.8382502582
 22
146.544518152
 32
0.0
 13
496.8382502582
 23
146.544518152
 33
0.0
  0
SOLID
  5
30DF0
330
30E6E
100
AcDbEntity
  8
0
  6
Continuous
 62
     2
100
AcDbTrace
 10
496.8382502582
 20
146.544518152
 30
0.0
 11
497.1423043123
 21
146.6661406242
 31
0.0
 12
497.122034042
 22
146.5242478817
 32
0.0
 13
497.122034042
 23
146.5242478817
 33
0.0
  0
SOLID
  5
30DF1
330
30E6E
100
AcDbEntity
  8
0
  6
Continuous
 62
     2
100
AcDbTrace
 10
497.1423043123
 20
146.6661406242
 30
0.0
 11
496.8382502582
 21
146.544518152
 31
0.0
 12
496.8787907988
 22
146.6864100438
 32
0.0
 13
496.8787907988
 23
146.6864100438
 33
0.0
  0
SOLID
  5
30DF2
330
30E6E
100
AcDbEntity
  8
0
  6
Continuous
 62
     2
100
AcDbTrace
 10
498.1152772853
 20
146.6661406242
 30
0.0
 11
498.0747367447
 21
146.6661406242
 31
0.0
 12
498.1963583663
 22
146.7066810874
 32
0.0
 13
498.1963583663
 23
146.7066810874
 33
0.0
  0
SOLID
  5
30DF3
330
30E6E
100
AcDbEntity
  8
0
  6
Continuous
 62
     2
100
AcDbTrace
 10
498.1152772853
 20
146.6661406242
 30
0.0
 11
498.1963583663
 21
146.7066810874
 31
0.0
 12
498.1558178258
 22
146.6661406242
 32
0.0
 13
498.1558178258
 23
146.6661406242
 33
0.0
  0
SOLID
  5
30DF4
330
30E6E
100
AcDbEntity
  8
0
  6
Continuous
 62
     2
100
AcDbTrace
 10
498.1963583663
 20
146.7066810874
 30
0.0
 11
498.0747367447
 21
146.6661406242
 31
0.0
 12
498.0341962041999
 22
146.7066810874
 32
0.0
 13
498.0341962041999
 23
146.7066810874
 33
0.0
  0
SOLID
  5
30DF5
330
30E6E
100
AcDbEntity
  8
0
  6
Continuous
 62
     2
100
AcDbTrace
 10
498.0341962041999
 20
146.7066810874
 30
0.0
 11
498.2166286366
 21
146.7472216279
 31
0.0
 12
498.1963583663
 22
146.7066810874
 32
0.0
 13
498.1963583663
 23
146.7066810874
 33
0.0
  0
SOLID
  5
30DF6
330
30E6E
100
AcDbEntity
  8
0
  6
Continuous
 62
     2
100
AcDbTrace
 10
498.2166286366
 20
146.7472216279
 30
0.0
 11
498.0341962041999
 21
146.7066810874
 31
0.0
 12
497.9936556635999
 22
146.7472216279
 32
0.0
 13
497.9936556635999
 23
146.7472216279
 33
0.0
  0
SOLID
  5
30DF7
330
30E6E
100
AcDbEntity
  8
0
  6
Continuous
 62
     2
100
AcDbTrace
 10
496.8787907988
 20
146.6864100438
 30
0.0
 11
497.1828448527999
 21
146.7674911249
 31
0.0
 12
497.1423043123
 22
146.6661406242
 32
0.0
 13
497.1423043123
 23
146.6661406242
 33
0.0
  0
SOLID
  5
30DF8
330
30E6E
100
AcDbEntity
  8
0
  6
Continuous
 62
     2
100
AcDbTrace
 10
497.9936556635999
 20
146.7472216279
 30
0.0
 11
498.2368989069
 21
146.7877613952
 31
0.0
 12
498.2166286366
 22
146.7472216279
 32
0.0
 13
498.2166286366
 23
146.7472216279
 33
0.0
  0
SOLID
  5
30DF9
330
30E6E
100
AcDbEntity
  8
0
  6
Continuous
 62
     2
100
AcDbTrace
 10
498.2368989069
 20
146.7877613952
 30
0.0
 11
497.9936556635999
 21
146.7472216279
 31
0.0
 12
497.9733853933999
 22
146.8080311242
 32
0.0
 13
497.9733853933999
 23
146.8080311242
 33
0.0
  0
SOLID
  5
30DFA
330
30E6E
100
AcDbEntity
  8
0
  6
Continuous
 62
     2
100
AcDbTrace
 10
497.1828448527999
 20
146.7674911249
 30
0.0
 11
496.8787907988
 21
146.6864100438
 31
0.0
 12
496.9598718799
 22
146.8080311242
 32
0.0
 13
496.9598718799
 23
146.8080311242
 33
0.0
  0
SOLID
  5
30DFB
330
30E6E
100
AcDbEntity
  8
0
  6
Continuous
 62
     2
100
AcDbTrace
 10
497.9733853933999
 20
146.8080311242
 30
0.0
 11
498.2166286366
 21
146.848572206
 31
0.0
 12
498.2368989069
 22
146.7877613952
 32
0.0
 13
498.2368989069
 23
146.7877613952
 33
0.0
  0
SOLID
  5
30DFC
330
30E6E
100
AcDbEntity
  8
0
  6
Continuous
 62
     2
100
AcDbTrace
 10
498.2166286366
 20
146.848572206
 30
0.0
 11
497.9733853933999
 21
146.8080311242
 31
0.0
 12
497.9531151230999
 22
146.8688431335
 32
0.0
 13
497.9531151230999
 23
146.8688431335
 33
0.0
  0
SOLID
  5
30DFD
330
30E6E
100
AcDbEntity
  8
0
  6
Continuous
 62
     2
100
AcDbTrace
 10
496.9598718799
 20
146.8080311242
 30
0.0
 11
497.2436556636
 21
146.8688431335
 31
0.0
 12
497.1828448527999
 22
146.7674911249
 32
0.0
 13
497.1828448527999
 23
146.7674911249
 33
0.0
  0
SOLID
  5
30DFE
330
30E6E
100
AcDbEntity
  8
0
  6
Continuous
 62
     2
100
AcDbTrace
 10
497.9531151230999
 20
146.8688431335
 30
0.0
 11
497.9328448528
 21
146.9093830168
 31
0.0
 12
498.1963583663
 22
146.9296525912
 32
0.0
 13
498.1963583663
 23
146.9296525912
 33
0.0
  0
SOLID
  5
30DFF
330
30E6E
100
AcDbEntity
  8
0
  6
Continuous
 62
     2
100
AcDbTrace
 10
497.9531151230999
 20
146.8688431335
 30
0.0
 11
498.1963583663
 21
146.9296525912
 31
0.0
 12
498.2166286366
 22
146.848572206
 32
0.0
 13
498.2166286366
 23
146.848572206
 33
0.0
  0
SOLID
  5
30E00
330
30E6E
100
AcDbEntity
  8
0
  6
Continuous
 62
     2
100
AcDbTrace
 10
497.2436556636
 20
146.8688431335
 30
0.0
 11
496.9598718799
 21
146.8080311242
 31
0.0
 12
497.0409529608999
 22
146.9296525912
 32
0.0
 13
497.0409529608999
 23
146.9296525912
 33
0.0
  0
SOLID
  5
30E01
330
30E6E
100
AcDbEntity
  8
0
  6
Continuous
 62
     2
100
AcDbTrace
 10
497.0409529608999
 20
146.9296525912
 30
0.0
 11
497.3247367447
 21
146.9499235574
 31
0.0
 12
497.2436556636
 22
146.8688431335
 32
0.0
 13
497.2436556636
 23
146.8688431335
 33
0.0
  0
SOLID
  5
30E02
330
30E6E
100
AcDbEntity
  8
0
  6
Continuous
 62
     2
100
AcDbTrace
 10
498.1355475555
 20
146.970193093
 30
0.0
 11
498.1963583663
 21
146.9296525912
 31
0.0
 12
497.9328448528
 22
146.9093830168
 32
0.0
 13
497.9328448528
 23
146.9093830168
 33
0.0
  0
SOLID
  5
30E03
330
30E6E
100
AcDbEntity
  8
0
  6
Continuous
 62
     2
100
AcDbTrace
 10
498.1355475555
 20
146.970193093
 30
0.0
 11
497.9328448528
 21
146.9093830168
 31
0.0
 12
497.8923043123
 22
146.970193093
 32
0.0
 13
497.8923043123
 23
146.970193093
 33
0.0
  0
SOLID
  5
30E04
330
30E6E
100
AcDbEntity
  8
0
  6
Continuous
 62
     2
100
AcDbTrace
 10
497.8923043123
 20
146.970193093
 30
0.0
 11
497.8517637717
 21
146.9904640979
 31
0.0
 12
498.0544664744
 22
147.0310051411
 32
0.0
 13
498.0544664744
 23
147.0310051411
 33
0.0
  0
SOLID
  5
30E05
330
30E6E
100
AcDbEntity
  8
0
  6
Continuous
 62
     2
100
AcDbTrace
 10
497.8923043123
 20
146.970193093
 30
0.0
 11
498.0544664744
 21
147.0310051411
 31
0.0
 12
498.1355475555
 22
146.970193093
 32
0.0
 13
498.1355475555
 23
146.970193093
 33
0.0
  0
SOLID
  5
30E06
330
30E6E
100
AcDbEntity
  8
0
  6
Continuous
 62
     2
100
AcDbTrace
 10
498.0544664744
 20
147.0310051411
 30
0.0
 11
497.8517637717
 21
146.9904640979
 31
0.0
 12
497.8112232312
 22
147.0310051411
 32
0.0
 13
497.8112232312
 23
147.0310051411
 33
0.0
  0
SOLID
  5
30E07
330
30E6E
100
AcDbEntity
  8
0
  6
Continuous
 62
     2
100
AcDbTrace
 10
497.4058178257999
 20
147.0107343682
 30
0.0
 11
497.3247367447
 21
146.9499235574
 31
0.0
 12
497.0409529608999
 22
146.9296525912
 32
0.0
 13
497.0409529608999
 23
146.9296525912
 33
0.0
  0
SOLID
  5
30E08
330
30E6E
100
AcDbEntity
  8
0
  6
Continuous
 62
     2
100
AcDbTrace
 10
497.4058178257999
 20
147.0107343682
 30
0.0
 11
497.0409529608999
 21
146.9296525912
 31
0.0
 12
497.1625745826
 22
147.0310051411
 32
0.0
 13
497.1625745826
 23
147.0310051411
 33
0.0
  0
SOLID
  5
30E09
330
30E6E
100
AcDbEntity
  8
0
  6
Continuous
 62
     2
100
AcDbTrace
 10
497.1625745826
 20
147.0310051411
 30
0.0
 11
497.5071691772
 21
147.0512740968
 31
0.0
 12
497.4058178257999
 22
147.0107343682
 32
0.0
 13
497.4058178257999
 23
147.0107343682
 33
0.0
  0
SOLID
  5
30E0A
330
30E6E
100
AcDbEntity
  8
0
  6
Continuous
 62
     2
100
AcDbTrace
 10
497.6287907987999
 20
147.0512740968
 30
0.0
 11
497.5071691772
 21
147.0512740968
 31
0.0
 12
497.9531151230999
 22
147.071545179
 32
0.0
 13
497.9531151230999
 23
147.071545179
 33
0.0
  0
SOLID
  5
30E0B
330
30E6E
100
AcDbEntity
  8
0
  6
Continuous
 62
     2
100
AcDbTrace
 10
497.6896016096
 20
147.0512740968
 30
0.0
 11
497.6287907987999
 21
147.0512740968
 31
0.0
 12
497.9531151230999
 22
147.071545179
 32
0.0
 13
497.9531151230999
 23
147.071545179
 33
0.0
  0
SOLID
  5
30E0C
330
30E6E
100
AcDbEntity
  8
0
  6
Continuous
 62
     2
100
AcDbTrace
 10
497.7504124203999
 20
147.0512740968
 30
0.0
 11
497.6896016096
 21
147.0512740968
 31
0.0
 12
497.9531151230999
 22
147.071545179
 32
0.0
 13
497.9531151230999
 23
147.071545179
 33
0.0
  0
SOLID
  5
30E0D
330
30E6E
100
AcDbEntity
  8
0
  6
Continuous
 62
     2
100
AcDbTrace
 10
497.8112232312
 20
147.0310051411
 30
0.0
 11
497.7504124203999
 21
147.0512740968
 31
0.0
 12
497.9531151230999
 22
147.071545179
 32
0.0
 13
497.9531151230999
 23
147.071545179
 33
0.0
  0
SOLID
  5
30E0E
330
30E6E
100
AcDbEntity
  8
0
  6
Continuous
 62
     2
100
AcDbTrace
 10
497.8112232312
 20
147.0310051411
 30
0.0
 11
497.9531151230999
 21
147.071545179
 31
0.0
 12
498.0544664744
 22
147.0310051411
 32
0.0
 13
498.0544664744
 23
147.0310051411
 33
0.0
  0
SOLID
  5
30E0F
330
30E6E
100
AcDbEntity
  8
0
  6
Continuous
 62
     2
100
AcDbTrace
 10
497.3044664744
 20
147.0918154493
 30
0.0
 11
497.9531151230999
 21
147.071545179
 31
0.0
 12
497.5071691772
 22
147.0512740968
 32
0.0
 13
497.5071691772
 23
147.0512740968
 33
0.0
  0
SOLID
  5
30E10
330
30E6E
100
AcDbEntity
  8
0
  6
Continuous
 62
     2
100
AcDbTrace
 10
497.5071691772
 20
147.0512740968
 30
0.0
 11
497.1625745826
 21
147.0310051411
 31
0.0
 12
497.3044664744
 22
147.0918154493
 32
0.0
 13
497.3044664744
 23
147.0918154493
 33
0.0
  0
SOLID
  5
30E11
330
30E6E
100
AcDbEntity
  8
0
  6
Continuous
 62
     2
100
AcDbTrace
 10
497.3044664744
 20
147.0918154493
 30
0.0
 11
497.8517637717
 21
147.1120857195
 31
0.0
 12
497.9531151230999
 22
147.071545179
 32
0.0
 13
497.9531151230999
 23
147.071545179
 33
0.0
  0
SOLID
  5
30E12
330
30E6E
100
AcDbEntity
  8
0
  6
Continuous
 62
     2
100
AcDbTrace
 10
497.7504124203999
 20
147.1323551006
 30
0.0
 11
497.8517637717
 21
147.1120857195
 31
0.0
 12
497.3044664744
 22
147.0918154493
 32
0.0
 13
497.3044664744
 23
147.0918154493
 33
0.0
  0
SOLID
  5
30E13
330
30E6E
100
AcDbEntity
  8
0
  6
Continuous
 62
     2
100
AcDbTrace
 10
497.6287907987999
 20
147.1323551006
 30
0.0
 11
497.7504124203999
 21
147.1323551006
 31
0.0
 12
497.3044664744
 22
147.0918154493
 32
0.0
 13
497.3044664744
 23
147.0918154493
 33
0.0
  0
SOLID
  5
30E14
330
30E6E
100
AcDbEntity
  8
0
  6
Continuous
 62
     2
100
AcDbTrace
 10
497.6287907987999
 20
147.1323551006
 30
0.0
 11
497.3044664744
 21
147.0918154493
 31
0.0
 12
497.4666286366
 22
147.1323551006
 32
0.0
 13
497.4666286366
 23
147.1323551006
 33
0.0
  0
SOLID
  5
30E15
330
30E6E
100
AcDbEntity
  8
0
  6
Continuous
 62
     2
100
AcDbTrace
 10
495.7841962042
 20
144.5985718967
 30
0.0
 11
495.6220340419999
 21
144.5783019357
 31
0.0
 12
495.4801421501
 22
144.5985718967
 32
0.0
 13
495.4801421501
 23
144.5985718967
 33
0.0
  0
SOLID
  5
30E16
330
30E6E
100
AcDbEntity
  8
0
  6
Continuous
 62
     2
100
AcDbTrace
 10
495.4801421501
 20
144.5985718967
 30
0.0
 11
495.9058178258
 21
144.6391139837
 31
0.0
 12
495.7841962042
 22
144.5985718967
 32
0.0
 13
495.7841962042
 23
144.5985718967
 33
0.0
  0
SOLID
  5
30E17
330
30E6E
100
AcDbEntity
  8
0
  6
Continuous
 62
     2
100
AcDbTrace
 10
495.9058178258
 20
144.6391139837
 30
0.0
 11
495.4801421501
 21
144.5985718967
 31
0.0
 12
495.3585205285
 22
144.6391139837
 32
0.0
 13
495.3585205285
 23
144.6391139837
 33
0.0
  0
SOLID
  5
30E18
330
30E6E
100
AcDbEntity
  8
0
  6
Continuous
 62
     2
100
AcDbTrace
 10
495.9058178258
 20
144.6391139837
 30
0.0
 11
495.3585205285
 21
144.6391139837
 31
0.0
 12
495.7436556635999
 22
144.6593830168
 32
0.0
 13
495.7436556635999
 23
144.6593830168
 33
0.0
  0
SOLID
  5
30E19
330
30E6E
100
AcDbEntity
  8
0
  6
Continuous
 62
     2
100
AcDbTrace
 10
495.7436556635999
 20
144.6593830168
 30
0.0
 11
496.0274394473999
 21
144.6796535964
 31
0.0
 12
495.9058178258
 22
144.6391139837
 32
0.0
 13
495.9058178258
 23
144.6391139837
 33
0.0
  0
SOLID
  5
30E1A
330
30E6E
100
AcDbEntity
  8
0
  6
Continuous
 62
     2
100
AcDbTrace
 10
496.0274394473999
 20
144.6796535964
 30
0.0
 11
495.7436556635999
 21
144.6593830168
 31
0.0
 12
495.8247367447
 22
144.6796535964
 32
0.0
 13
495.8247367447
 23
144.6796535964
 33
0.0
  0
SOLID
  5
30E1B
330
30E6E
100
AcDbEntity
  8
0
  6
Continuous
 62
     2
100
AcDbTrace
 10
495.6220340419999
 20
144.6796535964
 30
0.0
 11
495.7436556635999
 21
144.6593830168
 31
0.0
 12
495.3585205285
 22
144.6391139837
 32
0.0
 13
495.3585205285
 23
144.6391139837
 33
0.0
  0
SOLID
  5
30E1C
330
30E6E
100
AcDbEntity
  8
0
  6
Continuous
 62
     2
100
AcDbTrace
 10
495.5206826907
 20
144.6999247946
 30
0.0
 11
495.6220340419999
 21
144.6796535964
 31
0.0
 12
495.3585205285
 22
144.6391139837
 32
0.0
 13
495.3585205285
 23
144.6391139837
 33
0.0
  0
SOLID
  5
30E1D
330
30E6E
100
AcDbEntity
  8
0
  6
Continuous
 62
     2
100
AcDbTrace
 10
495.5206826907
 20
144.6999247946
 30
0.0
 11
495.3585205285
 21
144.6391139837
 31
0.0
 12
495.2368989068999
 22
144.6999247946
 32
0.0
 13
495.2368989068999
 23
144.6999247946
 33
0.0
  0
SOLID
  5
30E1E
330
30E6E
100
AcDbEntity
  8
0
  6
Continuous
 62
     2
100
AcDbTrace
 10
495.9058178258
 20
144.6999247946
 30
0.0
 11
495.9868989069
 21
144.7404640979
 31
0.0
 12
496.149061069
 22
144.7607352961
 32
0.0
 13
496.149061069
 23
144.7607352961
 33
0.0
  0
SOLID
  5
30E1F
330
30E6E
100
AcDbEntity
  8
0
  6
Continuous
 62
     2
100
AcDbTrace
 10
495.8247367447
 20
144.6796535964
 30
0.0
 11
495.9058178258
 21
144.6999247946
 31
0.0
 12
496.149061069
 22
144.7607352961
 32
0.0
 13
496.149061069
 23
144.7607352961
 33
0.0
  0
SOLID
  5
30E20
330
30E6E
100
AcDbEntity
  8
0
  6
Continuous
 62
     2
100
AcDbTrace
 10
495.8247367447
 20
144.6796535964
 30
0.0
 11
496.149061069
 21
144.7607352961
 31
0.0
 12
496.0274394473999
 22
144.6796535964
 32
0.0
 13
496.0274394473999
 23
144.6796535964
 33
0.0
  0
SOLID
  5
30E21
330
30E6E
100
AcDbEntity
  8
0
  6
Continuous
 62
     2
100
AcDbTrace
 10
495.2368989068999
 20
144.6999247946
 30
0.0
 11
495.4396016096
 21
144.7607352961
 31
0.0
 12
495.5206826907
 22
144.6999247946
 32
0.0
 13
495.5206826907
 23
144.6999247946
 33
0.0
  0
SOLID
  5
30E22
330
30E6E
100
AcDbEntity
  8
0
  6
Continuous
 62
     2
100
AcDbTrace
 10
495.4396016096
 20
144.7607352961
 30
0.0
 11
495.2368989068999
 21
144.6999247946
 31
0.0
 12
495.1355475555
 22
144.7810046384
 32
0.0
 13
495.1355475555
 23
144.7810046384
 33
0.0
  0
SOLID
  5
30E23
330
30E6E
100
AcDbEntity
  8
0
  6
Continuous
 62
     2
100
AcDbTrace
 10
496.149061069
 20
144.7607352961
 30
0.0
 11
495.9868989069
 21
144.7404640979
 31
0.0
 12
496.0477097176999
 22
144.8012749087
 32
0.0
 13
496.0477097176999
 23
144.8012749087
 33
0.0
  0
SOLID
  5
30E24
330
30E6E
100
AcDbEntity
  8
0
  6
Continuous
 62
     2
100
AcDbTrace
 10
495.1355475555
 20
144.7810046384
 30
0.0
 11
495.3585205285
 21
144.821545179
 31
0.0
 12
495.4396016096
 22
144.7607352961
 32
0.0
 13
495.4396016096
 23
144.7607352961
 33
0.0
  0
SOLID
  5
30E25
330
30E6E
100
AcDbEntity
  8
0
  6
Continuous
 62
     2
100
AcDbTrace
 10
496.0477097176999
 20
144.8012749087
 30
0.0
 11
496.2301421501
 21
144.8418154493
 31
0.0
 12
496.149061069
 22
144.7607352961
 32
0.0
 13
496.149061069
 23
144.7607352961
 33
0.0
  0
SOLID
  5
30E26
330
30E6E
100
AcDbEntity
  8
0
  6
Continuous
 62
     2
100
AcDbTrace
 10
496.2301421501
 20
144.8418154493
 30
0.0
 11
496.0477097176999
 21
144.8012749087
 31
0.0
 12
496.1085205285
 22
144.8620857195
 32
0.0
 13
496.1085205285
 23
144.8620857195
 33
0.0
  0
SOLID
  5
30E27
330
30E6E
100
AcDbEntity
  8
0
  6
Continuous
 62
     2
100
AcDbTrace
 10
495.3585205285
 20
144.821545179
 30
0.0
 11
495.1355475555
 21
144.7810046384
 31
0.0
 12
495.0544664744
 22
144.8823559898
 32
0.0
 13
495.0544664744
 23
144.8823559898
 33
0.0
  0
SOLID
  5
30E28
330
30E6E
100
AcDbEntity
  8
0
  6
Continuous
 62
     2
100
AcDbTrace
 10
495.0544664744
 20
144.8823559898
 30
0.0
 11
495.2977097176999
 21
144.922896221
 31
0.0
 12
495.3585205285
 22
144.821545179
 32
0.0
 13
495.3585205285
 23
144.821545179
 33
0.0
  0
SOLID
  5
30E29
330
30E6E
100
AcDbEntity
  8
0
  6
Continuous
 62
     2
100
AcDbTrace
 10
496.1085205285
 20
144.8620857195
 30
0.0
 11
496.149061069
 21
144.922896221
 31
0.0
 12
496.2909529609
 22
144.9431668005999
 32
0.0
 13
496.2909529609
 23
144.9431668005999
 33
0.0
  0
SOLID
  5
30E2A
330
30E6E
100
AcDbEntity
  8
0
  6
Continuous
 62
     2
100
AcDbTrace
 10
496.1085205285
 20
144.8620857195
 30
0.0
 11
496.2909529609
 21
144.9431668005999
 31
0.0
 12
496.2301421501
 22
144.8418154493
 32
0.0
 13
496.2301421501
 23
144.8418154493
 33
0.0
  0
SOLID
  5
30E2B
330
30E6E
100
AcDbEntity
  8
0
  6
Continuous
 62
     2
100
AcDbTrace
 10
496.2909529609
 20
144.9431668005999
 30
0.0
 11
496.149061069
 21
144.922896221
 31
0.0
 12
496.1693313392999
 22
145.0039779207
 32
0.0
 13
496.1693313392999
 23
145.0039779207
 33
0.0
  0
SOLID
  5
30E2C
330
30E6E
100
AcDbEntity
  8
0
  6
Continuous
 62
     2
100
AcDbTrace
 10
495.2977097176999
 20
144.922896221
 30
0.0
 11
495.0544664744
 21
144.8823559898
 31
0.0
 12
494.9936556636
 22
145.0039779207
 32
0.0
 13
494.9936556636
 23
145.0039779207
 33
0.0
  0
SOLID
  5
30E2D
330
30E6E
100
AcDbEntity
  8
0
  6
Continuous
 62
     2
100
AcDbTrace
 10
494.9936556636
 20
145.0039779207
 30
0.0
 11
495.2571691772
 21
145.0242478817
 31
0.0
 12
495.2977097176999
 22
144.922896221
 32
0.0
 13
495.2977097176999
 23
144.922896221
 33
0.0
  0
SOLID
  5
30E2E
330
30E6E
100
AcDbEntity
  8
0
  6
Continuous
 62
     2
100
AcDbTrace
 10
496.1693313392999
 20
145.0039779207
 30
0.0
 11
496.3314935015
 21
145.0647884222
 31
0.0
 12
496.2909529609
 22
144.9431668005999
 32
0.0
 13
496.2909529609
 23
144.9431668005999
 33
0.0
  0
SOLID
  5
30E2F
330
30E6E
100
AcDbEntity
  8
0
  6
Continuous
 62
     2
100
AcDbTrace
 10
496.3314935015
 20
145.0647884222
 30
0.0
 11
496.1693313392999
 21
145.0039779207
 31
0.0
 12
496.1693313392999
 22
145.1053289628
 32
0.0
 13
496.1693313392999
 23
145.1053289628
 33
0.0
  0
SOLID
  5
30E30
330
30E6E
100
AcDbEntity
  8
0
  6
Continuous
 62
     2
100
AcDbTrace
 10
495.2571691772
 20
145.0242478817
 30
0.0
 11
494.9936556636
 21
145.0039779207
 31
0.0
 12
494.9531151230999
 22
145.125599233
 32
0.0
 13
494.9531151230999
 23
145.125599233
 33
0.0
  0
SOLID
  5
30E31
330
30E6E
100
AcDbEntity
  8
0
  6
Continuous
 62
     2
100
AcDbTrace
 10
494.9531151230999
 20
145.125599233
 30
0.0
 11
495.2368989068999
 21
145.1458695033
 31
0.0
 12
495.2571691772
 22
145.0242478817
 32
0.0
 13
495.2571691772
 23
145.0242478817
 33
0.0
  0
SOLID
  5
30E32
330
30E6E
100
AcDbEntity
  8
0
  6
Continuous
 62
     2
100
AcDbTrace
 10
496.1693313392999
 20
145.1053289628
 30
0.0
 11
496.3314935015
 21
145.1864098892
 31
0.0
 12
496.3314935015
 22
145.0647884222
 32
0.0
 13
496.3314935015
 23
145.0647884222
 33
0.0
  0
SOLID
  5
30E33
330
30E6E
100
AcDbEntity
  8
0
  6
Continuous
 62
     2
100
AcDbTrace
 10
496.3314935015
 20
145.1864098892
 30
0.0
 11
496.1693313392999
 21
145.1053289628
 31
0.0
 12
496.1693313392999
 22
145.1864098892
 32
0.0
 13
496.1693313392999
 23
145.1864098892
 33
0.0
  0
SOLID
  5
30E34
330
30E6E
100
AcDbEntity
  8
0
  6
Continuous
 62
     2
100
AcDbTrace
 10
496.1693313392999
 20
145.1864098892
 30
0.0
 11
496.149061069
 21
145.2472208547
 31
0.0
 12
496.3314935015
 22
145.2674917435
 32
0.0
 13
496.3314935015
 23
145.2674917435
 33
0.0
  0
SOLID
  5
30E35
330
30E6E
100
AcDbEntity
  8
0
  6
Continuous
 62
     2
100
AcDbTrace
 10
496.1693313392999
 20
145.1864098892
 30
0.0
 11
496.3314935015
 21
145.2674917435
 31
0.0
 12
496.3314935015
 22
145.1864098892
 32
0.0
 13
496.3314935015
 23
145.1864098892
 33
0.0
  0
SOLID
  5
30E36
330
30E6E
100
AcDbEntity
  8
0
  6
Continuous
 62
     2
100
AcDbTrace
 10
495.2368989068999
 20
145.1458695033
 30
0.0
 11
494.9531151230999
 21
145.125599233
 31
0.0
 12
494.9328448528
 22
145.2674917435
 32
0.0
 13
494.9328448528
 23
145.2674917435
 33
0.0
  0
SOLID
  5
30E37
330
30E6E
100
AcDbEntity
  8
0
  6
Continuous
 62
     2
100
AcDbTrace
 10
494.9328448528
 20
145.2674917435
 30
0.0
 11
495.2166286366
 21
145.2877613952
 31
0.0
 12
495.2368989068999
 22
145.1458695033
 32
0.0
 13
495.2368989068999
 23
145.1458695033
 33
0.0
  0
SOLID
  5
30E38
330
30E6E
100
AcDbEntity
  8
0
  6
Continuous
 62
     2
100
AcDbTrace
 10
496.3314935015
 20
145.3283023997
 30
0.0
 11
496.3314935015
 21
145.2674917435
 31
0.0
 12
496.149061069
 22
145.2472208547
 32
0.0
 13
496.149061069
 23
145.2472208547
 33
0.0
  0
SOLID
  5
30E39
330
30E6E
100
AcDbEntity
  8
0
  6
Continuous
 62
     2
100
AcDbTrace
 10
496.3314935015
 20
145.3283023997
 30
0.0
 11
496.149061069
 21
145.2472208547
 31
0.0
 12
496.0882502581999
 22
145.3283023997
 32
0.0
 13
496.0882502581999
 23
145.3283023997
 33
0.0
  0
SOLID
  5
30E3A
330
30E6E
100
AcDbEntity
  8
0
  6
Continuous
 62
     2
100
AcDbTrace
 10
496.0882502581999
 20
145.3283023997
 30
0.0
 11
496.0274394473999
 21
145.3891127466
 31
0.0
 12
496.3112232312
 22
145.4093840994
 32
0.0
 13
496.3112232312
 23
145.4093840994
 33
0.0
  0
SOLID
  5
30E3B
330
30E6E
100
AcDbEntity
  8
0
  6
Continuous
 62
     2
100
AcDbTrace
 10
496.0882502581999
 20
145.3283023997
 30
0.0
 11
496.3112232312
 21
145.4093840994
 31
0.0
 12
496.3314935015
 22
145.3283023997
 32
0.0
 13
496.3314935015
 23
145.3283023997
 33
0.0
  0
SOLID
  5
30E3C
330
30E6E
100
AcDbEntity
  8
0
  6
Continuous
 62
     2
100
AcDbTrace
 10
496.3112232312
 20
145.4093840994
 30
0.0
 11
496.0274394473999
 21
145.3891127466
 31
0.0
 12
495.9868989069
 22
145.4093840994
 32
0.0
 13
495.9868989069
 23
145.4093840994
 33
0.0
  0
SOLID
  5
30E3D
330
30E6E
100
AcDbEntity
  8
0
  6
Continuous
 62
     2
100
AcDbTrace
 10
495.2368989068999
 20
145.4093840994
 30
0.0
 11
495.2166286366
 21
145.2877613952
 31
0.0
 12
494.9328448528
 22
145.2674917435
 32
0.0
 13
494.9328448528
 23
145.2674917435
 33
0.0
  0
SOLID
  5
30E3E
330
30E6E
100
AcDbEntity
  8
0
  6
Continuous
 62
     2
100
AcDbTrace
 10
495.2368989068999
 20
145.4093840994
 30
0.0
 11
494.9328448528
 21
145.2674917435
 31
0.0
 12
494.9531151230999
 22
145.4093840994
 32
0.0
 13
494.9531151230999
 23
145.4093840994
 33
0.0
  0
SOLID
  5
30E3F
330
30E6E
100
AcDbEntity
  8
0
  6
Continuous
 62
     2
100
AcDbTrace
 10
495.9868989069
 20
145.4093840994
 30
0.0
 11
495.9666286366
 21
145.4499235574
 31
0.0
 12
496.2706826906999
 22
145.4701947554999
 32
0.0
 13
496.2706826906999
 23
145.4701947554999
 33
0.0
  0
SOLID
  5
30E40
330
30E6E
100
AcDbEntity
  8
0
  6
Continuous
 62
     2
100
AcDbTrace
 10
495.9868989069
 20
145.4093840994
 30
0.0
 11
496.2706826906999
 21
145.4701947554999
 31
0.0
 12
496.3112232312
 22
145.4093840994
 32
0.0
 13
496.3112232312
 23
145.4093840994
 33
0.0
  0
SOLID
  5
30E41
330
30E6E
100
AcDbEntity
  8
0
  6
Continuous
 62
     2
100
AcDbTrace
 10
496.2706826906999
 20
145.4701947554999
 30
0.0
 11
495.9666286366
 21
145.4499235574
 31
0.0
 12
495.9868989069
 22
145.4701947554999
 32
0.0
 13
495.9868989069
 23
145.4701947554999
 33
0.0
  0
SOLID
  5
30E42
330
30E6E
100
AcDbEntity
  8
0
  6
Continuous
 62
     2
100
AcDbTrace
 10
495.9868989069
 20
145.4701947554999
 30
0.0
 11
496.2301421501
 21
145.5107342135
 31
0.0
 12
496.2706826906999
 22
145.4701947554999
 32
0.0
 13
496.2706826906999
 23
145.4701947554999
 33
0.0
  0
SOLID
  5
30E43
330
30E6E
100
AcDbEntity
  8
0
  6
Continuous
 62
     2
100
AcDbTrace
 10
496.2301421501
 20
145.5107342135
 30
0.0
 11
495.9868989069
 21
145.4701947554999
 31
0.0
 12
496.0477097176999
 22
145.5310054117
 32
0.0
 13
496.0477097176999
 23
145.5310054117
 33
0.0
  0
SOLID
  5
30E44
330
30E6E
100
AcDbEntity
  8
0
  6
Continuous
 62
     2
100
AcDbTrace
 10
494.9531151230999
 20
145.4093840994
 30
0.0
 11
494.9733853933999
 21
145.5107342135
 31
0.0
 12
495.2571691772
 22
145.5310054117
 32
0.0
 13
495.2571691772
 23
145.5310054117
 33
0.0
  0
SOLID
  5
30E45
330
30E6E
100
AcDbEntity
  8
0
  6
Continuous
 62
     2
100
AcDbTrace
 10
494.9531151230999
 20
145.4093840994
 30
0.0
 11
495.2571691772
 21
145.5310054117
 31
0.0
 12
495.2368989068999
 22
145.4093840994
 32
0.0
 13
495.2368989068999
 23
145.4093840994
 33
0.0
  0
SOLID
  5
30E46
330
30E6E
100
AcDbEntity
  8
0
  6
Continuous
 62
     2
100
AcDbTrace
 10
496.0477097176999
 20
145.5310054117
 30
0.0
 11
496.2098718798999
 21
145.5512749087
 31
0.0
 12
496.2301421501
 22
145.5107342135
 32
0.0
 13
496.2301421501
 23
145.5107342135
 33
0.0
  0
SOLID
  5
30E47
330
30E6E
100
AcDbEntity
  8
0
  6
Continuous
 62
     2
100
AcDbTrace
 10
496.1693313392999
 20
145.5715448697
 30
0.0
 11
496.2098718798999
 21
145.5512749087
 31
0.0
 12
496.0477097176999
 22
145.5310054117
 32
0.0
 13
496.0477097176999
 23
145.5310054117
 33
0.0
  0
SOLID
  5
30E48
330
30E6E
100
AcDbEntity
  8
0
  6
Continuous
 62
     2
100
AcDbTrace
 10
496.1693313392999
 20
145.5715448697
 30
0.0
 11
496.0477097176999
 21
145.5310054117
 31
0.0
 12
496.0882502581999
 22
145.5715448697
 32
0.0
 13
496.0882502581999
 23
145.5715448697
 33
0.0
  0
SOLID
  5
30E49
330
30E6E
100
AcDbEntity
  8
0
  6
Continuous
 62
     2
100
AcDbTrace
 10
496.0882502581999
 20
145.5715448697
 30
0.0
 11
496.149061069
 21
145.5918154493
 31
0.0
 12
496.1693313392999
 22
145.5715448697
 32
0.0
 13
496.1693313392999
 23
145.5715448697
 33
0.0
  0
SOLID
  5
30E4A
330
30E6E
100
AcDbEntity
  8
0
  6
Continuous
 62
     2
100
AcDbTrace
 10
495.2571691772
 20
145.5310054117
 30
0.0
 11
494.9733853933999
 21
145.5107342135
 31
0.0
 12
495.0139259339
 22
145.6323559898
 32
0.0
 13
495.0139259339
 23
145.6323559898
 33
0.0
  0
SOLID
  5
30E4B
330
30E6E
100
AcDbEntity
  8
0
  6
Continuous
 62
     2
100
AcDbTrace
 10
495.0139259339
 20
145.6323559898
 30
0.0
 11
495.2977097176999
 21
145.6526262601
 31
0.0
 12
495.2571691772
 22
145.5310054117
 32
0.0
 13
495.2571691772
 23
145.5310054117
 33
0.0
  0
SOLID
  5
30E4C
330
30E6E
100
AcDbEntity
  8
0
  6
Continuous
 62
     2
100
AcDbTrace
 10
495.2977097176999
 20
145.6526262601
 30
0.0
 11
495.0139259339
 21
145.6323559898
 31
0.0
 12
495.0544664744
 22
145.7337073411
 32
0.0
 13
495.0544664744
 23
145.7337073411
 33
0.0
  0
SOLID
  5
30E4D
330
30E6E
100
AcDbEntity
  8
0
  6
Continuous
 62
     2
100
AcDbTrace
 10
495.0544664744
 20
145.7337073411
 30
0.0
 11
495.3382502582
 21
145.7742480363
 31
0.0
 12
495.2977097176999
 22
145.6526262601
 32
0.0
 13
495.2977097176999
 23
145.6526262601
 33
0.0
  0
SOLID
  5
30E4E
330
30E6E
100
AcDbEntity
  8
0
  6
Continuous
 62
     2
100
AcDbTrace
 10
495.3382502582
 20
145.7742480363
 30
0.0
 11
495.0544664744
 21
145.7337073411
 31
0.0
 12
495.095007015
 22
145.7742480363
 32
0.0
 13
495.095007015
 23
145.7742480363
 33
0.0
  0
SOLID
  5
30E4F
330
30E6E
100
AcDbEntity
  8
0
  6
Continuous
 62
     2
100
AcDbTrace
 10
495.1355475555
 20
145.8350586925
 30
0.0
 11
495.1760880961
 21
145.8958695033
 31
0.0
 12
495.4193313393
 22
145.9161397736
 32
0.0
 13
495.4193313393
 23
145.9161397736
 33
0.0
  0
SOLID
  5
30E50
330
30E6E
100
AcDbEntity
  8
0
  6
Continuous
 62
     2
100
AcDbTrace
 10
495.095007015
 20
145.7742480363
 30
0.0
 11
495.1355475555
 21
145.8350586925
 31
0.0
 12
495.4193313393
 22
145.9161397736
 32
0.0
 13
495.4193313393
 23
145.9161397736
 33
0.0
  0
SOLID
  5
30E51
330
30E6E
100
AcDbEntity
  8
0
  6
Continuous
 62
     2
100
AcDbTrace
 10
495.095007015
 20
145.7742480363
 30
0.0
 11
495.4193313393
 21
145.9161397736
 31
0.0
 12
495.3382502582
 22
145.7742480363
 32
0.0
 13
495.3382502582
 23
145.7742480363
 33
0.0
  0
SOLID
  5
30E52
330
30E6E
100
AcDbEntity
  8
0
  6
Continuous
 62
     2
100
AcDbTrace
 10
495.4193313393
 20
145.9161397736
 30
0.0
 11
495.1760880961
 21
145.8958695033
 31
0.0
 12
495.2368989068999
 22
145.9769505844
 32
0.0
 13
495.2368989068999
 23
145.9769505844
 33
0.0
  0
SOLID
  5
30E53
330
30E6E
100
AcDbEntity
  8
0
  6
Continuous
 62
     2
100
AcDbTrace
 10
495.2368989068999
 20
145.9769505844
 30
0.0
 11
495.5206826907
 21
146.0580329027
 31
0.0
 12
495.4193313393
 22
145.9161397736
 32
0.0
 13
495.4193313393
 23
145.9161397736
 33
0.0
  0
SOLID
  5
30E54
330
30E6E
100
AcDbEntity
  8
0
  6
Continuous
 62
     2
100
AcDbTrace
 10
495.5206826907
 20
146.0580329027
 30
0.0
 11
495.2368989068999
 21
145.9769505844
 31
0.0
 12
495.2977097176999
 22
146.0580329027
 32
0.0
 13
495.2977097176999
 23
146.0580329027
 33
0.0
  0
SOLID
  5
30E55
330
30E6E
100
AcDbEntity
  8
0
  6
Continuous
 62
     2
100
AcDbTrace
 10
495.3787907987999
 20
146.1391127466
 30
0.0
 11
495.4598718798999
 21
146.2201938276
 31
0.0
 12
495.6423043123
 22
146.2404640979
 32
0.0
 13
495.6423043123
 23
146.2404640979
 33
0.0
  0
SOLID
  5
30E56
330
30E6E
100
AcDbEntity
  8
0
  6
Continuous
 62
     2
100
AcDbTrace
 10
495.2977097176999
 20
146.0580329027
 30
0.0
 11
495.3787907987999
 21
146.1391127466
 31
0.0
 12
495.6423043123
 22
146.2404640979
 32
0.0
 13
495.6423043123
 23
146.2404640979
 33
0.0
  0
SOLID
  5
30E57
330
30E6E
100
AcDbEntity
  8
0
  6
Continuous
 62
     2
100
AcDbTrace
 10
495.2977097176999
 20
146.0580329027
 30
0.0
 11
495.6423043123
 21
146.2404640979
 31
0.0
 12
495.5206826907
 22
146.0580329027
 32
0.0
 13
495.5206826907
 23
146.0580329027
 33
0.0
  0
SOLID
  5
30E58
330
30E6E
100
AcDbEntity
  8
0
  6
Continuous
 62
     2
100
AcDbTrace
 10
495.6423043123
 20
146.2404640979
 30
0.0
 11
495.4598718798999
 21
146.2201938276
 31
0.0
 12
495.5612232312
 22
146.321545179
 32
0.0
 13
495.5612232312
 23
146.321545179
 33
0.0
  0
SOLID
  5
30E59
330
30E6E
100
AcDbEntity
  8
0
  6
Continuous
 62
     2
100
AcDbTrace
 10
495.5612232312
 20
146.321545179
 30
0.0
 11
495.8044664744
 21
146.4228965303
 31
0.0
 12
495.6423043123
 22
146.2404640979
 32
0.0
 13
495.6423043123
 23
146.2404640979
 33
0.0
  0
SOLID
  5
30E5A
330
30E6E
100
AcDbEntity
  8
0
  6
Continuous
 62
     2
100
AcDbTrace
 10
495.8044664744
 20
146.4228965303
 30
0.0
 11
495.5612232312
 21
146.321545179
 31
0.0
 12
495.7233853933999
 22
146.4837073411
 32
0.0
 13
495.7233853933999
 23
146.4837073411
 33
0.0
  0
SOLID
  5
30E5B
330
30E6E
100
AcDbEntity
  8
0
  6
Continuous
 62
     2
100
AcDbTrace
 10
495.7233853933999
 20
146.4837073411
 30
0.0
 11
495.9868989069
 21
146.6053289628
 31
0.0
 12
495.8044664744
 22
146.4228965303
 32
0.0
 13
495.8044664744
 23
146.4228965303
 33
0.0
  0
SOLID
  5
30E5C
330
30E6E
100
AcDbEntity
  8
0
  6
Continuous
 62
     2
100
AcDbTrace
 10
495.9868989069
 20
146.6053289628
 30
0.0
 11
495.7233853933999
 21
146.4837073411
 31
0.0
 12
495.8855475555
 22
146.6458695033
 32
0.0
 13
495.8855475555
 23
146.6458695033
 33
0.0
  0
SOLID
  5
30E5D
330
30E6E
100
AcDbEntity
  8
0
  6
Continuous
 62
     2
100
AcDbTrace
 10
495.8855475555
 20
146.6458695033
 30
0.0
 11
496.1287907987999
 21
146.7674922075
 31
0.0
 12
495.9868989069
 22
146.6053289628
 32
0.0
 13
495.9868989069
 23
146.6053289628
 33
0.0
  0
SOLID
  5
30E5E
330
30E6E
100
AcDbEntity
  8
0
  6
Continuous
 62
     2
100
AcDbTrace
 10
496.1287907987999
 20
146.7674922075
 30
0.0
 11
495.8855475555
 21
146.6458695033
 31
0.0
 12
496.0274394473999
 22
146.7674922075
 32
0.0
 13
496.0274394473999
 23
146.7674922075
 33
0.0
  0
SOLID
  5
30E5F
330
30E6E
100
AcDbEntity
  8
0
  6
Continuous
 62
     2
100
AcDbTrace
 10
496.1287907987999
 20
146.8485712781
 30
0.0
 11
494.9733853933999
 21
146.8485712781
 31
0.0
 12
496.2504124204
 22
146.8891127466
 32
0.0
 13
496.2504124204
 23
146.8891127466
 33
0.0
  0
SOLID
  5
30E60
330
30E6E
100
AcDbEntity
  8
0
  6
Continuous
 62
     2
100
AcDbTrace
 10
496.0274394473999
 20
146.7674922075
 30
0.0
 11
496.1287907987999
 21
146.8485712781
 31
0.0
 12
496.2504124204
 22
146.8891127466
 32
0.0
 13
496.2504124204
 23
146.8891127466
 33
0.0
  0
SOLID
  5
30E61
330
30E6E
100
AcDbEntity
  8
0
  6
Continuous
 62
     2
100
AcDbTrace
 10
496.0274394473999
 20
146.7674922075
 30
0.0
 11
496.2504124204
 21
146.8891127466
 31
0.0
 12
496.1287907987999
 22
146.7674922075
 32
0.0
 13
496.1287907987999
 23
146.7674922075
 33
0.0
  0
SOLID
  5
30E62
330
30E6E
100
AcDbEntity
  8
0
  6
Continuous
 62
     2
100
AcDbTrace
 10
496.372034042
 20
146.9904640979
 30
0.0
 11
496.2504124204
 21
146.8891127466
 31
0.0
 12
494.9733853933999
 22
146.8485712781
 32
0.0
 13
494.9733853933999
 23
146.8485712781
 33
0.0
  0
SOLID
  5
30E63
330
30E6E
100
AcDbEntity
  8
0
  6
Continuous
 62
     2
100
AcDbTrace
 10
496.372034042
 20
147.0918165705
 30
0.0
 11
496.372034042
 21
146.9904640979
 31
0.0
 12
494.9733853933999
 22
146.8485712781
 32
0.0
 13
494.9733853933999
 23
146.8485712781
 33
0.0
  0
SOLID
  5
30E64
330
30E6E
100
AcDbEntity
  8
0
  6
Continuous
 62
     2
100
AcDbTrace
 10
495.2774394473999
 20
147.0918165705
 30
0.0
 11
496.372034042
 21
147.0918165705
 31
0.0
 12
494.9733853933999
 22
146.8485712781
 32
0.0
 13
494.9733853933999
 23
146.8485712781
 33
0.0
  0
SOLID
  5
30E65
330
30E6E
100
AcDbEntity
  8
0
  6
Continuous
 62
     2
100
AcDbTrace
 10
495.2166286366
 20
147.1120849849
 30
0.0
 11
495.2774394473999
 21
147.0918165705
 31
0.0
 12
494.9733853933999
 22
146.8485712781
 32
0.0
 13
494.9733853933999
 23
146.8485712781
 33
0.0
  0
SOLID
  5
30E66
330
30E6E
100
AcDbEntity
  8
0
  6
Continuous
 62
     2
100
AcDbTrace
 10
495.1760880961
 20
147.1120849849
 30
0.0
 11
495.2166286366
 21
147.1120849849
 31
0.0
 12
494.9733853933999
 22
146.8485712781
 32
0.0
 13
494.9733853933999
 23
146.8485712781
 33
0.0
  0
SOLID
  5
30E67
330
30E6E
100
AcDbEntity
  8
0
  6
Continuous
 62
     2
100
AcDbTrace
 10
495.1558178257999
 20
147.1120849849
 30
0.0
 11
495.1760880961
 21
147.1120849849
 31
0.0
 12
494.9733853933999
 22
146.8485712781
 32
0.0
 13
494.9733853933999
 23
146.8485712781
 33
0.0
  0
SOLID
  5
30E68
330
30E6E
100
AcDbEntity
  8
0
  6
Continuous
 62
     2
100
AcDbTrace
 10
495.1355475555
 20
147.1323559898
 30
0.0
 11
495.1558178257999
 21
147.1120849849
 31
0.0
 12
494.9733853933999
 22
146.8485712781
 32
0.0
 13
494.9733853933999
 23
146.8485712781
 33
0.0
  0
SOLID
  5
30E69
330
30E6E
100
AcDbEntity
  8
0
  6
Continuous
 62
     2
100
AcDbTrace
 10
495.1355475555
 20
147.1728965303
 30
0.0
 11
495.1355475555
 21
147.1323559898
 31
0.0
 12
494.9733853933999
 22
146.8485712781
 32
0.0
 13
494.9733853933999
 23
146.8485712781
 33
0.0
  0
SOLID
  5
30E6A
330
30E6E
100
AcDbEntity
  8
0
  6
Continuous
 62
     2
100
AcDbTrace
 10
495.1558178257999
 20
147.2742478817
 30
0.0
 11
495.1355475555
 21
147.1728965303
 31
0.0
 12
494.9733853933999
 22
146.8485712781
 32
0.0
 13
494.9733853933999
 23
146.8485712781
 33
0.0
  0
SOLID
  5
30E6B
330
30E6E
100
AcDbEntity
  8
0
  6
Continuous
 62
     2
100
AcDbTrace
 10
495.1558178257999
 20
147.2945169341
 30
0.0
 11
495.1558178257999
 21
147.2742478817
 31
0.0
 12
494.9733853933999
 22
146.8485712781
 32
0.0
 13
494.9733853933999
 23
146.8485712781
 33
0.0
  0
SOLID
  5
30E6C
330
30E6E
100
AcDbEntity
  8
0
  6
Continuous
 62
     2
100
AcDbTrace
 10
495.1558178257999
 20
147.2945169341
 30
0.0
 11
494.9733853933999
 21
146.8485712781
 31
0.0
 12
495.0747367447
 22
147.2945169341
 32
0.0
 13
495.0747367447
 23
147.2945169341
 33
0.0
  0
ENDBLK
  5
31766
330
30E6E
100
AcDbEntity
  8
0
100
AcDbBlockEnd
  0
BLOCK
  5
31771
330
315EA
100
AcDbEntity
  8
0
100
AcDbBlockBegin
  2
*D13
 70
     1
 10
0.0
 20
0.0
 30
0.0
  3
*D13
  1

  0
POINT
  5
315E0
330
315EA
100
AcDbEntity
  8
DEFPOINTS
  6
ByBlock
100
AcDbPoint
 10
5924.77157436775
 20
-3934.272475262624
 30
0.0
  0
POINT
  5
315E1
330
315EA
100
AcDbEntity
  8
DEFPOINTS
  6
ByBlock
100
AcDbPoint
 10
5982.77157436775
 20
-3934.272475262624
 30
0.0
  0
LINE
  5
315E2
330
315EA
100
AcDbEntity
  8
0
  6
ByBlock
 62
     0
370
    -2
100
AcDbLine
 10
5924.77157436775
 20
-3934.272475262624
 30
0.0
 11
5924.77157436775
 21
-3924.272475262625
 31
0.0
  0
LINE
  5
315E3
330
315EA
100
AcDbEntity
  8
0
  6
ByBlock
 62
     0
370
    -2
100
AcDbLine
 10
5982.77157436775
 20
-3934.272475262624
 30
0.0
 11
5982.77157436775
 21
-3924.272475262625
 31
0.0
  0
LINE
  5
315E4
330
315EA
100
AcDbEntity
  8
0
  6
ByBlock
 62
     0
370
    -2
100
AcDbLine
 10
5934.57157436775
 20
-3929.272475262624
 30
0.0
 11
5938.068982280437
 21
-3929.272475262624
 31
0.0
  0
LINE
  5
315E5
330
315EA
100
AcDbEntity
  8
0
  6
ByBlock
 62
     0
370
    -2
100
AcDbLine
 10
5969.474166455062
 20
-3929.272475262624
 30
0.0
 11
5972.97157436775
 21
-3929.272475262624
 31
0.0
  0
SOLID
  5
315E6
330
315EA
100
AcDbEntity
  8
0
  6
ByBlock
 62
     0
100
AcDbTrace
 10
5924.77157436775
 20
-3929.272475262624
 30
0.0
 11
5934.57157436775
 21
-3930.905808595958
 31
0.0
 12
5934.57157436775
 22
-3927.639141929291
 32
0.0
 13
5934.57157436775
 23
-3927.639141929291
 33
0.0
  0
SOLID
  5
315E7
330
315EA
100
AcDbEntity
  8
0
  6
ByBlock
 62
     0
100
AcDbTrace
 10
5982.77157436775
 20
-3929.272475262624
 30
0.0
 11
5972.97157436775
 21
-3930.905808595958
 31
0.0
 12
5972.97157436775
 22
-3927.639141929291
 32
0.0
 13
5972.97157436775
 23
-3927.639141929291
 33
0.0
  0
MTEXT
  5
315E8
330
315EA
100
AcDbEntity
  8
0
  6
ByBlock
 62
     0
100
AcDbMText
 10
5953.77157436775
 20
-3929.272475262624
 30
0.0
 40
10.0
 41
0.0
 71
     5
 72
     1
  1
%%c58
 73
     1
 44
1.0
1001
ACAD
1000
MTEXTBEGIN
1070
    73
1070
     1
1070
    44
1040
1.0
1070
    74
1070
     0
1000
MTEXTEND
  0
ENDBLK
  5
31772
330
315EA
100
AcDbEntity
  8
0
100
AcDbBlockEnd
  0
BLOCK
  5
3177D
330
31642
100
AcDbEntity
  8
0
100
AcDbBlockBegin
  2
*D19
 70
     1
 10
0.0
 20
0.0
 30
0.0
  3
*D19
  1

  0
POINT
  5
31638
330
31642
100
AcDbEntity
  8
DEFPOINTS
  6
ByBlock
100
AcDbPoint
 10
6579.32678342179
 20
-3910.416057375885
 30
0.0
  0
POINT
  5
31639
330
31642
100
AcDbEntity
  8
DEFPOINTS
  6
ByBlock
100
AcDbPoint
 10
6579.32678342179
 20
-3740.416057375885
 30
0.0
  0
LINE
  5
3163A
330
31642
100
AcDbEntity
  8
0
  6
ByBlock
 62
     0
370
    -2
100
AcDbLine
 10
6579.32678342179
 20
-3910.416057375885
 30
0.0
 11
6569.32678342179
 21
-3910.416057375885
 31
0.0
  0
LINE
  5
3163B
330
31642
100
AcDbEntity
  8
0
  6
ByBlock
 62
     0
370
    -2
100
AcDbLine
 10
6579.32678342179
 20
-3740.416057375885
 30
0.0
 11
6569.32678342179
 21
-3740.416057375885
 31
0.0
  0
LINE
  5
3163C
330
31642
100
AcDbEntity
  8
0
  6
ByBlock
 62
     0
370
    -2
100
AcDbLine
 10
6574.32678342179
 20
-3900.616057375885
 30
0.0
 11
6574.32678342179
 21
-3832.916057375885
 31
0.0
  0
LINE
  5
3163D
330
31642
100
AcDbEntity
  8
0
  6
ByBlock
 62
     0
370
    -2
100
AcDbLine
 10
6574.32678342179
 20
-3817.916057375885
 30
0.0
 11
6574.32678342179
 21
-3750.216057375885
 31
0.0
  0
SOLID
  5
3163E
330
31642
100
AcDbEntity
  8
0
  6
ByBlock
 62
     0
100
AcDbTrace
 10
6574.32678342179
 20
-3910.416057375885
 30
0.0
 11
6575.960116755124
 21
-3900.616057375885
 31
0.0
 12
6572.693450088457
 22
-3900.616057375885
 32
0.0
 13
6572.693450088457
 23
-3900.616057375885
 33
0.0
  0
SOLID
  5
3163F
330
31642
100
AcDbEntity
  8
0
  6
ByBlock
 62
     0
100
AcDbTrace
 10
6574.32678342179
 20
-3740.416057375885
 30
0.0
 11
6575.960116755124
 21
-3750.216057375885
 31
0.0
 12
6572.693450088457
 22
-3750.216057375885
 32
0.0
 13
6572.693450088457
 23
-3750.216057375885
 33
0.0
  0
MTEXT
  5
31640
330
31642
100
AcDbEntity
  8
0
  6
ByBlock
 62
     0
100
AcDbMText
 10
6574.32678342179
 20
-3825.416057375885
 30
0.0
 40
10.0
 41
0.0
 71
     5
 72
     1
  1
\A1;170
 73
     1
 44
1.0
1001
ACAD
1000
MTEXTBEGIN
1070
    73
1070
     1
1070
    44
1040
1.0
1070
    74
1070
     0
1000
MTEXTEND
  0
ENDBLK
  5
3177E
330
31642
100
AcDbEntity
  8
0
100
AcDbBlockEnd
  0
BLOCK
  5
31781
330
3165E
100
AcDbEntity
  8
0
100
AcDbBlockBegin
  2
*D21
 70
     1
 10
0.0
 20
0.0
 30
0.0
  3
*D21
  1

  0
POINT
  5
31654
330
3165E
100
AcDbEntity
  8
DEFPOINTS
  6
ByBlock
100
AcDbPoint
 10
6367.257807209177
 20
-3910.416057375885
 30
0.0
  0
POINT
  5
31655
330
3165E
100
AcDbEntity
  8
DEFPOINTS
  6
ByBlock
100
AcDbPoint
 10
6367.257807209177
 20
-3752.416057375885
 30
0.0
  0
LINE
  5
31656
330
3165E
100
AcDbEntity
  8
0
  6
ByBlock
 62
     0
370
    -2
100
AcDbLine
 10
6367.257807209177
 20
-3910.416057375885
 30
0.0
 11
6357.257807209176
 21
-3910.416057375885
 31
0.0
  0
LINE
  5
31657
330
3165E
100
AcDbEntity
  8
0
  6
ByBlock
 62
     0
370
    -2
100
AcDbLine
 10
6367.257807209177
 20
-3752.416057375885
 30
0.0
 11
6357.257807209176
 21
-3752.416057375885
 31
0.0
  0
LINE
  5
31658
330
3165E
100
AcDbEntity
  8
0
  6
ByBlock
 62
     0
370
    -2
100
AcDbLine
 10
6362.257807209176
 20
-3900.616057375885
 30
0.0
 11
6362.257807209176
 21
-3838.916057375885
 31
0.0
  0
LINE
  5
31659
330
3165E
100
AcDbEntity
  8
0
  6
ByBlock
 62
     0
370
    -2
100
AcDbLine
 10
6362.257807209176
 20
-3823.916057375885
 30
0.0
 11
6362.257807209176
 21
-3762.216057375886
 31
0.0
  0
SOLID
  5
3165A
330
3165E
100
AcDbEntity
  8
0
  6
ByBlock
 62
     0
100
AcDbTrace
 10
6362.257807209176
 20
-3910.416057375885
 30
0.0
 11
6363.891140542509
 21
-3900.616057375885
 31
0.0
 12
6360.624473875843
 22
-3900.616057375885
 32
0.0
 13
6360.624473875843
 23
-3900.616057375885
 33
0.0
  0
SOLID
  5
3165B
330
3165E
100
AcDbEntity
  8
0
  6
ByBlock
 62
     0
100
AcDbTrace
 10
6362.257807209176
 20
-3752.416057375885
 30
0.0
 11
6363.891140542509
 21
-3762.216057375886
 31
0.0
 12
6360.624473875843
 22
-3762.216057375886
 32
0.0
 13
6360.624473875843
 23
-3762.216057375886
 33
0.0
  0
MTEXT
  5
3165C
330
3165E
100
AcDbEntity
  8
0
  6
ByBlock
 62
     0
100
AcDbMText
 10
6362.257807209176
 20
-3831.416057375885
 30
0.0
 40
10.0
 41
0.0
 71
     5
 72
     1
  1
\A1;158
 73
     1
 44
1.0
1001
ACAD
1000
MTEXTBEGIN
1070
    73
1070
     1
1070
    44
1040
1.0
1070
    74
1070
     0
1000
MTEXTEND
  0
ENDBLK
  5
31782
330
3165E
100
AcDbEntity
  8
0
100
AcDbBlockEnd
  0
BLOCK
  5
31785
330
3167A
100
AcDbEntity
  8
0
100
AcDbBlockBegin
  2
*D23
 70
     1
 10
0.0
 20
0.0
 30
0.0
  3
*D23
  1

  0
POINT
  5
31670
330
3167A
100
AcDbEntity
  8
DEFPOINTS
  6
ByBlock
100
AcDbPoint
 10
6174.577994536003
 20
-3774.416057375885
 30
0.0
  0
POINT
  5
31671
330
3167A
100
AcDbEntity
  8
DEFPOINTS
  6
ByBlock
100
AcDbPoint
 10
6174.577994536003
 20
-3910.416057375885
 30
0.0
  0
LINE
  5
31672
330
3167A
100
AcDbEntity
  8
0
  6
ByBlock
 62
     0
370
    -2
100
AcDbLine
 10
6174.577994536003
 20
-3774.416057375885
 30
0.0
 11
6164.577994536004
 21
-3774.416057375885
 31
0.0
  0
LINE
  5
31673
330
3167A
100
AcDbEntity
  8
0
  6
ByBlock
 62
     0
370
    -2
100
AcDbLine
 10
6174.577994536003
 20
-3910.416057375885
 30
0.0
 11
6164.577994536004
 21
-3910.416057375885
 31
0.0
  0
LINE
  5
31674
330
3167A
100
AcDbEntity
  8
0
  6
ByBlock
 62
     0
370
    -2
100
AcDbLine
 10
6169.577994536004
 20
-3784.216057375886
 30
0.0
 11
6169.577994536004
 21
-3834.916057375885
 31
0.0
  0
LINE
  5
31675
330
3167A
100
AcDbEntity
  8
0
  6
ByBlock
 62
     0
370
    -2
100
AcDbLine
 10
6169.577994536004
 20
-3849.916057375885
 30
0.0
 11
6169.577994536004
 21
-3900.616057375885
 31
0.0
  0
SOLID
  5
31676
330
3167A
100
AcDbEntity
  8
0
  6
ByBlock
 62
     0
100
AcDbTrace
 10
6169.577994536004
 20
-3774.416057375885
 30
0.0
 11
6167.944661202671
 21
-3784.216057375886
 31
0.0
 12
6171.211327869337
 22
-3784.216057375886
 32
0.0
 13
6171.211327869337
 23
-3784.216057375886
 33
0.0
  0
SOLID
  5
31677
330
3167A
100
AcDbEntity
  8
0
  6
ByBlock
 62
     0
100
AcDbTrace
 10
6169.577994536004
 20
-3910.416057375885
 30
0.0
 11
6167.944661202671
 21
-3900.616057375885
 31
0.0
 12
6171.211327869337
 22
-3900.616057375885
 32
0.0
 13
6171.211327869337
 23
-3900.616057375885
 33
0.0
  0
MTEXT
  5
31678
330
3167A
100
AcDbEntity
  8
0
  6
ByBlock
 62
     0
100
AcDbMText
 10
6169.577994536004
 20
-3842.416057375885
 30
0.0
 40
10.0
 41
0.0
 71
     5
 72
     1
  1
\A1;136
 73
     1
 44
1.0
1001
ACAD
1000
MTEXTBEGIN
1070
    73
1070
     1
1070
    44
1040
1.0
1070
    74
1070
     0
1000
MTEXTEND
  0
ENDBLK
  5
31786
330
3167A
100
AcDbEntity
  8
0
100
AcDbBlockEnd
  0
BLOCK
  5
31789
330
31696
100
AcDbEntity
  8
0
100
AcDbBlockBegin
  2
*D25
 70
     1
 10
0.0
 20
0.0
 30
0.0
  3
*D25
  1

  0
POINT
  5
3168C
330
31696
100
AcDbEntity
  8
DEFPOINTS
  6
ByBlock
100
AcDbPoint
 10
6008.915336638488
 20
-3800.416057375885
 30
0.0
  0
POINT
  5
3168D
330
31696
100
AcDbEntity
  8
DEFPOINTS
  6
ByBlock
100
AcDbPoint
 10
6008.915336638488
 20
-3910.416057375885
 30
0.0
  0
LINE
  5
3168E
330
31696
100
AcDbEntity
  8
0
  6
ByBlock
 62
     0
370
    -2
100
AcDbLine
 10
6008.915336638488
 20
-3800.416057375885
 30
0.0
 11
5998.915336638488
 21
-3800.416057375885
 31
0.0
  0
LINE
  5
3168F
330
31696
100
AcDbEntity
  8
0
  6
ByBlock
 62
     0
370
    -2
100
AcDbLine
 10
6008.915336638488
 20
-3910.416057375885
 30
0.0
 11
5998.915336638488
 21
-3910.416057375885
 31
0.0
  0
LINE
  5
31690
330
31696
100
AcDbEntity
  8
0
  6
ByBlock
 62
     0
370
    -2
100
AcDbLine
 10
6003.915336638488
 20
-3810.216057375885
 30
0.0
 11
6003.915336638488
 21
-3847.916057375885
 31
0.0
  0
LINE
  5
31691
330
31696
100
AcDbEntity
  8
0
  6
ByBlock
 62
     0
370
    -2
100
AcDbLine
 10
6003.915336638488
 20
-3862.916057375885
 30
0.0
 11
6003.915336638488
 21
-3900.616057375885
 31
0.0
  0
SOLID
  5
31692
330
31696
100
AcDbEntity
  8
0
  6
ByBlock
 62
     0
100
AcDbTrace
 10
6003.915336638488
 20
-3800.416057375885
 30
0.0
 11
6002.282003305155
 21
-3810.216057375885
 31
0.0
 12
6005.548669971822
 22
-3810.216057375885
 32
0.0
 13
6005.548669971822
 23
-3810.216057375885
 33
0.0
  0
SOLID
  5
31693
330
31696
100
AcDbEntity
  8
0
  6
ByBlock
 62
     0
100
AcDbTrace
 10
6003.915336638488
 20
-3910.416057375885
 30
0.0
 11
6002.282003305155
 21
-3900.616057375885
 31
0.0
 12
6005.548669971822
 22
-3900.616057375885
 32
0.0
 13
6005.548669971822
 23
-3900.616057375885
 33
0.0
  0
MTEXT
  5
31694
330
31696
100
AcDbEntity
  8
0
  6
ByBlock
 62
     0
100
AcDbMText
 10
6003.915336638488
 20
-3855.416057375885
 30
0.0
 40
10.0
 41
0.0
 71
     5
 72
     1
  1
\A1;110
 73
     1
 44
1.0
1001
ACAD
1000
MTEXTBEGIN
1070
    73
1070
     1
1070
    44
1040
1.0
1070
    74
1070
     0
1000
MTEXTEND
  0
ENDBLK
  5
3178A
330
31696
100
AcDbEntity
  8
0
100
AcDbBlockEnd
  0
BLOCK
  5
3179F
330
31733
100
AcDbEntity
  8
0
100
AcDbBlockBegin
  2
*D36
 70
     1
 10
0.0
 20
0.0
 30
0.0
  3
*D36
  1

  0
POINT
  5
31729
330
31733
100
AcDbEntity
  8
DEFPOINTS
  6
ByBlock
100
AcDbPoint
 10
6061.77157436775
 20
-3934.272475262624
 30
0.0
  0
POINT
  5
3172A
330
31733
100
AcDbEntity
  8
DEFPOINTS
  6
ByBlock
100
AcDbPoint
 10
6145.77157436775
 20
-3934.272475262624
 30
0.0
  0
LINE
  5
3172B
330
31733
100
AcDbEntity
  8
0
  6
ByBlock
 62
     0
370
    -2
100
AcDbLine
 10
6061.77157436775
 20
-3934.272475262624
 30
0.0
 11
6061.77157436775
 21
-3924.272475262625
 31
0.0
  0
LINE
  5
3172C
330
31733
100
AcDbEntity
  8
0
  6
ByBlock
 62
     0
370
    -2
100
AcDbLine
 10
6145.77157436775
 20
-3934.272475262624
 30
0.0
 11
6145.77157436775
 21
-3924.272475262625
 31
0.0
  0
LINE
  5
3172D
330
31733
100
AcDbEntity
  8
0
  6
ByBlock
 62
     0
370
    -2
100
AcDbLine
 10
6071.57157436775
 20
-3929.272475262624
 30
0.0
 11
6088.068982280438
 21
-3929.272475262624
 31
0.0
  0
LINE
  5
3172E
330
31733
100
AcDbEntity
  8
0
  6
ByBlock
 62
     0
370
    -2
100
AcDbLine
 10
6119.474166455062
 20
-3929.272475262624
 30
0.0
 11
6135.97157436775
 21
-3929.272475262624
 31
0.0
  0
SOLID
  5
3172F
330
31733
100
AcDbEntity
  8
0
  6
ByBlock
 62
     0
100
AcDbTrace
 10
6061.77157436775
 20
-3929.272475262624
 30
0.0
 11
6071.57157436775
 21
-3930.905808595958
 31
0.0
 12
6071.57157436775
 22
-3927.639141929291
 32
0.0
 13
6071.57157436775
 23
-3927.639141929291
 33
0.0
  0
SOLID
  5
31730
330
31733
100
AcDbEntity
  8
0
  6
ByBlock
 62
     0
100
AcDbTrace
 10
6145.77157436775
 20
-3929.272475262624
 30
0.0
 11
6135.97157436775
 21
-3930.905808595958
 31
0.0
 12
6135.97157436775
 22
-3927.639141929291
 32
0.0
 13
6135.97157436775
 23
-3927.639141929291
 33
0.0
  0
MTEXT
  5
31731
330
31733
100
AcDbEntity
  8
0
  6
ByBlock
 62
     0
100
AcDbMText
 10
6103.77157436775
 20
-3929.272475262624
 30
0.0
 40
10.0
 41
0.0
 71
     5
 72
     1
  1
%%c84
 73
     1
 44
1.0
1001
ACAD
1000
MTEXTBEGIN
1070
    73
1070
     1
1070
    44
1040
1.0
1070
    74
1070
     0
1000
MTEXTEND
  0
ENDBLK
  5
317A0
330
31733
100
AcDbEntity
  8
0
100
AcDbBlockEnd
  0
BLOCK
  5
317A1
330
31741
100
AcDbEntity
  8
0
100
AcDbBlockBegin
  2
*D37
 70
     1
 10
0.0
 20
0.0
 30
0.0
  3
*D37
  1

  0
POINT
  5
31737
330
31741
100
AcDbEntity
  8
DEFPOINTS
  6
ByBlock
100
AcDbPoint
 10
6224.27159527845
 20
-3934.272475262624
 30
0.0
  0
POINT
  5
31738
330
31741
100
AcDbEntity
  8
DEFPOINTS
  6
ByBlock
100
AcDbPoint
 10
6333.271572133249
 20
-3934.272475262624
 30
0.0
  0
LINE
  5
31739
330
31741
100
AcDbEntity
  8
0
  6
ByBlock
 62
     0
370
    -2
100
AcDbLine
 10
6224.27159527845
 20
-3934.272475262624
 30
0.0
 11
6224.27159527845
 21
-3924.272475262625
 31
0.0
  0
LINE
  5
3173A
330
31741
100
AcDbEntity
  8
0
  6
ByBlock
 62
     0
370
    -2
100
AcDbLine
 10
6333.271572133249
 20
-3934.272475262624
 30
0.0
 11
6333.271572133249
 21
-3924.272475262625
 31
0.0
  0
LINE
  5
3173B
330
31741
100
AcDbEntity
  8
0
  6
ByBlock
 62
     0
370
    -2
100
AcDbLine
 10
6234.07159527845
 20
-3929.272475262624
 30
0.0
 11
6259.184271291116
 21
-3929.272475262624
 31
0.0
  0
LINE
  5
3173C
330
31741
100
AcDbEntity
  8
0
  6
ByBlock
 62
     0
370
    -2
100
AcDbLine
 10
6298.358896120585
 20
-3929.272475262624
 30
0.0
 11
6323.47157213325
 21
-3929.272475262624
 31
0.0
  0
SOLID
  5
3173D
330
31741
100
AcDbEntity
  8
0
  6
ByBlock
 62
     0
100
AcDbTrace
 10
6224.27159527845
 20
-3929.272475262624
 30
0.0
 11
6234.07159527845
 21
-3930.905808595958
 31
0.0
 12
6234.07159527845
 22
-3927.639141929291
 32
0.0
 13
6234.07159527845
 23
-3927.639141929291
 33
0.0
  0
SOLID
  5
3173E
330
31741
100
AcDbEntity
  8
0
  6
ByBlock
 62
     0
100
AcDbTrace
 10
6333.271572133249
 20
-3929.272475262624
 30
0.0
 11
6323.47157213325
 21
-3930.905808595958
 31
0.0
 12
6323.47157213325
 22
-3927.639141929291
 32
0.0
 13
6323.47157213325
 23
-3927.639141929291
 33
0.0
  0
MTEXT
  5
3173F
330
31741
100
AcDbEntity
  8
0
  6
ByBlock
 62
     0
100
AcDbMText
 10
6278.77158370585
 20
-3929.272475262624
 30
0.0
 40
10.0
 41
0.0
 71
     5
 72
     1
  1
%%c109
 73
     1
 44
1.0
1001
ACAD
1000
MTEXTBEGIN
1070
    73
1070
     1
1070
    44
1040
1.0
1070
    74
1070
     0
1000
MTEXTEND
  0
ENDBLK
  5
317A2
330
31741
100
AcDbEntity
  8
0
100
AcDbBlockEnd
  0
BLOCK
  5
317A3
330
3174F
100
AcDbEntity
  8
0
100
AcDbBlockBegin
  2
*D38
 70
     1
 10
0.0
 20
0.0
 30
0.0
  3
*D38
  1

  0
POINT
  5
31745
330
3174F
100
AcDbEntity
  8
DEFPOINTS
  6
ByBlock
100
AcDbPoint
 10
6411.27160341795
 20
-3934.272475262624
 30
0.0
  0
POINT
  5
31746
330
3174F
100
AcDbEntity
  8
DEFPOINTS
  6
ByBlock
100
AcDbPoint
 10
6546.27157436775
 20
-3934.272475262624
 30
0.0
  0
LINE
  5
31747
330
3174F
100
AcDbEntity
  8
0
  6
ByBlock
 62
     0
370
    -2
100
AcDbLine
 10
6411.27160341795
 20
-3934.272475262624
 30
0.0
 11
6411.27160341795
 21
-3924.272475262625
 31
0.0
  0
LINE
  5
31748
330
3174F
100
AcDbEntity
  8
0
  6
ByBlock
 62
     0
370
    -2
100
AcDbLine
 10
6546.27157436775
 20
-3934.272475262624
 30
0.0
 11
6546.27157436775
 21
-3924.272475262625
 31
0.0
  0
LINE
  5
31749
330
3174F
100
AcDbEntity
  8
0
  6
ByBlock
 62
     0
370
    -2
100
AcDbLine
 10
6421.071603417951
 20
-3929.272475262624
 30
0.0
 11
6459.184276478116
 21
-3929.272475262624
 31
0.0
  0
LINE
  5
3174A
330
3174F
100
AcDbEntity
  8
0
  6
ByBlock
 62
     0
370
    -2
100
AcDbLine
 10
6498.358901307584
 20
-3929.272475262624
 30
0.0
 11
6536.471574367749
 21
-3929.272475262624
 31
0.0
  0
SOLID
  5
3174B
330
3174F
100
AcDbEntity
  8
0
  6
ByBlock
 62
     0
100
AcDbTrace
 10
6411.27160341795
 20
-3929.272475262624
 30
0.0
 11
6421.071603417951
 21
-3930.905808595958
 31
0.0
 12
6421.071603417951
 22
-3927.639141929291
 32
0.0
 13
6421.071603417951
 23
-3927.639141929291
 33
0.0
  0
SOLID
  5
3174C
330
3174F
100
AcDbEntity
  8
0
  6
ByBlock
 62
     0
100
AcDbTrace
 10
6546.27157436775
 20
-3929.272475262624
 30
0.0
 11
6536.471574367749
 21
-3930.905808595958
 31
0.0
 12
6536.471574367749
 22
-3927.639141929291
 32
0.0
 13
6536.471574367749
 23
-3927.639141929291
 33
0.0
  0
MTEXT
  5
3174D
330
3174F
100
AcDbEntity
  8
0
  6
ByBlock
 62
     0
100
AcDbMText
 10
6478.77158889285
 20
-3929.272475262624
 30
0.0
 40
10.0
 41
0.0
 71
     5
 72
     1
  1
%%c135
 73
     1
 44
1.0
1001
ACAD
1000
MTEXTBEGIN
1070
    73
1070
     1
1070
    44
1040
1.0
1070
    74
1070
     0
1000
MTEXTEND
  0
ENDBLK
  5
317A4
330
3174F
100
AcDbEntity
  8
0
100
AcDbBlockEnd
  0
ENDSEC
  0
SECTION
  2
ENTITIES
  0
MTEXT
  5
4D4E
330
1F
100
AcDbEntity
  8
0
100
AcDbMText
 10
444.9239599433507
 20
923.6173050671483
 30
0.0
 40
2.5
 41
355.8655839031606
 71
     1
 72
     1
  1

 73
     1
 44
1.0
1001
ACAD
1000
MTEXTBEGIN
1070
    73
1070
     1
1070
    44
1040
1.0
1070
    74
1070
     0
1000
MTEXTEND
  0
MTEXT
  5
4D4F
330
1F
100
AcDbEntity
  8
0
100
AcDbMText
 10
613.6306071270714
 20
986.8822977610435
 30
0.0
 40
2.5
 41
382.225997525617
 71
     1
 72
     1
  1

 73
     1
 44
1.0
1001
ACAD
1000
MTEXTBEGIN
1070
    73
1070
     1
1070
    44
1040
1.0
1070
    74
1070
     0
1000
MTEXTEND
  0
LINE
  5
311F0
330
1F
100
AcDbEntity
  8
0
100
AcDbLine
 10
5924.77157436775
 20
-3800.416057375885
 30
0.0
 11
5924.77157436775
 21
-3910.416057375885
 31
0.0
  0
LWPOLYLINE
  5
311F1
330
1F
100
AcDbEntity
  8
0
100
AcDbPolyline
 90
       17
 70
     0
 43
0.0
 10
5948.57346116025
 20
-3808.416057375885
 10
5948.657790807449
 20
-3807.561841213785
 10
5948.92236370405
 20
-3806.706190118286
 10
5949.37328318695
 20
-3805.884302406585
 10
5949.99918622375
 20
-3805.148095394385
 10
5950.781383675351
 20
-3804.530723597885
 10
5951.697240884151
 20
-3804.060654909785
 10
5952.70697156405
 20
-3803.766743915585
 10
5953.76375444855
 20
-3803.666063886285
 10
5954.821189156249
 20
-3803.763900676785
 10
5955.83253259465
 20
-3804.055352719185
 10
5956.75073728785
 20
-3804.523606038586
 10
5957.53611442675
 20
-3805.140546032885
 10
5958.16467482505
 20
-3805.876947726385
 10
5958.617515560749
 20
-3806.697555956885
 10
5958.88417570755
 20
-3807.558783200685
 10
5958.96968757535
 20
-3808.416057375885
  0
LWPOLYLINE
  5
311F2
330
1F
100
AcDbEntity
  8
0
100
AcDbPolyline
 90
       17
 70
     0
 43
0.0
 10
5958.96968757535
 20
-3808.416057375885
 10
5958.88525701235
 20
-3809.270785815385
 10
5958.62050794125
 20
-3810.126576180585
 10
5958.169472711951
 20
-3810.948390805086
 10
5957.54344294755
 20
-3811.684513168285
 10
5956.76101977745
 20
-3812.301872974785
 10
5955.84502382225
 20
-3812.771810818685
 10
5954.83524342455
 20
-3813.065549330985
 10
5953.77844886235
 20
-3813.166052094185
 10
5952.72104234845
 20
-3813.068041226085
 10
5951.70976451255
 20
-3812.776426030485
 10
5950.791689866449
 20
-3812.308046230486
 10
5950.00650482615
 20
-3811.691063510984
 10
5949.37802306365
 20
-3810.954512239285
 10
5948.92530553055
 20
-3810.133786378685
 10
5948.65885133525
 20
-3809.272723333085
 10
5948.57346116025
 20
-3808.416057375885
  0
LINE
  5
311FA
330
1F
100
AcDbEntity
  8
0
100
AcDbLine
 10
5982.77157436775
 20
-3800.416057375885
 30
0.0
 11
5982.77157436775
 21
-3910.416057375885
 31
0.0
  0
LINE
  5
31202
330
1F
100
AcDbEntity
  8
0
100
AcDbLine
 10
6061.77157436775
 20
-3910.416057375885
 30
0.0
 11
6061.77157436775
 21
-3774.416057375885
 31
0.0
  0
LINE
  5
3120B
330
1F
100
AcDbEntity
  8
0
100
AcDbLine
 10
6103.36013788835
 20
-3783.558874978885
 30
0.0
 11
6103.34564702475
 21
-3782.302998050385
 31
0.0
  0
LINE
  5
3120C
330
1F
100
AcDbEntity
  8
0
100
AcDbLine
 10
6104.183010847149
 20
-3785.273239772885
 30
0.0
 11
6104.19750171075
 21
-3786.529116701285
 31
0.0
  0
LINE
  5
3120D
330
1F
100
AcDbEntity
  8
0
100
AcDbLine
 10
6103.32157436775
 20
-3786.671606089586
 30
0.0
 11
6103.32157436775
 21
-3785.466057375885
 31
0.0
  0
LINE
  5
3120E
330
1F
100
AcDbEntity
  8
0
100
AcDbLine
 10
6103.32157436775
 20
-3783.366057375885
 30
0.0
 11
6103.32157436775
 21
-3782.160508662085
 31
0.0
  0
LINE
  5
3120F
330
1F
100
AcDbEntity
  8
0
100
AcDbLine
 10
6104.22157436775
 20
-3782.160508662085
 30
0.0
 11
6104.22157436775
 21
-3783.366057375885
 31
0.0
  0
LINE
  5
31210
330
1F
100
AcDbEntity
  8
0
100
AcDbLine
 10
6104.22157436775
 20
-3785.466057375885
 30
0.0
 11
6104.22157436775
 21
-3786.671606089586
 31
0.0
  0
LWPOLYLINE
  5
31211
330
1F
100
AcDbEntity
  8
0
100
AcDbPolyline
 90
        3
 70
     0
 43
0.0
 10
6103.36013788835
 20
-3785.273239772885
 10
6103.34804409335
 20
-3786.325930543485
 10
6103.34564702475
 20
-3786.529116701285
  0
LWPOLYLINE
  5
31212
330
1F
100
AcDbEntity
  8
0
100
AcDbPolyline
 90
        3
 70
     0
 43
0.0
 10
6104.183010847149
 20
-3783.558874978885
 10
6104.19510464215
 20
-3782.506184208286
 10
6104.19750171075
 20
-3782.302998050385
  0
LWPOLYLINE
  5
31213
330
1F
100
AcDbEntity
  8
0
100
AcDbPolyline
 90
       11
 70
     0
 43
0.0
 10
6103.36013788835
 20
-3783.558874978885
 10
6103.35490777945
 20
-3783.634097485085
 10
6103.33887573125
 20
-3783.703841657885
 10
6103.31337712525
 20
-3783.768063522985
 10
6103.278297963651
 20
-3783.827113321485
 10
6103.23404133395
 20
-3783.879524102485
 10
6103.18164767835
 20
-3783.923516755385
 10
6103.12256475445
 20
-3783.958330996985
 10
6103.058546661951
 20
-3783.983629826585
 10
6102.98911061605
 20
-3783.999450587085
 10
6102.914391970751
 20
-3784.004620896485
  0
LWPOLYLINE
  5
31214
330
1F
100
AcDbEntity
  8
0
100
AcDbPolyline
 90
       11
 70
     0
 43
0.0
 10
6104.183010847149
 20
-3785.273239772885
 10
6104.188240956051
 20
-3785.198017266585
 10
6104.20427300425
 20
-3785.128273093885
 10
6104.22977161025
 20
-3785.064051228785
 10
6104.264850771849
 20
-3785.005001430285
 10
6104.30910740155
 20
-3784.952590649185
 10
6104.36150105715
 20
-3784.908597996385
 10
6104.42058398105
 20
-3784.873783754685
 10
6104.484602073649
 20
-3784.848484925085
 10
6104.55403811955
 20
-3784.832664164685
 10
6104.62875676475
 20
-3784.827493855285
  0
LINE
  5
31215
330
1F
100
AcDbEntity
  8
0
100
AcDbLine
 10
6103.32157436775
 20
-3786.671606089586
 30
0.0
 11
6103.34564702475
 21
-3786.529116701285
 31
0.0
  0
LINE
  5
31216
330
1F
100
AcDbEntity
  8
0
100
AcDbLine
 10
6104.22157436775
 20
-3782.160508662085
 30
0.0
 11
6104.19750171075
 21
-3782.302998050385
 31
0.0
  0
LINE
  5
31217
330
1F
100
AcDbEntity
  8
0
100
AcDbLine
 10
6103.36013788835
 20
-3785.273239772885
 30
0.0
 11
6103.32157436775
 21
-3785.466057373685
 31
0.0
  0
LINE
  5
31218
330
1F
100
AcDbEntity
  8
0
100
AcDbLine
 10
6104.183010847149
 20
-3783.558874978885
 30
0.0
 11
6104.22157436775
 21
-3783.366057377985
 31
0.0
  0
LINE
  5
3122A
330
1F
100
AcDbEntity
  8
0
100
AcDbLine
 10
6103.34564702475
 20
-3782.302998050385
 30
0.0
 11
6103.32157436775
 21
-3782.160508662085
 31
0.0
  0
LINE
  5
3122B
330
1F
100
AcDbEntity
  8
0
100
AcDbLine
 10
6104.19750171075
 20
-3786.529116701285
 30
0.0
 11
6104.22157436775
 21
-3786.671606089586
 31
0.0
  0
LINE
  5
3122E
330
1F
100
AcDbEntity
  8
0
100
AcDbLine
 10
6546.27154531765
 20
-3910.416057375885
 30
0.0
 11
6411.27160341795
 21
-3910.416057375885
 31
0.0
  0
LINE
  5
3122F
330
1F
100
AcDbEntity
  8
0
100
AcDbLine
 10
6333.271548988051
 20
-3910.416057375885
 30
0.0
 11
6224.27159527845
 21
-3910.416057375885
 31
0.0
  0
LINE
  5
31230
330
1F
100
AcDbEntity
  8
0
100
AcDbLine
 10
6145.77123213525
 20
-3910.416057375885
 30
0.0
 11
6061.77193224605
 21
-3910.416057375885
 31
0.0
  0
LINE
  5
31231
330
1F
100
AcDbEntity
  8
0
100
AcDbLine
 10
5982.77157436775
 20
-3910.416057375885
 30
0.0
 11
5924.77157436775
 21
-3910.416057375885
 31
0.0
  0
LINE
  5
31232
330
1F
100
AcDbEntity
  8
0
100
AcDbLine
 10
6103.32157436775
 20
-3783.366057371586
 30
0.0
 11
6103.36013788835
 21
-3783.558874978885
 31
0.0
  0
LINE
  5
31233
330
1F
100
AcDbEntity
  8
0
100
AcDbLine
 10
6104.22157436775
 20
-3785.466057380085
 30
0.0
 11
6104.183010847149
 21
-3785.273239772885
 31
0.0
  0
LINE
  5
31234
330
1F
100
AcDbEntity
  8
0
100
AcDbLine
 10
6145.77157436775
 20
-3910.416057375885
 30
0.0
 11
6145.77157436775
 21
-3774.416057375885
 31
0.0
  0
LINE
  5
31235
330
1F
100
AcDbEntity
  8
0
100
AcDbLine
 10
6224.27157213325
 20
-3910.416057375885
 30
0.0
 11
6224.27157213325
 21
-3752.416057375885
 31
0.0
  0
LINE
  5
31236
330
1F
100
AcDbEntity
  8
0
100
AcDbLine
 10
6278.36013788835
 20
-3761.558874978885
 30
0.0
 11
6278.34564702475
 21
-3760.302998050386
 31
0.0
  0
LINE
  5
31237
330
1F
100
AcDbEntity
  8
0
100
AcDbLine
 10
6278.32157436775
 20
-3764.671606089585
 30
0.0
 11
6278.32157436775
 21
-3763.466057375885
 31
0.0
  0
LINE
  5
31238
330
1F
100
AcDbEntity
  8
0
100
AcDbLine
 10
6278.32157436775
 20
-3761.366057375885
 30
0.0
 11
6278.32157436775
 21
-3760.160508662085
 31
0.0
  0
LINE
  5
31239
330
1F
100
AcDbEntity
  8
0
100
AcDbLine
 10
6278.77157245515
 20
-3766.666404522285
 30
0.0
 11
6278.77157281785
 21
-3766.306956576686
 31
0.0
  0
LINE
  5
3123A
330
1F
100
AcDbEntity
  8
0
100
AcDbLine
 10
6278.77157187785
 20
-3758.165697956985
 30
0.0
 11
6278.77157231035
 21
-3758.525158175885
 31
0.0
  0
LINE
  5
3123B
330
1F
100
AcDbEntity
  8
0
100
AcDbLine
 10
6279.22157436775
 20
-3760.160508662085
 30
0.0
 11
6279.22157436775
 21
-3761.366057375885
 31
0.0
  0
LINE
  5
3123C
330
1F
100
AcDbEntity
  8
0
100
AcDbLine
 10
6279.22157436775
 20
-3763.466057375885
 30
0.0
 11
6279.22157436775
 21
-3764.671606089585
 31
0.0
  0
LWPOLYLINE
  5
3123D
330
1F
100
AcDbEntity
  8
0
100
AcDbPolyline
 90
        3
 70
     0
 43
0.0
 10
6278.36013788835
 20
-3763.273239772885
 10
6278.34804409335
 20
-3764.325930543485
 10
6278.34564702475
 20
-3764.529116701285
  0
LWPOLYLINE
  5
3123E
330
1F
100
AcDbEntity
  8
0
100
AcDbPolyline
 90
        3
 70
     0
 43
0.0
 10
6279.183010847151
 20
-3761.558874978885
 10
6279.19510464215
 20
-3760.506184208285
 10
6279.19750171075
 20
-3760.302998050386
  0
LWPOLYLINE
  5
3123F
330
1F
100
AcDbEntity
  8
0
100
AcDbPolyline
 90
       11
 70
     0
 43
0.0
 10
6278.36013788835
 20
-3761.558874978885
 10
6278.35490777945
 20
-3761.634097485085
 10
6278.338875731249
 20
-3761.703841657885
 10
6278.31337712525
 20
-3761.768063522985
 10
6278.278297963651
 20
-3761.827113321485
 10
6278.234041333949
 20
-3761.879524102485
 10
6278.18164767835
 20
-3761.923516755385
 10
6278.12256475445
 20
-3761.958330996985
 10
6278.05854666195
 20
-3761.983629826585
 10
6277.989110616051
 20
-3761.999450587085
 10
6277.91439197075
 20
-3762.004620896485
  0
LWPOLYLINE
  5
31240
330
1F
100
AcDbEntity
  8
0
100
AcDbPolyline
 90
       11
 70
     0
 43
0.0
 10
6279.183010847151
 20
-3763.273239772885
 10
6279.188240956051
 20
-3763.198017266585
 10
6279.20427300425
 20
-3763.128273093885
 10
6279.22977161025
 20
-3763.064051228786
 10
6279.264850771849
 20
-3763.005001430285
 10
6279.30910740155
 20
-3762.952590649185
 10
6279.361501057151
 20
-3762.908597996385
 10
6279.42058398105
 20
-3762.873783754685
 10
6279.484602073649
 20
-3762.848484925085
 10
6279.55403811955
 20
-3762.832664164685
 10
6279.62875676475
 20
-3762.827493855285
  0
LINE
  5
31241
330
1F
100
AcDbEntity
  8
0
100
AcDbLine
 10
6278.32157436775
 20
-3764.671606089585
 30
0.0
 11
6278.34564702475
 21
-3764.529116701285
 31
0.0
  0
LINE
  5
31242
330
1F
100
AcDbEntity
  8
0
100
AcDbLine
 10
6279.22157436775
 20
-3760.160508662085
 30
0.0
 11
6279.19750171075
 21
-3760.302998050386
 31
0.0
  0
LINE
  5
31243
330
1F
100
AcDbEntity
  8
0
100
AcDbLine
 10
6278.36013788835
 20
-3763.273239772885
 30
0.0
 11
6278.32157436775
 21
-3763.466057373686
 31
0.0
  0
LINE
  5
31244
330
1F
100
AcDbEntity
  8
0
100
AcDbLine
 10
6279.183010847151
 20
-3761.558874978885
 30
0.0
 11
6279.22157436775
 21
-3761.366057377985
 31
0.0
  0
LINE
  5
31247
330
1F
100
AcDbEntity
  8
0
100
AcDbLine
 10
6279.183010847151
 20
-3763.273239772885
 30
0.0
 11
6279.19750171075
 21
-3764.529116701285
 31
0.0
  0
LINE
  5
31248
330
1F
100
AcDbEntity
  8
0
100
AcDbLine
 10
5924.77157436775
 20
-3800.416057375885
 30
0.0
 11
5982.77157436775
 21
-3800.416057375885
 31
0.0
  0
LWPOLYLINE
  5
31249
330
1F
100
AcDbEntity
  8
0
100
AcDbPolyline
 90
       11
 70
     0
 43
0.0
 10
6102.914391970751
 20
-3784.827493855285
 10
6102.98961447815
 20
-3784.832723964185
 10
6103.05935865135
 20
-3784.848756012586
 10
6103.12358051695
 20
-3784.874254619086
 10
6103.18263031535
 20
-3784.909333781585
 10
6103.23504109565
 20
-3784.953590410185
 10
6103.279033747149
 20
-3785.005984065585
 10
6103.31384798895
 20
-3785.065066988485
 10
6103.33914681845
 20
-3785.129085080685
 10
6103.354967579051
 20
-3785.198521126585
 10
6103.36013788835
 20
-3785.273239772885
  0
LWPOLYLINE
  5
3124A
330
1F
100
AcDbEntity
  8
0
100
AcDbPolyline
 90
       11
 70
     0
 43
0.0
 10
6104.62875676475
 20
-3784.004620896485
 10
6104.55353425735
 20
-3783.999390787485
 10
6104.483790084151
 20
-3783.983358739085
 10
6104.41956821855
 20
-3783.957860132585
 10
6104.36051842015
 20
-3783.922780970085
 10
6104.30810763985
 20
-3783.878524341485
 10
6104.26411498845
 20
-3783.826130686185
 10
6104.229300746549
 20
-3783.767047763185
 10
6104.20400191705
 20
-3783.703029670985
 10
6104.18818115645
 20
-3783.633593625185
 10
6104.183010847149
 20
-3783.558874978885
  0
LWPOLYLINE
  5
3124B
330
1F
100
AcDbEntity
  8
0
100
AcDbPolyline
 90
       16
 70
     0
 43
0.0
 10
6103.77157436775
 20
-3789.166057375885
 10
6102.83066793415
 20
-3789.062973051186
 10
6101.93710511985
 20
-3788.761287265285
 10
6101.12479478755
 20
-3788.276239440085
 10
6100.42573420625
 20
-3787.629077227985
 10
6099.864017833049
 20
-3786.839768854085
 10
6099.46985105665
 20
-3785.946727772285
 10
6099.25932369465
 20
-3784.980569147485
 10
6099.245405626151
 20
-3783.990074730385
 10
6099.43160618145
 20
-3783.008093864085
 10
6099.813272202849
 20
-3782.083964389785
 10
6100.376180969449
 20
-3781.260330428585
 10
6101.08266996525
 20
-3780.587829242485
 10
6101.90350026165
 20
-3780.086514029385
 10
6102.80962006435
 20
-3779.773859013485
 10
6103.77157436775
 20
-3779.666057375885
  0
LWPOLYLINE
  5
3124C
330
1F
100
AcDbEntity
  8
0
100
AcDbPolyline
 90
       16
 70
     0
 43
0.0
 10
6103.77157436775
 20
-3779.666057375885
 10
6104.71335437445
 20
-3779.769335318985
 10
6105.607146755151
 20
-3780.071337018285
 10
6106.419868601149
 20
-3780.557010979585
 10
6107.12010061005
 20
-3781.206095584285
 10
6107.682759329851
 20
-3781.998743142185
 10
6108.07630042425
 20
-3782.894625369986
 10
6108.28495588795
 20
-3783.861493881485
 10
6108.29697230885
 20
-3784.850880547985
 10
6108.10953444765
 20
-3785.830756474685
 10
6107.727371514251
 20
-3786.752785412985
 10
6107.16478381225
 20
-3787.574349105485
 10
6106.45930350215
 20
-3788.245187482586
 10
6105.63986146375
 20
-3788.745500209985
 10
6104.73441882865
 20
-3789.058053827086
 10
6103.77157436775
 20
-3789.166057375885
  0
LINE
  5
3124D
330
1F
100
AcDbEntity
  8
0
100
AcDbLine
 10
6106.02712308145
 20
-3784.866057375885
 30
0.0
 11
6105.88463369325
 21
-3784.841984718885
 31
0.0
  0
LINE
  5
3124E
330
1F
100
AcDbEntity
  8
0
100
AcDbLine
 10
6101.51602565405
 20
-3783.966057375886
 30
0.0
 11
6101.65851504235
 21
-3783.990130032885
 31
0.0
  0
LINE
  5
3124F
330
1F
100
AcDbEntity
  8
0
100
AcDbLine
 10
6104.62875676475
 20
-3784.827493855285
 30
0.0
 11
6104.82157436565
 21
-3784.866057375885
 31
0.0
  0
LINE
  5
31250
330
1F
100
AcDbEntity
  8
0
100
AcDbLine
 10
6102.914391970751
 20
-3784.004620896485
 30
0.0
 11
6102.72157436995
 21
-3783.966057375886
 31
0.0
  0
LINE
  5
31251
330
1F
100
AcDbEntity
  8
0
100
AcDbLine
 10
6278.32157436775
 20
-3761.366057371585
 30
0.0
 11
6278.36013788835
 21
-3761.558874978885
 31
0.0
  0
LINE
  5
31252
330
1F
100
AcDbEntity
  8
0
100
AcDbLine
 10
6279.22157436775
 20
-3763.466057380085
 30
0.0
 11
6279.183010847151
 21
-3763.273239772885
 31
0.0
  0
LINE
  5
31253
330
1F
100
AcDbEntity
  8
0
100
AcDbLine
 10
6278.34564702475
 20
-3760.302998050386
 30
0.0
 11
6278.32157436775
 21
-3760.160508662085
 31
0.0
  0
LINE
  5
31254
330
1F
100
AcDbEntity
  8
0
100
AcDbLine
 10
6279.19750171075
 20
-3764.529116701285
 30
0.0
 11
6279.22157436775
 21
-3764.671606089585
 31
0.0
  0
LINE
  5
31255
330
1F
100
AcDbEntity
  8
0
100
AcDbLine
 10
6477.721574363549
 20
-3750.866057375885
 30
0.0
 11
6477.914391970751
 21
-3750.827493855285
 31
0.0
  0
LINE
  5
31256
330
1F
100
AcDbEntity
  8
0
100
AcDbLine
 10
6479.82157437205
 20
-3749.966057375885
 30
0.0
 11
6479.62875676475
 21
-3750.004620896485
 31
0.0
  0
LINE
  5
31257
330
1F
100
AcDbEntity
  8
0
100
AcDbLine
 10
6476.658515042349
 20
-3750.841984718885
 30
0.0
 11
6476.516025654049
 21
-3750.866057375885
 31
0.0
  0
LINE
  5
31258
330
1F
100
AcDbEntity
  8
0
100
AcDbLine
 10
6480.88463369325
 20
-3749.990130032885
 30
0.0
 11
6481.02712308145
 21
-3749.966057375885
 31
0.0
  0
LWPOLYLINE
  5
31259
330
1F
100
AcDbEntity
  8
0
100
AcDbPolyline
 90
        7
 70
     0
 43
0.0
 10
6478.771574367749
 20
-3755.166953989885
 10
6480.04259886625
 20
-3755.005358010186
 10
6481.23570844405
 20
-3754.530776553585
 10
6482.265465716451
 20
-3753.768916591985
 10
6483.054235597051
 20
-3752.772998826485
 10
6483.54145942935
 20
-3751.626072969286
 10
6483.704266992751
 20
-3750.436118023185
  0
LINE
  5
3125A
330
1F
100
AcDbEntity
  8
0
100
AcDbLine
 10
6102.914391970751
 20
-3784.827493855285
 30
0.0
 11
6101.65851504235
 21
-3784.841984718885
 31
0.0
  0
LINE
  5
3125B
330
1F
100
AcDbEntity
  8
0
100
AcDbLine
 10
6104.62875676475
 20
-3784.004620896485
 30
0.0
 11
6105.88463369325
 21
-3783.990130032885
 31
0.0
  0
LINE
  5
3125C
330
1F
100
AcDbEntity
  8
0
100
AcDbLine
 10
6106.02712308145
 20
-3784.866057375885
 30
0.0
 11
6104.82157436775
 21
-3784.866057375885
 31
0.0
  0
LINE
  5
3125D
330
1F
100
AcDbEntity
  8
0
100
AcDbLine
 10
6102.72157436775
 20
-3784.866057375885
 30
0.0
 11
6101.51602565405
 21
-3784.866057375885
 31
0.0
  0
LINE
  5
3125E
330
1F
100
AcDbEntity
  8
0
100
AcDbLine
 10
6101.51602565405
 20
-3783.966057375886
 30
0.0
 11
6102.72157436775
 21
-3783.966057375886
 31
0.0
  0
LINE
  5
3125F
330
1F
100
AcDbEntity
  8
0
100
AcDbLine
 10
6104.82157436775
 20
-3783.966057375886
 30
0.0
 11
6106.02712308145
 21
-3783.966057375886
 31
0.0
  0
LINE
  5
31260
330
1F
100
AcDbEntity
  8
0
100
AcDbLine
 10
6061.77230726805
 20
-3774.416057375885
 30
0.0
 11
6145.77084146745
 21
-3774.416057375885
 31
0.0
  0
LWPOLYLINE
  5
31261
330
1F
100
AcDbEntity
  8
0
100
AcDbPolyline
 90
        3
 70
     0
 43
0.0
 10
6104.62875676475
 20
-3784.827493855285
 10
6105.681447535349
 20
-3784.839587650285
 10
6105.88463369325
 20
-3784.841984718885
  0
LWPOLYLINE
  5
31262
330
1F
100
AcDbEntity
  8
0
100
AcDbPolyline
 90
        3
 70
     0
 43
0.0
 10
6102.914391970751
 20
-3784.004620896485
 10
6101.861701200149
 20
-3783.992527101385
 10
6101.65851504235
 20
-3783.990130032885
  0
LINE
  5
31265
330
1F
100
AcDbEntity
  8
0
100
AcDbLine
 10
6277.72157436355
 20
-3762.866057375885
 30
0.0
 11
6277.91439197075
 21
-3762.827493855285
 31
0.0
  0
LINE
  5
31266
330
1F
100
AcDbEntity
  8
0
100
AcDbLine
 10
6279.82157437205
 20
-3761.966057375885
 30
0.0
 11
6279.62875676475
 21
-3762.004620896485
 31
0.0
  0
LINE
  5
31267
330
1F
100
AcDbEntity
  8
0
100
AcDbLine
 10
6102.72157436355
 20
-3784.866057375885
 30
0.0
 11
6102.914391970751
 21
-3784.827493855285
 31
0.0
  0
LINE
  5
31268
330
1F
100
AcDbEntity
  8
0
100
AcDbLine
 10
6104.82157437205
 20
-3783.966057375886
 30
0.0
 11
6104.62875676475
 21
-3784.004620896485
 31
0.0
  0
LINE
  5
31269
330
1F
100
AcDbEntity
  8
0
100
AcDbLine
 10
6101.65851504235
 20
-3784.841984718885
 30
0.0
 11
6101.51602565405
 21
-3784.866057375885
 31
0.0
  0
LINE
  5
3126A
330
1F
100
AcDbEntity
  8
0
100
AcDbLine
 10
6105.88463369325
 20
-3783.990130032885
 30
0.0
 11
6106.02712308145
 21
-3783.966057375886
 31
0.0
  0
LINE
  5
3126B
330
1F
100
AcDbEntity
  8
0
100
AcDbLine
 10
6276.65851504235
 20
-3762.841984718885
 30
0.0
 11
6276.51602565405
 21
-3762.866057375885
 31
0.0
  0
LINE
  5
3126C
330
1F
100
AcDbEntity
  8
0
100
AcDbLine
 10
6280.884633693251
 20
-3761.990130032885
 30
0.0
 11
6281.02712308145
 21
-3761.966057375885
 31
0.0
  0
LINE
  5
3126D
330
1F
100
AcDbEntity
  8
0
100
AcDbLine
 10
6277.046528372849
 20
-3762.837416461185
 30
0.0
 11
6276.65851504235
 21
-3762.841984718885
 31
0.0
  0
LWPOLYLINE
  5
3126E
330
1F
100
AcDbEntity
  8
0
100
AcDbPolyline
 90
        3
 70
     0
 43
0.0
 10
6280.49662036265
 20
-3761.994698290485
 10
6280.68121080565
 20
-3761.992529888586
 10
6280.884633693251
 20
-3761.990130032885
  0
LINE
  5
3126F
330
1F
100
AcDbEntity
  8
0
100
AcDbLine
 10
6277.36418606045
 20
-3762.833715310685
 30
0.0
 11
6277.046528372849
 21
-3762.837416461185
 31
0.0
  0
LINE
  5
31270
330
1F
100
AcDbEntity
  8
0
100
AcDbLine
 10
6280.17896267515
 20
-3761.998399441085
 30
0.0
 11
6280.49662036265
 21
-3761.994698290485
 31
0.0
  0
LINE
  5
31271
330
1F
100
AcDbEntity
  8
0
100
AcDbLine
 10
6277.621129229451
 20
-3762.830766691986
 30
0.0
 11
6277.36418606045
 21
-3762.833715310685
 31
0.0
  0
LINE
  5
31272
330
1F
100
AcDbEntity
  8
0
100
AcDbLine
 10
6279.92201950605
 20
-3762.001348059785
 30
0.0
 11
6280.17896267515
 21
-3761.998399441085
 31
0.0
  0
LINE
  5
31273
330
1F
100
AcDbEntity
  8
0
100
AcDbLine
 10
6277.91439197075
 20
-3762.827493855285
 30
0.0
 11
6277.621129229451
 21
-3762.830766691986
 31
0.0
  0
LINE
  5
31274
330
1F
100
AcDbEntity
  8
0
100
AcDbLine
 10
6279.62875676475
 20
-3762.004620896485
 30
0.0
 11
6279.92201950605
 21
-3762.001348059785
 31
0.0
  0
LINE
  5
31275
330
1F
100
AcDbEntity
  8
0
100
AcDbLine
 10
6281.02712308145
 20
-3762.866057375885
 30
0.0
 11
6279.82157436775
 21
-3762.866057375885
 31
0.0
  0
LINE
  5
31276
330
1F
100
AcDbEntity
  8
0
100
AcDbLine
 10
6277.72157436775
 20
-3762.866057375885
 30
0.0
 11
6276.51602565405
 21
-3762.866057375885
 31
0.0
  0
LINE
  5
31277
330
1F
100
AcDbEntity
  8
0
100
AcDbLine
 10
6276.51602565405
 20
-3761.966057375885
 30
0.0
 11
6277.72157436775
 21
-3761.966057375885
 31
0.0
  0
LINE
  5
31278
330
1F
100
AcDbEntity
  8
0
100
AcDbLine
 10
6279.82157436775
 20
-3761.966057375885
 30
0.0
 11
6281.02712308145
 21
-3761.966057375885
 31
0.0
  0
LINE
  5
31279
330
1F
100
AcDbEntity
  8
0
100
AcDbLine
 10
6279.62875676475
 20
-3762.827493855285
 30
0.0
 11
6280.04385990275
 21
-3762.832158233485
 31
0.0
  0
LINE
  5
3127A
330
1F
100
AcDbEntity
  8
0
100
AcDbLine
 10
6277.91439197075
 20
-3762.004620896485
 30
0.0
 11
6277.49928883275
 21
-3761.999956518185
 31
0.0
  0
LINE
  5
3127B
330
1F
100
AcDbEntity
  8
0
100
AcDbLine
 10
6280.04385990275
 20
-3762.832158233485
 30
0.0
 11
6280.33003590025
 21
-3762.835469709385
 31
0.0
  0
LINE
  5
3127C
330
1F
100
AcDbEntity
  8
0
100
AcDbLine
 10
6277.49928883275
 20
-3761.999956518185
 30
0.0
 11
6277.213112835251
 21
-3761.996645042285
 31
0.0
  0
LWPOLYLINE
  5
3127D
330
1F
100
AcDbEntity
  8
0
100
AcDbPolyline
 90
        3
 70
     0
 43
0.0
 10
6280.33003590025
 20
-3762.835469709385
 10
6280.68144753535
 20
-3762.839587650285
 10
6280.884633693251
 20
-3762.841984718885
  0
LINE
  5
3127E
330
1F
100
AcDbEntity
  8
0
100
AcDbLine
 10
6277.213112835251
 20
-3761.996645042285
 30
0.0
 11
6276.65851504235
 21
-3761.990130032885
 31
0.0
  0
LWPOLYLINE
  5
3127F
330
1F
100
AcDbEntity
  8
0
100
AcDbPolyline
 90
       11
 70
     0
 43
0.0
 10
6277.91439197075
 20
-3762.827493855285
 10
6277.989614478149
 20
-3762.832723964185
 10
6278.05935865135
 20
-3762.848756012585
 10
6278.12358051695
 20
-3762.874254619085
 10
6278.18263031535
 20
-3762.909333781585
 10
6278.23504109565
 20
-3762.953590410185
 10
6278.27903374715
 20
-3763.005984065586
 10
6278.31384798895
 20
-3763.065066988485
 10
6278.33914681845
 20
-3763.129085080685
 10
6278.35496757905
 20
-3763.198521126585
 10
6278.36013788835
 20
-3763.273239772885
  0
LWPOLYLINE
  5
31280
330
1F
100
AcDbEntity
  8
0
100
AcDbPolyline
 90
       11
 70
     0
 43
0.0
 10
6279.62875676475
 20
-3762.004620896485
 10
6279.55353425735
 20
-3761.999390787485
 10
6279.48379008415
 20
-3761.983358739085
 10
6279.41956821855
 20
-3761.957860132585
 10
6279.360518420149
 20
-3761.922780970085
 10
6279.30810763985
 20
-3761.878524341485
 10
6279.26411498845
 20
-3761.826130686185
 10
6279.22930074655
 20
-3761.767047763186
 10
6279.20400191705
 20
-3761.703029670985
 10
6279.18818115645
 20
-3761.633593625185
 10
6279.183010847151
 20
-3761.558874978885
  0
LWPOLYLINE
  5
31281
330
1F
100
AcDbEntity
  8
0
100
AcDbPolyline
 90
       14
 70
     0
 43
0.0
 10
6278.771572133249
 20
-3766.666057375886
 10
6277.73356693385
 20
-3766.546560811885
 10
6276.722357827249
 20
-3766.179767389685
 10
6275.82554146265
 20
-3765.579677275285
 10
6275.11532993965
 20
-3764.794656665586
 10
6274.63265085875
 20
-3763.887782620285
 10
6274.389812322549
 20
-3762.912030178985
 10
6274.39049432895
 20
-3761.914524719986
 10
6274.63514962915
 20
-3760.937822700185
 10
6275.121053828151
 20
-3760.029311548186
 10
6275.83505917885
 20
-3759.244250619685
 10
6276.732658020049
 20
-3758.647162617485
 10
6277.74004631105
 20
-3758.284025876685
 10
6278.771572133249
 20
-3758.166057375885
  0
LWPOLYLINE
  5
31282
330
1F
100
AcDbEntity
  8
0
100
AcDbPolyline
 90
       14
 70
     0
 43
0.0
 10
6278.771572133249
 20
-3758.166057375885
 10
6279.80956873455
 20
-3758.285562356985
 10
6280.820861044049
 20
-3758.652389324785
 10
6281.717689712951
 20
-3759.252514893285
 10
6282.42788940015
 20
-3760.037554861785
 10
6282.910524665449
 20
-3760.944403710885
 10
6283.15333536885
 20
-3761.920072657285
 10
6283.15266777535
 20
-3762.917484867485
 10
6282.90806637315
 20
-3763.894116499086
 10
6282.42222141415
 20
-3764.802626980385
 10
6281.70825450615
 20
-3765.587715154985
 10
6280.81065226805
 20
-3766.184864570185
 10
6279.80315899035
 20
-3766.548066224486
 10
6278.771572133249
 20
-3766.666057375886
  0
LINE
  5
31283
330
1F
100
AcDbEntity
  8
0
100
AcDbLine
 10
6281.02712308145
 20
-3762.866057375885
 30
0.0
 11
6280.884633693251
 21
-3762.841984718885
 31
0.0
  0
LINE
  5
31284
330
1F
100
AcDbEntity
  8
0
100
AcDbLine
 10
6276.51602565405
 20
-3761.966057375885
 30
0.0
 11
6276.65851504235
 21
-3761.990130032885
 31
0.0
  0
LINE
  5
31285
330
1F
100
AcDbEntity
  8
0
100
AcDbLine
 10
6279.62875676475
 20
-3762.827493855285
 30
0.0
 11
6279.821574365651
 21
-3762.866057375885
 31
0.0
  0
LINE
  5
31286
330
1F
100
AcDbEntity
  8
0
100
AcDbLine
 10
6277.91439197075
 20
-3762.004620896485
 30
0.0
 11
6277.72157436995
 21
-3761.966057375885
 31
0.0
  0
LINE
  5
31287
330
1F
100
AcDbEntity
  8
0
100
AcDbLine
 10
6333.271572133249
 20
-3910.416057375885
 30
0.0
 11
6333.271572133249
 21
-3752.416057375885
 31
0.0
  0
LWPOLYLINE
  5
3128A
330
1F
100
AcDbEntity
  8
0
100
AcDbPolyline
 90
        3
 70
     0
 43
0.0
 10
6477.046528372849
 20
-3750.837416461185
 10
6476.86193792985
 20
-3750.839584863185
 10
6476.658515042349
 20
-3750.841984718885
  0
LWPOLYLINE
  5
3128B
330
1F
100
AcDbEntity
  8
0
100
AcDbPolyline
 90
        3
 70
     0
 43
0.0
 10
6480.49662036265
 20
-3749.994698290485
 10
6480.68121080565
 20
-3749.992529888585
 10
6480.88463369325
 20
-3749.990130032885
  0
LINE
  5
3128C
330
1F
100
AcDbEntity
  8
0
100
AcDbLine
 10
6477.36418606045
 20
-3750.833715310685
 30
0.0
 11
6477.046528372849
 21
-3750.837416461185
 31
0.0
  0
LINE
  5
3128D
330
1F
100
AcDbEntity
  8
0
100
AcDbLine
 10
6480.17896267515
 20
-3749.998399441085
 30
0.0
 11
6480.49662036265
 21
-3749.994698290485
 31
0.0
  0
LINE
  5
3128E
330
1F
100
AcDbEntity
  8
0
100
AcDbLine
 10
6477.621129229451
 20
-3750.830766691985
 30
0.0
 11
6477.36418606045
 21
-3750.833715310685
 31
0.0
  0
LINE
  5
3128F
330
1F
100
AcDbEntity
  8
0
100
AcDbLine
 10
6479.92201950605
 20
-3750.001348059785
 30
0.0
 11
6480.17896267515
 21
-3749.998399441085
 31
0.0
  0
LINE
  5
31290
330
1F
100
AcDbEntity
  8
0
100
AcDbLine
 10
6477.914391970751
 20
-3750.827493855285
 30
0.0
 11
6477.621129229451
 21
-3750.830766691985
 31
0.0
  0
LINE
  5
31291
330
1F
100
AcDbEntity
  8
0
100
AcDbLine
 10
6479.62875676475
 20
-3750.004620896485
 30
0.0
 11
6479.92201950605
 21
-3750.001348059785
 31
0.0
  0
LINE
  5
31292
330
1F
100
AcDbEntity
  8
0
100
AcDbLine
 10
6224.27252345945
 20
-3752.416057375885
 30
0.0
 11
6333.27062080705
 21
-3752.416057375885
 31
0.0
  0
LINE
  5
31293
330
1F
100
AcDbEntity
  8
0
100
AcDbLine
 10
6481.02712308145
 20
-3750.866057375885
 30
0.0
 11
6479.82157436775
 21
-3750.866057375885
 31
0.0
  0
LINE
  5
31294
330
1F
100
AcDbEntity
  8
0
100
AcDbLine
 10
6477.72157436775
 20
-3750.866057375885
 30
0.0
 11
6476.516025654049
 21
-3750.866057375885
 31
0.0
  0
LINE
  5
31295
330
1F
100
AcDbEntity
  8
0
100
AcDbLine
 10
6476.516025654049
 20
-3749.966057375885
 30
0.0
 11
6477.72157436775
 21
-3749.966057375885
 31
0.0
  0
LINE
  5
31296
330
1F
100
AcDbEntity
  8
0
100
AcDbLine
 10
6479.82157436775
 20
-3749.966057375885
 30
0.0
 11
6481.02712308145
 21
-3749.966057375885
 31
0.0
  0
LINE
  5
31297
330
1F
100
AcDbEntity
  8
0
100
AcDbLine
 10
6478.73002749055
 20
-3745.664916341685
 30
0.0
 11
6478.771574367749
 21
-3745.664916341685
 31
0.0
  0
LINE
  5
31298
330
1F
100
AcDbEntity
  8
0
100
AcDbLine
 10
6411.27160341795
 20
-3740.416057375885
 30
0.0
 11
6546.27154531765
 21
-3740.416057375885
 31
0.0
  0
LINE
  5
31299
330
1F
100
AcDbEntity
  8
0
100
AcDbLine
 10
6479.62875676475
 20
-3750.827493855285
 30
0.0
 11
6480.04385990275
 21
-3750.832158233485
 31
0.0
  0
LINE
  5
3129A
330
1F
100
AcDbEntity
  8
0
100
AcDbLine
 10
6477.914391970751
 20
-3750.004620896485
 30
0.0
 11
6477.49928883275
 21
-3749.999956518185
 31
0.0
  0
LINE
  5
3129B
330
1F
100
AcDbEntity
  8
0
100
AcDbLine
 10
6480.04385990275
 20
-3750.832158233485
 30
0.0
 11
6480.330035900249
 21
-3750.835469709385
 31
0.0
  0
LINE
  5
3129C
330
1F
100
AcDbEntity
  8
0
100
AcDbLine
 10
6477.49928883275
 20
-3749.999956518185
 30
0.0
 11
6477.21311283525
 21
-3749.996645042285
 31
0.0
  0
LWPOLYLINE
  5
3129D
330
1F
100
AcDbEntity
  8
0
100
AcDbPolyline
 90
        3
 70
     0
 43
0.0
 10
6480.330035900249
 20
-3750.835469709385
 10
6480.681447535349
 20
-3750.839587650285
 10
6480.88463369325
 20
-3750.841984718885
  0
LWPOLYLINE
  5
3129E
330
1F
100
AcDbEntity
  8
0
100
AcDbPolyline
 90
        3
 70
     0
 43
0.0
 10
6477.21311283525
 20
-3749.996645042285
 10
6476.861701200149
 20
-3749.992527101385
 10
6476.658515042349
 20
-3749.990130032885
  0
LINE
  5
3129F
330
1F
100
AcDbEntity
  8
0
100
AcDbLine
 10
6411.271574367749
 20
-3910.416057375885
 30
0.0
 11
6411.271574367749
 21
-3740.416057375885
 31
0.0
  0
LWPOLYLINE
  5
312A0
330
1F
100
AcDbEntity
  8
0
100
AcDbPolyline
 90
       11
 70
     0
 43
0.0
 10
6477.914391970751
 20
-3750.827493855285
 10
6477.989614478151
 20
-3750.832723964185
 10
6478.05935865135
 20
-3750.848756012585
 10
6478.12358051695
 20
-3750.874254619085
 10
6478.182630315351
 20
-3750.909333781585
 10
6478.23504109565
 20
-3750.953590410186
 10
6478.279033747149
 20
-3751.005984065585
 10
6478.31384798895
 20
-3751.065066988485
 10
6478.33914681845
 20
-3751.129085080685
 10
6478.35496757905
 20
-3751.198521126585
 10
6478.36013788835
 20
-3751.273239772885
  0
LWPOLYLINE
  5
312A1
330
1F
100
AcDbEntity
  8
0
100
AcDbPolyline
 90
       11
 70
     0
 43
0.0
 10
6479.62875676475
 20
-3750.004620896485
 10
6479.55353425735
 20
-3749.999390787485
 10
6479.48379008415
 20
-3749.983358739085
 10
6479.41956821855
 20
-3749.957860132585
 10
6479.36051842015
 20
-3749.922780970086
 10
6479.308107639851
 20
-3749.878524341485
 10
6479.26411498845
 20
-3749.826130686185
 10
6479.22930074655
 20
-3749.767047763185
 10
6479.20400191705
 20
-3749.703029670985
 10
6479.188181156449
 20
-3749.633593625185
 10
6479.18301084715
 20
-3749.558874978885
  0
LWPOLYLINE
  5
312A2
330
1F
100
AcDbEntity
  8
0
100
AcDbPolyline
 90
       14
 70
     0
 43
0.0
 10
6478.771574367749
 20
-3755.167155848085
 10
6477.56469019605
 20
-3755.021411521685
 10
6476.447990889851
 20
-3754.606030409585
 10
6475.47439797735
 20
-3753.948938719086
 10
6474.69229073035
 20
-3753.086401101386
 10
6474.14201161515
 20
-3752.055590976585
 10
6473.86913863115
 20
-3750.940949689886
 10
6473.877762106249
 20
-3749.820848853385
 10
6474.15831033275
 20
-3748.734603073785
 10
6474.700743700251
 20
-3747.733684112785
 10
6475.47191535365
 20
-3746.885354984986
 10
6476.44041941145
 20
-3746.229979001085
 10
6477.54578225515
 20
-3745.815384171186
 10
6478.73002749055
 20
-3745.664916341685
  0
LINE
  5
312A3
330
1F
100
AcDbEntity
  8
0
100
AcDbLine
 10
6481.02712308145
 20
-3750.866057375885
 30
0.0
 11
6480.88463369325
 21
-3750.841984718885
 31
0.0
  0
LINE
  5
312A4
330
1F
100
AcDbEntity
  8
0
100
AcDbLine
 10
6476.516025654049
 20
-3749.966057375885
 30
0.0
 11
6476.658515042349
 21
-3749.990130032885
 31
0.0
  0
LINE
  5
312A5
330
1F
100
AcDbEntity
  8
0
100
AcDbLine
 10
6479.62875676475
 20
-3750.827493855285
 30
0.0
 11
6479.82157436565
 21
-3750.866057375885
 31
0.0
  0
LINE
  5
312A6
330
1F
100
AcDbEntity
  8
0
100
AcDbLine
 10
6477.914391970751
 20
-3750.004620896485
 30
0.0
 11
6477.72157436995
 21
-3749.966057375885
 31
0.0
  0
LINE
  5
312A7
330
1F
100
AcDbEntity
  8
0
100
AcDbLine
 10
6478.36013788835
 20
-3751.273239772885
 30
0.0
 11
6478.32157436775
 21
-3751.466057373685
 31
0.0
  0
LINE
  5
312A8
330
1F
100
AcDbEntity
  8
0
100
AcDbLine
 10
6479.18301084715
 20
-3749.558874978885
 30
0.0
 11
6479.22157436775
 21
-3749.366057377985
 31
0.0
  0
LINE
  5
312A9
330
1F
100
AcDbEntity
  8
0
100
AcDbLine
 10
6478.36013788835
 20
-3749.558874978885
 30
0.0
 11
6478.34564702475
 21
-3748.302998050385
 31
0.0
  0
LINE
  5
312AA
330
1F
100
AcDbEntity
  8
0
100
AcDbLine
 10
6478.32157436775
 20
-3752.671606089585
 30
0.0
 11
6478.32157436775
 21
-3751.466057375885
 31
0.0
  0
LINE
  5
312AB
330
1F
100
AcDbEntity
  8
0
100
AcDbLine
 10
6478.32157436775
 20
-3749.366057375886
 30
0.0
 11
6478.32157436775
 21
-3748.160508662085
 31
0.0
  0
LINE
  5
312AC
330
1F
100
AcDbEntity
  8
0
100
AcDbLine
 10
6478.77157485975
 20
-3745.665666150485
 30
0.0
 11
6478.771574692849
 21
-3746.525158175285
 31
0.0
  0
LINE
  5
312AD
330
1F
100
AcDbEntity
  8
0
100
AcDbLine
 10
6478.77157432855
 20
-3754.306956576385
 30
0.0
 11
6478.77157423155
 21
-3755.166953989885
 31
0.0
  0
LINE
  5
312AE
330
1F
100
AcDbEntity
  8
0
100
AcDbLine
 10
6479.22157436775
 20
-3748.160508662085
 30
0.0
 11
6479.22157436775
 21
-3749.366057375886
 31
0.0
  0
LINE
  5
312AF
330
1F
100
AcDbEntity
  8
0
100
AcDbLine
 10
6479.22157436775
 20
-3751.466057375885
 30
0.0
 11
6479.22157436775
 21
-3752.671606089585
 31
0.0
  0
LWPOLYLINE
  5
312B0
330
1F
100
AcDbEntity
  8
0
100
AcDbPolyline
 90
        3
 70
     0
 43
0.0
 10
6478.36013788835
 20
-3751.273239772885
 10
6478.34804409335
 20
-3752.325930543485
 10
6478.34564702475
 20
-3752.529116701285
  0
LWPOLYLINE
  5
312B1
330
1F
100
AcDbEntity
  8
0
100
AcDbPolyline
 90
        3
 70
     0
 43
0.0
 10
6479.18301084715
 20
-3749.558874978885
 10
6479.19510464215
 20
-3748.506184208285
 10
6479.19750171075
 20
-3748.302998050385
  0
LWPOLYLINE
  5
312B2
330
1F
100
AcDbEntity
  8
0
100
AcDbPolyline
 90
       11
 70
     0
 43
0.0
 10
6478.36013788835
 20
-3749.558874978885
 10
6478.354907779451
 20
-3749.634097485085
 10
6478.33887573125
 20
-3749.703841657885
 10
6478.31337712525
 20
-3749.768063522985
 10
6478.278297963651
 20
-3749.827113321485
 10
6478.23404133395
 20
-3749.879524102485
 10
6478.181647678351
 20
-3749.923516755385
 10
6478.12256475445
 20
-3749.958330996985
 10
6478.05854666195
 20
-3749.983629826585
 10
6477.98911061605
 20
-3749.999450587085
 10
6477.914391970751
 20
-3750.004620896485
  0
LWPOLYLINE
  5
312B3
330
1F
100
AcDbEntity
  8
0
100
AcDbPolyline
 90
       11
 70
     0
 43
0.0
 10
6479.18301084715
 20
-3751.273239772885
 10
6479.18824095605
 20
-3751.198017266585
 10
6479.204273004251
 20
-3751.128273093885
 10
6479.229771610251
 20
-3751.064051228785
 10
6479.264850771849
 20
-3751.005001430286
 10
6479.309107401551
 20
-3750.952590649185
 10
6479.36150105715
 20
-3750.908597996385
 10
6479.42058398105
 20
-3750.873783754685
 10
6479.48460207365
 20
-3750.848484925085
 10
6479.554038119549
 20
-3750.832664164685
 10
6479.62875676475
 20
-3750.827493855285
  0
LINE
  5
312B4
330
1F
100
AcDbEntity
  8
0
100
AcDbLine
 10
6478.32157436775
 20
-3752.671606089585
 30
0.0
 11
6478.34564702475
 21
-3752.529116701285
 31
0.0
  0
LINE
  5
312B5
330
1F
100
AcDbEntity
  8
0
100
AcDbLine
 10
6479.22157436775
 20
-3748.160508662085
 30
0.0
 11
6479.19750171075
 21
-3748.302998050385
 31
0.0
  0
LINE
  5
312B6
330
1F
100
AcDbEntity
  8
0
100
AcDbLine
 10
6479.18301084715
 20
-3751.273239772885
 30
0.0
 11
6479.19750171075
 21
-3752.529116701285
 31
0.0
  0
LWPOLYLINE
  5
312B7
330
1F
100
AcDbEntity
  8
0
100
AcDbPolyline
 90
        3
 70
     0
 43
0.0
 10
6483.704266992751
 20
-3750.436118023185
 10
6483.70430613125
 20
-3750.422745223585
 10
6483.704266992751
 20
-3750.395999591885
  0
LINE
  5
312B8
330
1F
100
AcDbEntity
  8
0
100
AcDbLine
 10
6478.32157436775
 20
-3749.366057371585
 30
0.0
 11
6478.36013788835
 21
-3749.558874978885
 31
0.0
  0
LINE
  5
312B9
330
1F
100
AcDbEntity
  8
0
100
AcDbLine
 10
6479.22157436775
 20
-3751.466057380085
 30
0.0
 11
6479.18301084715
 21
-3751.273239772885
 31
0.0
  0
LINE
  5
312BA
330
1F
100
AcDbEntity
  8
0
100
AcDbLine
 10
6478.34564702475
 20
-3748.302998050385
 30
0.0
 11
6478.32157436775
 21
-3748.160508662085
 31
0.0
  0
LINE
  5
312BB
330
1F
100
AcDbEntity
  8
0
100
AcDbLine
 10
6479.19750171075
 20
-3752.529116701285
 30
0.0
 11
6479.22157436775
 21
-3752.671606089585
 31
0.0
  0
LWPOLYLINE
  5
312BC
330
1F
100
AcDbEntity
  8
0
100
AcDbPolyline
 90
        8
 70
     0
 43
0.0
 10
6483.704266992751
 20
-3750.395999591885
 10
6483.58236689215
 20
-3749.366883472986
 10
6483.220324597749
 20
-3748.364176551886
 10
6482.62773591245
 20
-3747.454186316685
 10
6481.83979999505
 20
-3746.696798820185
 10
6480.90074489495
 20
-3746.131361333686
 10
6479.86103182435
 20
-3745.783564457485
 10
6478.771574367749
 20
-3745.665274707685
  0
LINE
  5
312BD
330
1F
100
AcDbEntity
  8
0
100
AcDbLine
 10
6546.27157436775
 20
-3910.416057375885
 30
0.0
 11
6546.27157436775
 21
-3740.416057375885
 31
0.0
  0
LINE
  5
312BE
330
1F
100
AcDbEntity
  8
0
100
AcDbLine
 10
5947.77157436775
 20
-3662.499028269585
 30
0.0
 11
5947.77157436775
 21
-3664.499028269585
 31
0.0
  0
LINE
  5
312BF
330
1F
100
AcDbEntity
  8
0
100
AcDbLine
 10
5947.77157436775
 20
-3617.960383871585
 30
0.0
 11
5947.77157436775
 21
-3615.960383871585
 31
0.0
  0
LINE
  5
312C3
330
1F
100
AcDbEntity
  8
02___PRT_ALL_AXES
100
AcDbLine
 10
5951.27157436775
 20
-3660.229706070585
 30
0.0
 11
5951.27157436775
 21
-3655.229706070585
 31
0.0
  0
LINE
  5
312C4
330
1F
100
AcDbEntity
  8
02___PRT_ALL_AXES
100
AcDbLine
 10
5951.27157436775
 20
-3625.229706070585
 30
0.0
 11
5951.27157436775
 21
-3620.229706070585
 31
0.0
  0
LINE
  5
312D9
330
1F
100
AcDbEntity
  8
02___PRT_ALL_AXES
100
AcDbLine
 10
5956.27157436775
 20
-3620.229706070585
 30
0.0
 11
5956.27157436775
 21
-3625.229706070585
 31
0.0
  0
LINE
  5
312DA
330
1F
100
AcDbEntity
  8
02___PRT_ALL_AXES
100
AcDbLine
 10
5956.27157436775
 20
-3655.229706070585
 30
0.0
 11
5956.27157436775
 21
-3660.229706070585
 31
0.0
  0
LINE
  5
312DD
330
1F
100
AcDbEntity
  8
0
100
AcDbLine
 10
5959.771574367749
 20
-3662.499028269585
 30
0.0
 11
5959.771574367749
 21
-3664.499028269585
 31
0.0
  0
LINE
  5
312DE
330
1F
100
AcDbEntity
  8
0
100
AcDbLine
 10
5959.771574367749
 20
-3617.960383871585
 30
0.0
 11
5959.771574367749
 21
-3615.960383871585
 31
0.0
  0
LINE
  5
31355
330
1F
100
AcDbEntity
  8
0
100
AcDbLine
 10
6096.27157436775
 20
-3602.773197957785
 30
0.0
 11
6096.27157436775
 21
-3605.773197957784
 31
0.0
  0
LINE
  5
31356
330
1F
100
AcDbEntity
  8
0
100
AcDbLine
 10
6096.27157436775
 20
-3677.686214183285
 30
0.0
 11
6096.27157436775
 21
-3674.686214183285
 31
0.0
  0
LINE
  5
31363
330
1F
100
AcDbEntity
  8
0
100
AcDbLine
 10
6101.27157436775
 20
-3615.229706070585
 30
0.0
 11
6101.27157436775
 21
-3625.229706070585
 31
0.0
  0
LINE
  5
31364
330
1F
100
AcDbEntity
  8
0
100
AcDbLine
 10
6101.27157436775
 20
-3655.229706070585
 30
0.0
 11
6101.27157436775
 21
-3665.229706070585
 31
0.0
  0
LINE
  5
31369
330
1F
100
AcDbEntity
  8
0
100
AcDbLine
 10
6106.27157436775
 20
-3665.229706070585
 30
0.0
 11
6106.27157436775
 21
-3655.229706070585
 31
0.0
  0
LINE
  5
3136A
330
1F
100
AcDbEntity
  8
0
100
AcDbLine
 10
6106.27157436775
 20
-3625.229706070585
 30
0.0
 11
6106.27157436775
 21
-3615.229706070585
 31
0.0
  0
LINE
  5
3136D
330
1F
100
AcDbEntity
  8
0
100
AcDbLine
 10
6111.27157436775
 20
-3602.773197957785
 30
0.0
 11
6111.27157436775
 21
-3605.773197957784
 31
0.0
  0
LINE
  5
3136E
330
1F
100
AcDbEntity
  8
0
100
AcDbLine
 10
6111.27157436775
 20
-3677.686214183285
 30
0.0
 11
6111.27157436775
 21
-3674.686214183285
 31
0.0
  0
LWPOLYLINE
  5
31384
330
1F
100
AcDbEntity
  8
02___PRT_ALL_AXES
100
AcDbPolyline
 90
        4
 70
     0
 43
0.0
 10
5952.72268125735
 20
-3617.960383871585
 10
5953.40546888715
 20
-3617.756657996385
 10
5954.13386492485
 20
-3617.756096248385
 10
5954.82046747815
 20
-3617.960383871585
  0
LINE
  5
31397
330
1F
100
AcDbEntity
  8
0
100
AcDbLine
 10
6488.77157436775
 20
-3702.430992230886
 30
0.0
 11
6468.77157436775
 21
-3702.430992230886
 31
0.0
  0
LINE
  5
31398
330
1F
100
AcDbEntity
  8
0
100
AcDbLine
 10
6488.77157436775
 20
-3699.430992230885
 30
0.0
 11
6468.77157436775
 21
-3699.430992230885
 31
0.0
  0
LINE
  5
3139A
330
1F
100
AcDbEntity
  8
0
100
AcDbLine
 10
6288.77157435455
 20
-3690.443650153085
 30
0.0
 11
6268.771574354549
 21
-3690.443651031185
 31
0.0
  0
LINE
  5
3139B
330
1F
100
AcDbEntity
  8
0
100
AcDbLine
 10
6288.771574198751
 20
-3687.443650153085
 30
0.0
 11
6268.77157419875
 21
-3687.443651031184
 31
0.0
  0
LWPOLYLINE
  5
313A1
330
1F
100
AcDbEntity
  8
02___PRT_ALL_AXES
100
AcDbPolyline
 90
        4
 70
     0
 43
0.0
 10
5954.82046747815
 20
-3662.499028269585
 10
5954.13767984835
 20
-3662.702754144685
 10
5953.40928381065
 20
-3662.703315892685
 10
5952.72268125735
 20
-3662.499028269585
  0
LINE
  5
313AA
330
1F
100
AcDbEntity
  8
0
100
AcDbLine
 10
6111.27157436775
 20
-3677.686214183285
 30
0.0
 11
6096.27157436775
 21
-3677.686214183285
 31
0.0
  0
LINE
  5
313AB
330
1F
100
AcDbEntity
  8
0
100
AcDbLine
 10
6111.27157436775
 20
-3674.686214183285
 30
0.0
 11
6096.27157436775
 21
-3674.686214183285
 31
0.0
  0
LINE
  5
313B8
330
1F
100
AcDbEntity
  8
0
100
AcDbLine
 10
5959.771574367749
 20
-3664.499028269585
 30
0.0
 11
5947.77157436775
 21
-3664.499028269585
 31
0.0
  0
LINE
  5
313B9
330
1F
100
AcDbEntity
  8
02___PRT_ALL_AXES
100
AcDbLine
 10
5959.771574367749
 20
-3662.499028269585
 30
0.0
 11
5954.82046747815
 21
-3662.499028269585
 31
0.0
  0
LINE
  5
313BA
330
1F
100
AcDbEntity
  8
02___PRT_ALL_AXES
100
AcDbLine
 10
5952.72268125735
 20
-3662.499028269585
 30
0.0
 11
5947.77157436775
 21
-3662.499028269585
 31
0.0
  0
LWPOLYLINE
  5
313E0
330
1F
100
AcDbEntity
  8
02___PRT_ALL_AXES
100
AcDbPolyline
 90
        4
 70
     0
 43
0.0
 10
5954.82046747815
 20
-3662.499028269585
 10
5954.13767984835
 20
-3662.549959738385
 10
5953.40928381065
 20
-3662.550100175386
 10
5952.72268125735
 20
-3662.499028269585
  0
LINE
  5
313E3
330
1F
100
AcDbEntity
  8
0
100
AcDbLine
 10
6508.771574367751
 20
-3650.229706070585
 30
0.0
 11
6448.77157436775
 21
-3650.229706070585
 31
0.0
  0
LINE
  5
313E4
330
1F
100
AcDbEntity
  8
0
100
AcDbLine
 10
6248.771572433351
 20
-3647.229709622185
 30
0.0
 11
6308.77157243335
 21
-3647.229706988186
 31
0.0
  0
LINE
  5
313E5
330
1F
100
AcDbEntity
  8
02___PRT_ALL_AXES
100
AcDbLine
 10
5967.77157436775
 20
-3647.229706070585
 30
0.0
 11
5939.77157436775
 21
-3647.229706070585
 31
0.0
  0
LINE
  5
313E6
330
1F
100
AcDbEntity
  8
0
100
AcDbLine
 10
6078.77157436775
 20
-3647.229706070585
 30
0.0
 11
6128.77157436775
 21
-3647.229706070585
 31
0.0
  0
LINE
  5
31411
330
1F
100
AcDbEntity
  8
0
100
AcDbLine
 10
6268.77156992165
 20
-3590.015766457185
 30
0.0
 11
6268.77157005335
 21
-3593.015766457185
 31
0.0
  0
LINE
  5
31412
330
1F
100
AcDbEntity
  8
0
100
AcDbLine
 10
6268.77157433045
 20
-3690.443651031185
 30
0.0
 11
6268.77157419875
 21
-3687.443651031184
 31
0.0
  0
LINE
  5
31415
330
1F
100
AcDbEntity
  8
0
100
AcDbLine
 10
6276.271570809051
 20
-3610.229708414885
 30
0.0
 11
6276.271571248051
 21
-3620.229708414886
 31
0.0
  0
LINE
  5
31416
330
1F
100
AcDbEntity
  8
0
100
AcDbLine
 10
6276.27157300405
 20
-3660.229708414885
 30
0.0
 11
6276.27157344305
 21
-3670.229708414885
 31
0.0
  0
LINE
  5
3142C
330
1F
100
AcDbEntity
  8
0
100
AcDbLine
 10
6308.77157181875
 20
-3633.229706988185
 30
0.0
 11
6248.77157181875
 21
-3633.229709622185
 31
0.0
  0
LINE
  5
3142D
330
1F
100
AcDbEntity
  8
0
100
AcDbLine
 10
6128.77157436775
 20
-3633.229706070585
 30
0.0
 11
6078.77157436775
 21
-3633.229706070585
 31
0.0
  0
LINE
  5
3142E
330
1F
100
AcDbEntity
  8
02___PRT_ALL_AXES
100
AcDbLine
 10
5939.77157436775
 20
-3633.229706070585
 30
0.0
 11
5967.77157436775
 21
-3633.229706070585
 31
0.0
  0
LINE
  5
31431
330
1F
100
AcDbEntity
  8
0
100
AcDbLine
 10
6448.77157436775
 20
-3630.229706070585
 30
0.0
 11
6508.771574367751
 21
-3630.229706070585
 31
0.0
  0
LINE
  5
31439
330
1F
100
AcDbEntity
  8
0
100
AcDbLine
 10
6281.27157344305
 20
-3670.229708195385
 30
0.0
 11
6281.27157300405
 21
-3660.229708195385
 31
0.0
  0
LINE
  5
3143A
330
1F
100
AcDbEntity
  8
0
100
AcDbLine
 10
6281.27157124805
 20
-3620.229708195385
 30
0.0
 11
6281.27157080905
 21
-3610.229708195385
 31
0.0
  0
LINE
  5
3143B
330
1F
100
AcDbEntity
  8
0
100
AcDbLine
 10
6288.771569921649
 20
-3590.015765579185
 30
0.0
 11
6288.771570053349
 21
-3593.015765579185
 31
0.0
  0
LINE
  5
3143C
330
1F
100
AcDbEntity
  8
0
100
AcDbLine
 10
6288.77157433045
 20
-3690.443650153085
 30
0.0
 11
6288.771574198751
 21
-3687.443650153085
 31
0.0
  0
LINE
  5
3144A
330
1F
100
AcDbEntity
  8
02___PRT_ALL_AXES
100
AcDbLine
 10
5947.77157436775
 20
-3617.960383871585
 30
0.0
 11
5952.72268125735
 21
-3617.960383871585
 31
0.0
  0
LINE
  5
3144B
330
1F
100
AcDbEntity
  8
02___PRT_ALL_AXES
100
AcDbLine
 10
5954.82046747815
 20
-3617.960383871585
 30
0.0
 11
5959.771574367749
 21
-3617.960383871585
 31
0.0
  0
LINE
  5
3144C
330
1F
100
AcDbEntity
  8
0
100
AcDbLine
 10
5947.77157436775
 20
-3615.960383871585
 30
0.0
 11
5959.771574367749
 21
-3615.960383871585
 31
0.0
  0
LINE
  5
3144E
330
1F
100
AcDbEntity
  8
0
100
AcDbLine
 10
6096.27157436775
 20
-3605.773197957784
 30
0.0
 11
6111.27157436775
 21
-3605.773197957784
 31
0.0
  0
LWPOLYLINE
  5
31475
330
1F
100
AcDbEntity
  8
02___PRT_ALL_AXES
100
AcDbPolyline
 90
        4
 70
     0
 43
0.0
 10
5952.72268125735
 20
-3617.960383871585
 10
5953.40546888715
 20
-3617.909452402785
 10
5954.13386492485
 20
-3617.909311965785
 10
5954.82046747815
 20
-3617.960383871585
  0
LINE
  5
31476
330
1F
100
AcDbEntity
  8
0
100
AcDbLine
 10
6111.27157436775
 20
-3602.773197957785
 30
0.0
 11
6096.27157436775
 21
-3602.773197957785
 31
0.0
  0
LINE
  5
31479
330
1F
100
AcDbEntity
  8
0
100
AcDbLine
 10
6268.77157005335
 20
-3593.015766457185
 30
0.0
 11
6288.771570053349
 21
-3593.015765579185
 31
0.0
  0
LINE
  5
3147A
330
1F
100
AcDbEntity
  8
0
100
AcDbLine
 10
6288.77156994575
 20
-3590.015765579185
 30
0.0
 11
6268.771569945751
 21
-3590.015766457185
 31
0.0
  0
LINE
  5
3148B
330
1F
100
AcDbEntity
  8
0
100
AcDbLine
 10
6468.77157436775
 20
-3581.028419910285
 30
0.0
 11
6488.77157436775
 21
-3581.028419910285
 31
0.0
  0
LINE
  5
3148C
330
1F
100
AcDbEntity
  8
0
100
AcDbLine
 10
6468.77157436775
 20
-3578.028419910285
 30
0.0
 11
6488.77157436775
 21
-3578.028419910285
 31
0.0
  0
LINE
  5
314A3
330
1F
100
AcDbEntity
  8
0
100
AcDbLine
 10
6468.77157436775
 20
-3699.430992230885
 30
0.0
 11
6468.77157436775
 21
-3702.430992230886
 31
0.0
  0
LINE
  5
314A4
330
1F
100
AcDbEntity
  8
0
100
AcDbLine
 10
6468.77157436775
 20
-3581.028419910285
 30
0.0
 11
6468.77157436775
 21
-3578.028419910285
 31
0.0
  0
LINE
  5
314AC
330
1F
100
AcDbEntity
  8
0
100
AcDbLine
 10
6476.27157436775
 20
-3680.229706070586
 30
0.0
 11
6476.27157436775
 21
-3670.229706070585
 31
0.0
  0
LINE
  5
314AD
330
1F
100
AcDbEntity
  8
0
100
AcDbLine
 10
6476.27157436775
 20
-3610.229706070585
 30
0.0
 11
6476.27157436775
 21
-3600.229706070585
 31
0.0
  0
LINE
  5
314B8
330
1F
100
AcDbEntity
  8
0
100
AcDbLine
 10
6481.27157436775
 20
-3600.229706070585
 30
0.0
 11
6481.27157436775
 21
-3610.229706070585
 31
0.0
  0
LINE
  5
314B9
330
1F
100
AcDbEntity
  8
0
100
AcDbLine
 10
6481.27157436775
 20
-3670.229706070585
 30
0.0
 11
6481.27157436775
 21
-3680.229706070586
 31
0.0
  0
LINE
  5
314BA
330
1F
100
AcDbEntity
  8
0
100
AcDbLine
 10
6488.77157436775
 20
-3699.430992230885
 30
0.0
 11
6488.77157436775
 21
-3702.430992230886
 31
0.0
  0
LINE
  5
314BB
330
1F
100
AcDbEntity
  8
0
100
AcDbLine
 10
6488.77157436775
 20
-3581.028419910285
 30
0.0
 11
6488.77157436775
 21
-3578.028419910285
 31
0.0
  0
CIRCLE
  5
314E8
330
1F
100
AcDbEntity
  8
0
100
AcDbCircle
 10
6103.77157436775
 20
-3784.416057375885
 30
0.0
 40
3.899999999999636
  0
ARC
  5
314ED
330
1F
100
AcDbEntity
  8
0
100
AcDbCircle
 10
6103.77157436775
 20
-3784.408248980985
 30
0.0
 40
2.30767472580015
100
AcDbArc
 50
258.7551100545068
 51
281.2448929345068
  0
ARC
  5
314EE
330
1F
100
AcDbEntity
  8
0
100
AcDbCircle
 10
6103.779382762549
 20
-3784.416057375885
 30
0.0
 40
2.307674725800239
100
AcDbArc
 50
168.7551100544957
 51
191.2448929344957
  0
ARC
  5
314EF
330
1F
100
AcDbEntity
  8
0
100
AcDbCircle
 10
6103.77157436775
 20
-3784.423865770686
 30
0.0
 40
2.30767472580015
100
AcDbArc
 50
78.75511005450682
 51
101.2448929345068
  0
ARC
  5
314F0
330
1F
100
AcDbEntity
  8
0
100
AcDbCircle
 10
6103.763765972949
 20
-3784.416057375885
 30
0.0
 40
2.307674725800239
100
AcDbArc
 50
348.7551100544958
 51
11.24489293449578
  0
ARC
  5
314F3
330
1F
100
AcDbEntity
  8
0
100
AcDbCircle
 10
6103.764369425849
 20
-3784.416057375885
 30
0.0
 40
2.162633691700268
100
AcDbArc
 50
348.6413715094042
 51
11.35862999940417
  0
ARC
  5
314F4
330
1F
100
AcDbEntity
  8
0
100
AcDbCircle
 10
6103.778779309751
 20
-3784.416057375885
 30
0.0
 40
2.162633691700268
100
AcDbArc
 50
168.6413715094042
 51
191.3586299994041
  0
ARC
  5
314F7
330
1F
100
AcDbEntity
  8
0
100
AcDbCircle
 10
6103.77157436775
 20
-3784.423262300085
 30
0.0
 40
2.162629445000106
100
AcDbArc
 50
78.64137301830808
 51
101.3586300076081
  0
ARC
  5
314F8
330
1F
100
AcDbEntity
  8
0
100
AcDbCircle
 10
6103.77157436775
 20
-3784.408852451586
 30
0.0
 40
2.162629445000106
100
AcDbArc
 50
258.6413730183081
 51
281.3586300078081
  0
CIRCLE
  5
314F9
330
1F
100
AcDbEntity
  8
0
100
AcDbCircle
 10
6278.77157436775
 20
-3762.416057375885
 30
0.0
 40
3.899999999999636
  0
CIRCLE
  5
314FA
330
1F
100
AcDbEntity
  8
0
100
AcDbCircle
 10
6478.771574367749
 20
-3750.416057375885
 30
0.0
 40
3.899999999999636
  0
ARC
  5
314FB
330
1F
100
AcDbEntity
  8
0
100
AcDbCircle
 10
6278.77157436775
 20
-3762.408248980985
 30
0.0
 40
2.30767472580015
100
AcDbArc
 50
258.7551100545068
 51
281.2448929345068
  0
ARC
  5
314FC
330
1F
100
AcDbEntity
  8
0
100
AcDbCircle
 10
6278.77938276255
 20
-3762.416057375885
 30
0.0
 40
2.307674725800239
100
AcDbArc
 50
168.7551100544957
 51
191.2448929344957
  0
ARC
  5
314FD
330
1F
100
AcDbEntity
  8
0
100
AcDbCircle
 10
6278.77157436775
 20
-3762.423865770685
 30
0.0
 40
2.30767472580015
100
AcDbArc
 50
78.75511005450682
 51
101.2448929345068
  0
ARC
  5
314FE
330
1F
100
AcDbEntity
  8
0
100
AcDbCircle
 10
6278.76376597295
 20
-3762.416057375885
 30
0.0
 40
2.307674725800239
100
AcDbArc
 50
348.7551100544958
 51
11.24489293449578
  0
ARC
  5
314FF
330
1F
100
AcDbEntity
  8
0
100
AcDbCircle
 10
6478.771574367749
 20
-3750.408248980985
 30
0.0
 40
2.30767472580015
100
AcDbArc
 50
258.7551100545068
 51
281.2448929345068
  0
ARC
  5
31500
330
1F
100
AcDbEntity
  8
0
100
AcDbCircle
 10
6478.77938276255
 20
-3750.416057375885
 30
0.0
 40
2.307674725800239
100
AcDbArc
 50
168.7551100544957
 51
191.2448929344957
  0
ARC
  5
31501
330
1F
100
AcDbEntity
  8
0
100
AcDbCircle
 10
6478.771574367749
 20
-3750.423865770685
 30
0.0
 40
2.30767472580015
100
AcDbArc
 50
78.75511005450682
 51
101.2448929345068
  0
ARC
  5
31502
330
1F
100
AcDbEntity
  8
0
100
AcDbCircle
 10
6478.763765972949
 20
-3750.416057375885
 30
0.0
 40
2.307674725800239
100
AcDbArc
 50
348.7551100544958
 51
11.24489293449578
  0
ARC
  5
31503
330
1F
100
AcDbEntity
  8
0
100
AcDbCircle
 10
6278.76436942585
 20
-3762.416057375885
 30
0.0
 40
2.162633691700268
100
AcDbArc
 50
348.6413715094042
 51
11.35862999940417
  0
ARC
  5
31504
330
1F
100
AcDbEntity
  8
0
100
AcDbCircle
 10
6278.77877930975
 20
-3762.416057375885
 30
0.0
 40
2.162633691700268
100
AcDbArc
 50
168.6413715094042
 51
191.3586299994041
  0
ARC
  5
31505
330
1F
100
AcDbEntity
  8
0
100
AcDbCircle
 10
6478.764369425849
 20
-3750.416057375885
 30
0.0
 40
2.162633691700268
100
AcDbArc
 50
348.6413715094042
 51
11.35862999940417
  0
ARC
  5
31506
330
1F
100
AcDbEntity
  8
0
100
AcDbCircle
 10
6478.778779309751
 20
-3750.416057375885
 30
0.0
 40
2.162633691700268
100
AcDbArc
 50
168.6413715094042
 51
191.3586299994041
  0
ARC
  5
31507
330
1F
100
AcDbEntity
  8
0
100
AcDbCircle
 10
6278.77157436775
 20
-3762.423262300085
 30
0.0
 40
2.162629445000106
100
AcDbArc
 50
78.64137301830808
 51
101.3586300076081
  0
ARC
  5
31508
330
1F
100
AcDbEntity
  8
0
100
AcDbCircle
 10
6278.77157436775
 20
-3762.408852451585
 30
0.0
 40
2.162629445000106
100
AcDbArc
 50
258.6413730183081
 51
281.3586300078081
  0
ARC
  5
31509
330
1F
100
AcDbEntity
  8
0
100
AcDbCircle
 10
6478.771574367749
 20
-3750.423262300085
 30
0.0
 40
2.162629445000106
100
AcDbArc
 50
78.64137301830808
 51
101.3586300076081
  0
ARC
  5
3150A
330
1F
100
AcDbEntity
  8
0
100
AcDbCircle
 10
6478.771574367749
 20
-3750.408852451585
 30
0.0
 40
2.162629445000106
100
AcDbArc
 50
258.6413730183081
 51
281.3586300078081
  0
ARC
  5
3150B
330
1F
100
AcDbEntity
  8
0
100
AcDbCircle
 10
6248.77157212605
 20
-3640.229709622185
 30
0.0
 40
7.000000000000006
100
AcDbArc
 50
90.00000251530018
 51
270.0000025153002
  0
ARC
  5
3150C
330
1F
100
AcDbEntity
  8
0
100
AcDbCircle
 10
6103.77157436775
 20
-3655.229706070585
 30
0.0
 40
2.5
100
AcDbArc
 50
0.0
 51
180.0
  0
ARC
  5
3150D
330
1F
100
AcDbEntity
  8
0
100
AcDbCircle
 10
6103.77157436775
 20
-3665.229706070585
 30
0.0
 40
2.5
100
AcDbArc
 50
180.0
 51
0.0
  0
ARC
  5
3150E
330
1F
100
AcDbEntity
  8
02___PRT_ALL_AXES
100
AcDbCircle
 10
5953.77157436775
 20
-3655.229706070585
 30
0.0
 40
2.5
100
AcDbArc
 50
0.0
 51
180.0
  0
ARC
  5
3150F
330
1F
100
AcDbEntity
  8
02___PRT_ALL_AXES
100
AcDbCircle
 10
5953.77157436775
 20
-3660.229706070585
 30
0.0
 40
2.5
100
AcDbArc
 50
180.0
 51
245.1933623784
  0
ARC
  5
31510
330
1F
100
AcDbEntity
  8
02___PRT_ALL_AXES
100
AcDbCircle
 10
5953.77157436775
 20
-3660.229706070585
 30
0.0
 40
2.5
100
AcDbArc
 50
294.8066376216
 51
-0.000000000000014
  0
CIRCLE
  5
31515
330
1F
100
AcDbEntity
  8
0
100
AcDbCircle
 10
5953.77157436775
 20
-3640.229706070585
 30
0.0
 40
29.0
  0
CIRCLE
  5
31516
330
1F
100
AcDbEntity
  8
0
100
AcDbCircle
 10
5953.77157436775
 20
-3640.229706070585
 30
0.0
 40
26.0
  0
ARC
  5
3151B
330
1F
100
AcDbEntity
  8
0
100
AcDbCircle
 10
5953.77157436775
 20
-3640.229706070585
 30
0.0
 40
25.0
100
AcDbArc
 50
103.8865403626
 51
256.1134596374
  0
ARC
  5
3151C
330
1F
100
AcDbEntity
  8
0
100
AcDbCircle
 10
5953.77157436775
 20
-3640.229706070585
 30
0.0
 40
25.0
100
AcDbArc
 50
283.8865403626
 51
76.11345963739999
  0
ARC
  5
3151D
330
1F
100
AcDbEntity
  8
0
100
AcDbCircle
 10
5953.771574367753
 20
-3640.229706070626
 30
0.0
 40
24.96362337684067
100
AcDbArc
 50
86.17029776361244
 51
103.8841848702829
  0
ARC
  5
3151E
330
1F
100
AcDbEntity
  8
0
100
AcDbCircle
 10
5953.77157436775
 20
-3640.229706070585
 30
0.0
 40
24.9636233768
100
AcDbArc
 50
76.87256470920001
 51
86.1702977636
  0
ARC
  5
3151F
330
1F
100
AcDbEntity
  8
0
100
AcDbCircle
 10
5953.77157436775
 20
-3640.229706070585
 30
0.0
 40
24.9636233768
100
AcDbArc
 50
274.5659797465
 51
283.8841848703
  0
ARC
  5
31520
330
1F
100
AcDbEntity
  8
0
100
AcDbCircle
 10
5953.77157436775
 20
-3640.229706070599
 30
0.0
 40
24.96362337678593
100
AcDbArc
 50
256.8725647091932
 51
274.5659797465032
  0
ARC
  5
31521
330
1F
100
AcDbEntity
  8
0
100
AcDbCircle
 10
6078.77157436775
 20
-3640.229706070585
 30
0.0
 40
7.0
100
AcDbArc
 50
90.0
 51
270.0
  0
ARC
  5
31522
330
1F
100
AcDbEntity
  8
02___PRT_ALL_AXES
100
AcDbCircle
 10
5939.77157436775
 20
-3640.229706070585
 30
0.0
 40
7.0
100
AcDbArc
 50
90.0
 51
270.0
  0
ARC
  5
31523
330
1F
100
AcDbEntity
  8
02___PRT_ALL_AXES
100
AcDbCircle
 10
5967.77157436775
 20
-3640.229706070585
 30
0.0
 40
7.0
100
AcDbArc
 50
270.0
 51
90.0
  0
ARC
  5
31525
330
1F
100
AcDbEntity
  8
02___PRT_ALL_AXES
100
AcDbCircle
 10
5953.77157436775
 20
-3625.229706070585
 30
0.0
 40
2.5
100
AcDbArc
 50
180.0
 51
-0.000000000000014
  0
ARC
  5
31529
330
1F
100
AcDbEntity
  8
02___PRT_ALL_AXES
100
AcDbCircle
 10
5953.77157436775
 20
-3620.229706070585
 30
0.0
 40
2.5
100
AcDbArc
 50
114.8066376216
 51
180.0
  0
ARC
  5
3152A
330
1F
100
AcDbEntity
  8
02___PRT_ALL_AXES
100
AcDbCircle
 10
5953.77157436775
 20
-3620.229706070585
 30
0.0
 40
2.5
100
AcDbArc
 50
0.0
 51
65.1933623784
  0
CIRCLE
  5
3152D
330
1F
100
AcDbEntity
  8
0
100
AcDbCircle
 10
6103.77157436775
 20
-3640.229706070585
 30
0.0
 40
42.0
  0
CIRCLE
  5
3152E
330
1F
100
AcDbEntity
  8
0
100
AcDbCircle
 10
6103.77157436775
 20
-3640.229706070585
 30
0.0
 40
38.5
  0
ARC
  5
3152F
330
1F
100
AcDbEntity
  8
0
100
AcDbCircle
 10
6103.77157436775
 20
-3640.229706070585
 30
0.0
 40
38.20000000000002
100
AcDbArc
 50
281.3227257230007
 51
78.67727427700066
  0
ARC
  5
31530
330
1F
100
AcDbEntity
  8
0
100
AcDbCircle
 10
6103.77157436775
 20
-3640.229706070585
 30
0.0
 40
38.20000000000002
100
AcDbArc
 50
101.3227257230006
 51
258.6772742770007
  0
ARC
  5
31534
330
1F
100
AcDbEntity
  8
0
100
AcDbCircle
 10
6128.77157436775
 20
-3640.229706070585
 30
0.0
 40
7.0
100
AcDbArc
 50
270.0
 51
90.0
  0
ARC
  5
31535
330
1F
100
AcDbEntity
  8
0
100
AcDbCircle
 10
6103.77157436775
 20
-3625.229706070585
 30
0.0
 40
2.5
100
AcDbArc
 50
180.0
 51
0.0
  0
ARC
  5
31537
330
1F
100
AcDbEntity
  8
0
100
AcDbCircle
 10
6103.77157436775
 20
-3615.229706070585
 30
0.0
 40
2.5
100
AcDbArc
 50
0.0
 51
180.0
  0
CIRCLE
  5
31539
330
1F
100
AcDbEntity
  8
0
100
AcDbCircle
 10
6278.771572133249
 20
-3640.229708305185
 30
0.0
 40
54.5
  0
ARC
  5
3153A
330
1F
100
AcDbEntity
  8
0
100
AcDbCircle
 10
6278.77157212605
 20
-3640.229708305185
 30
0.0
 40
51.20000000000006
100
AcDbArc
 50
281.2629820613004
 51
78.73702296930041
  0
ARC
  5
3153B
330
1F
100
AcDbEntity
  8
0
100
AcDbCircle
 10
6278.77157212605
 20
-3640.229708305185
 30
0.0
 40
51.20000000000006
100
AcDbArc
 50
101.2629820613004
 51
258.7370229693004
  0
ARC
  5
3153C
330
1F
100
AcDbEntity
  8
0
100
AcDbCircle
 10
6308.77157212605
 20
-3640.229706988185
 30
0.0
 40
7.000000000000006
100
AcDbArc
 50
270.0000025153002
 51
90.00000251530019
  0
ARC
  5
3153F
330
1F
100
AcDbEntity
  8
0
100
AcDbCircle
 10
6278.77157300405
 20
-3660.229708305185
 30
0.0
 40
2.500000000000002
100
AcDbArc
 50
0.0000025152972031
 51
180.0000025152971
  0
ARC
  5
31540
330
1F
100
AcDbEntity
  8
0
100
AcDbCircle
 10
6278.771573443051
 20
-3670.229708305186
 30
0.0
 40
2.500000000000002
100
AcDbArc
 50
180.0000025152972
 51
0.0000025152972438
  0
ARC
  5
31541
330
1F
100
AcDbEntity
  8
0
100
AcDbCircle
 10
6478.771574367749
 20
-3680.229706070586
 30
0.0
 40
2.5
100
AcDbArc
 50
180.0
 51
0.0
  0
ARC
  5
31542
330
1F
100
AcDbEntity
  8
0
100
AcDbCircle
 10
6478.771574367749
 20
-3670.229706070585
 30
0.0
 40
2.5
100
AcDbArc
 50
0.0
 51
180.0
  0
CIRCLE
  5
31547
330
1F
100
AcDbEntity
  8
0
100
AcDbCircle
 10
6478.771574367749
 20
-3640.229706070585
 30
0.0
 40
67.5
  0
CIRCLE
  5
31548
330
1F
100
AcDbEntity
  8
0
100
AcDbCircle
 10
6478.771574367749
 20
-3640.229706070585
 30
0.0
 40
64.75
  0
ARC
  5
31549
330
1F
100
AcDbEntity
  8
0
100
AcDbCircle
 10
6478.771574367749
 20
-3640.229706070585
 30
0.0
 40
62.99999999999994
100
AcDbArc
 50
279.1331977836996
 51
80.8668022162996
  0
ARC
  5
3154A
330
1F
100
AcDbEntity
  8
0
100
AcDbCircle
 10
6478.771574367749
 20
-3640.229706070585
 30
0.0
 40
62.99999999999994
100
AcDbArc
 50
99.13319778369963
 51
260.8668022162996
  0
CIRCLE
  5
3154B
330
1F
100
AcDbEntity
  8
0
100
AcDbCircle
 10
6278.77157436775
 20
-3640.229706070585
 30
0.0
 40
51.5
  0
ARC
  5
3154C
330
1F
100
AcDbEntity
  8
0
100
AcDbCircle
 10
6508.771574367751
 20
-3640.229706070585
 30
0.0
 40
10.0
100
AcDbArc
 50
270.0
 51
90.0
  0
ARC
  5
3154D
330
1F
100
AcDbEntity
  8
0
100
AcDbCircle
 10
6448.77157436775
 20
-3640.229706070585
 30
0.0
 40
10.0
100
AcDbArc
 50
90.0
 51
270.0
  0
ARC
  5
3154E
330
1F
100
AcDbEntity
  8
0
100
AcDbCircle
 10
6278.77157080905
 20
-3610.229708305185
 30
0.0
 40
2.500000000000002
100
AcDbArc
 50
0.0000025152972031
 51
180.0000025152971
  0
ARC
  5
3154F
330
1F
100
AcDbEntity
  8
0
100
AcDbCircle
 10
6278.77157124805
 20
-3620.229708305185
 30
0.0
 40
2.500000000000002
100
AcDbArc
 50
180.0000025152972
 51
0.0000025152972438
  0
ARC
  5
31550
330
1F
100
AcDbEntity
  8
0
100
AcDbCircle
 10
6478.771574367749
 20
-3600.229706070585
 30
0.0
 40
2.5
100
AcDbArc
 50
0.0
 51
180.0
  0
ARC
  5
31551
330
1F
100
AcDbEntity
  8
0
100
AcDbCircle
 10
6478.771574367749
 20
-3610.229706070585
 30
0.0
 40
2.5
100
AcDbArc
 50
180.0
 51
0.0
  0
ELLIPSE
  5
31558
330
1F
100
AcDbEntity
  8
0
100
AcDbEllipse
 10
6104.82157436845
 20
-3785.466057376585
 30
0.0
 11
0.5993751951000377
 21
0.0273747357000502
 31
0.0
210
0.0
220
0.0
230
1.0
 40
0.9999999999999998
 41
1.5251559249
 42
3.095952249399999
  0
ELLIPSE
  5
31559
330
1F
100
AcDbEntity
  8
0
100
AcDbEllipse
 10
6102.72157436705
 20
-3785.466057376585
 30
0.0
 11
0.0273745022996082
 21
-0.5993752057997881
 31
0.0
210
0.0
220
0.0
230
1.0
 40
1.0
 41
1.5251563144
 42
3.0959526389
  0
ELLIPSE
  5
3155A
330
1F
100
AcDbEntity
  8
0
100
AcDbEllipse
 10
6102.72157436705
 20
-3783.366057375185
 30
0.0
 11
-0.5993751951000377
 21
-0.0273747357000502
 31
0.0
210
0.0
220
0.0
230
1.0
 40
0.9999999999999998
 41
1.5251559249
 42
3.095952249399999
  0
ELLIPSE
  5
3155B
330
1F
100
AcDbEntity
  8
0
100
AcDbEllipse
 10
6104.82157436845
 20
-3783.366057375185
 30
0.0
 11
-0.0273745022996082
 21
0.5993752057997881
 31
0.0
210
0.0
220
0.0
230
1.0
 40
1.0
 41
1.5251563144
 42
3.0959526389
  0
ELLIPSE
  5
3155C
330
1F
100
AcDbEntity
  8
0
100
AcDbEllipse
 10
6279.821574368449
 20
-3763.466057376585
 30
0.0
 11
0.5993751951000377
 21
0.0273747357000502
 31
0.0
210
0.0
220
0.0
230
1.0
 40
0.9999999999999998
 41
1.5251559249
 42
3.095952249399999
  0
ELLIPSE
  5
3155D
330
1F
100
AcDbEntity
  8
0
100
AcDbEllipse
 10
6277.721574367049
 20
-3763.466057376585
 30
0.0
 11
0.0273745022996082
 21
-0.5993752057997881
 31
0.0
210
0.0
220
0.0
230
1.0
 40
1.0
 41
1.5251563144
 42
3.0959526389
  0
ELLIPSE
  5
3155E
330
1F
100
AcDbEntity
  8
0
100
AcDbEllipse
 10
6277.721574367049
 20
-3761.366057375185
 30
0.0
 11
-0.5993751951000377
 21
-0.0273747357000502
 31
0.0
210
0.0
220
0.0
230
1.0
 40
0.9999999999999998
 41
1.5251559249
 42
3.095952249399999
  0
ELLIPSE
  5
3155F
330
1F
100
AcDbEntity
  8
0
100
AcDbEllipse
 10
6279.821574368449
 20
-3761.366057375185
 30
0.0
 11
-0.0273745022996082
 21
0.5993752057997881
 31
0.0
210
0.0
220
0.0
230
1.0
 40
1.0
 41
1.5251563144
 42
3.0959526389
  0
ELLIPSE
  5
31560
330
1F
100
AcDbEntity
  8
0
100
AcDbEllipse
 10
6479.821574368449
 20
-3751.466057376585
 30
0.0
 11
0.5993751951000377
 21
0.0273747357000502
 31
0.0
210
0.0
220
0.0
230
1.0
 40
0.9999999999999998
 41
1.5251559249
 42
3.095952249399999
  0
ELLIPSE
  5
31561
330
1F
100
AcDbEntity
  8
0
100
AcDbEllipse
 10
6477.721574367049
 20
-3751.466057376585
 30
0.0
 11
0.0273745022996082
 21
-0.5993752057997881
 31
0.0
210
0.0
220
0.0
230
1.0
 40
1.0
 41
1.5251563144
 42
3.0959526389
  0
ELLIPSE
  5
31562
330
1F
100
AcDbEntity
  8
0
100
AcDbEllipse
 10
6477.721574367049
 20
-3749.366057375186
 30
0.0
 11
-0.5993751951000377
 21
-0.0273747357000502
 31
0.0
210
0.0
220
0.0
230
1.0
 40
0.9999999999999998
 41
1.5251559249
 42
3.095952249399999
  0
ELLIPSE
  5
31563
330
1F
100
AcDbEntity
  8
0
100
AcDbEllipse
 10
6479.821574368449
 20
-3749.366057375186
 30
0.0
 11
-0.0273745022996082
 21
0.5993752057997881
 31
0.0
210
0.0
220
0.0
230
1.0
 40
1.0
 41
1.5251563144
 42
3.0959526389
  0
ELLIPSE
  5
31567
330
1F
100
AcDbEntity
  8
0
100
AcDbEllipse
 10
5954.82284848405
 20
-3807.368782305685
 30
0.0
 11
-0.0273745022996082
 21
0.5993752057997881
 31
0.0
210
0.0
220
0.0
230
1.0
 40
1.0
 41
1.5251563144
 42
3.0959526389
  0
ELLIPSE
  5
31568
330
1F
100
AcDbEntity
  8
0
100
AcDbEllipse
 10
5952.72284848265
 20
-3807.368782305685
 30
0.0
 11
-0.5993751951000377
 21
-0.0273747357000502
 31
0.0
210
0.0
220
0.0
230
1.0
 40
0.9999999999999998
 41
1.5251559249
 42
3.095952249399999
  0
ELLIPSE
  5
31569
330
1F
100
AcDbEntity
  8
0
100
AcDbEllipse
 10
5952.72284848265
 20
-3809.468782307085
 30
0.0
 11
0.0273745022996082
 21
-0.5993752057997881
 31
0.0
210
0.0
220
0.0
230
1.0
 40
1.0
 41
1.5251563144
 42
3.0959526389
  0
ELLIPSE
  5
3156A
330
1F
100
AcDbEntity
  8
0
100
AcDbEllipse
 10
5954.82284848405
 20
-3809.468782307085
 30
0.0
 11
0.5993751951000377
 21
0.0273747357000502
 31
0.0
210
0.0
220
0.0
230
1.0
 40
0.9999999999999998
 41
1.5251559249
 42
3.095952249399999
  0
ARC
  5
3156B
330
1F
100
AcDbEntity
  8
0
100
AcDbCircle
 10
5953.77284848335
 20
-3808.411577382085
 30
0.0
 40
2.162629445000106
100
AcDbArc
 50
258.6413730183081
 51
281.3586300078081
  0
ARC
  5
3156C
330
1F
100
AcDbEntity
  8
0
100
AcDbCircle
 10
5953.77284848335
 20
-3808.425987230585
 30
0.0
 40
2.162629445000106
100
AcDbArc
 50
78.64137301830808
 51
101.3586300076081
  0
ARC
  5
3156D
330
1F
100
AcDbEntity
  8
0
100
AcDbCircle
 10
5953.780053425351
 20
-3808.418782306385
 30
0.0
 40
2.162633691700268
100
AcDbArc
 50
168.6413715094042
 51
191.3586299994041
  0
ARC
  5
3156E
330
1F
100
AcDbEntity
  8
0
100
AcDbCircle
 10
5953.765643541449
 20
-3808.418782306385
 30
0.0
 40
2.162633691700268
100
AcDbArc
 50
348.6413715094042
 51
11.35862999940417
  0
ARC
  5
3156F
330
1F
100
AcDbEntity
  8
0
100
AcDbCircle
 10
5953.76504008855
 20
-3808.418782306385
 30
0.0
 40
2.307674725800239
100
AcDbArc
 50
348.7551100544958
 51
11.24489293449578
  0
ARC
  5
31570
330
1F
100
AcDbEntity
  8
0
100
AcDbCircle
 10
5953.77284848335
 20
-3808.426590701185
 30
0.0
 40
2.30767472580015
100
AcDbArc
 50
78.75511005450682
 51
101.2448929345068
  0
ARC
  5
31571
330
1F
100
AcDbEntity
  8
0
100
AcDbCircle
 10
5953.78065687815
 20
-3808.418782306385
 30
0.0
 40
2.307674725800239
100
AcDbArc
 50
168.7551100544957
 51
191.2448929344957
  0
ARC
  5
31572
330
1F
100
AcDbEntity
  8
0
100
AcDbCircle
 10
5953.77284848335
 20
-3808.410973911485
 30
0.0
 40
2.30767472580015
100
AcDbArc
 50
258.7551100545068
 51
281.2448929345068
  0
CIRCLE
  5
31573
330
1F
100
AcDbEntity
  8
0
100
AcDbCircle
 10
5953.77284848335
 20
-3808.418782306385
 30
0.0
 40
3.899999999999636
  0
LINE
  5
31574
330
1F
100
AcDbEntity
  8
0
100
AcDbLine
 10
5955.88590780885
 20
-3807.992854963385
 30
0.0
 11
5956.028397197049
 21
-3807.968782306385
 31
0.0
  0
LINE
  5
31575
330
1F
100
AcDbEntity
  8
0
100
AcDbLine
 10
5951.659789157949
 20
-3808.844709649385
 30
0.0
 11
5951.51729976965
 21
-3808.868782306385
 31
0.0
  0
LINE
  5
31576
330
1F
100
AcDbEntity
  8
0
100
AcDbLine
 10
5954.82284848765
 20
-3807.968782306385
 30
0.0
 11
5954.630030880349
 21
-3808.007345826985
 31
0.0
  0
LINE
  5
31577
330
1F
100
AcDbEntity
  8
0
100
AcDbLine
 10
5952.722848479149
 20
-3808.868782306385
 30
0.0
 11
5952.91566608635
 21
-3808.830218785785
 31
0.0
  0
LWPOLYLINE
  5
31578
330
1F
100
AcDbEntity
  8
0
100
AcDbPolyline
 90
        3
 70
     0
 43
0.0
 10
5952.91566608635
 20
-3808.007345826985
 10
5951.862975315749
 20
-3807.995252031885
 10
5951.659789157949
 20
-3807.992854963385
  0
LWPOLYLINE
  5
31579
330
1F
100
AcDbEntity
  8
0
100
AcDbPolyline
 90
        3
 70
     0
 43
0.0
 10
5954.630030880349
 20
-3808.830218785785
 10
5955.682721650949
 20
-3808.842312580785
 10
5955.88590780885
 20
-3808.844709649385
  0
LINE
  5
3157A
330
1F
100
AcDbEntity
  8
0
100
AcDbLine
 10
5954.82284848335
 20
-3807.968782306385
 30
0.0
 11
5956.028397197049
 21
-3807.968782306385
 31
0.0
  0
LINE
  5
3157B
330
1F
100
AcDbEntity
  8
0
100
AcDbLine
 10
5951.51729976965
 20
-3807.968782306385
 30
0.0
 11
5952.722848483349
 21
-3807.968782306385
 31
0.0
  0
LINE
  5
3157C
330
1F
100
AcDbEntity
  8
0
100
AcDbLine
 10
5952.722848483349
 20
-3808.868782306385
 30
0.0
 11
5951.51729976965
 21
-3808.868782306385
 31
0.0
  0
LINE
  5
3157D
330
1F
100
AcDbEntity
  8
0
100
AcDbLine
 10
5956.028397197049
 20
-3808.868782306385
 30
0.0
 11
5954.82284848335
 21
-3808.868782306385
 31
0.0
  0
LINE
  5
3157E
330
1F
100
AcDbEntity
  8
0
100
AcDbLine
 10
5954.630030880349
 20
-3808.007345826985
 30
0.0
 11
5955.88590780885
 21
-3807.992854963385
 31
0.0
  0
LINE
  5
3157F
330
1F
100
AcDbEntity
  8
0
100
AcDbLine
 10
5952.91566608635
 20
-3808.830218785785
 30
0.0
 11
5951.659789157949
 21
-3808.844709649385
 31
0.0
  0
LINE
  5
31580
330
1F
100
AcDbEntity
  8
0
100
AcDbLine
 10
5952.91566608635
 20
-3808.007345826985
 30
0.0
 11
5952.722848485549
 21
-3807.968782306385
 31
0.0
  0
LINE
  5
31581
330
1F
100
AcDbEntity
  8
0
100
AcDbLine
 10
5954.630030880349
 20
-3808.830218785785
 30
0.0
 11
5954.822848481249
 21
-3808.868782306385
 31
0.0
  0
LINE
  5
31582
330
1F
100
AcDbEntity
  8
0
100
AcDbLine
 10
5951.51729976965
 20
-3807.968782306385
 30
0.0
 11
5951.659789157949
 21
-3807.992854963385
 31
0.0
  0
LINE
  5
31583
330
1F
100
AcDbEntity
  8
0
100
AcDbLine
 10
5956.028397197049
 20
-3808.868782306385
 30
0.0
 11
5955.88590780885
 21
-3808.844709649385
 31
0.0
  0
LWPOLYLINE
  5
31584
330
1F
100
AcDbEntity
  8
0
100
AcDbPolyline
 90
       11
 70
     0
 43
0.0
 10
5954.630030880349
 20
-3808.007345826985
 10
5954.55480837295
 20
-3808.002115717985
 10
5954.48506419975
 20
-3807.986083669585
 10
5954.42084233415
 20
-3807.960585063085
 10
5954.361792535749
 20
-3807.925505900585
 10
5954.30938175545
 20
-3807.881249271985
 10
5954.26538910405
 20
-3807.828855616685
 10
5954.230574862149
 20
-3807.769772693685
 10
5954.20527603265
 20
-3807.705754601485
 10
5954.18945527205
 20
-3807.636318555685
 10
5954.184284962749
 20
-3807.561599909385
  0
LWPOLYLINE
  5
31585
330
1F
100
AcDbEntity
  8
0
100
AcDbPolyline
 90
       11
 70
     0
 43
0.0
 10
5952.91566608635
 20
-3808.830218785785
 10
5952.990888593749
 20
-3808.835448894685
 10
5953.060632766949
 20
-3808.851480943085
 10
5953.12485463255
 20
-3808.876979549585
 10
5953.18390443095
 20
-3808.912058712085
 10
5953.236315211249
 20
-3808.956315340685
 10
5953.280307862749
 20
-3809.008708996085
 10
5953.31512210455
 20
-3809.067791918985
 10
5953.34042093405
 20
-3809.131810011185
 10
5953.356241694649
 20
-3809.201246057085
 10
5953.36141200395
 20
-3809.275964703385
  0
LINE
  5
31586
330
1F
100
AcDbEntity
  8
0
100
AcDbLine
 10
5954.222848483349
 20
-3809.468782310585
 30
0.0
 11
5954.184284962749
 21
-3809.275964703385
 31
0.0
  0
LINE
  5
31587
330
1F
100
AcDbEntity
  8
0
100
AcDbLine
 10
5953.32284848335
 20
-3807.368782302086
 30
0.0
 11
5953.36141200395
 21
-3807.561599909385
 31
0.0
  0
LINE
  5
31588
330
1F
100
AcDbEntity
  8
0
100
AcDbLine
 10
5954.198775826349
 20
-3810.531841631785
 30
0.0
 11
5954.222848483349
 21
-3810.674331020085
 31
0.0
  0
LINE
  5
31589
330
1F
100
AcDbEntity
  8
0
100
AcDbLine
 10
5953.34692114035
 20
-3806.305722980886
 30
0.0
 11
5953.32284848335
 21
-3806.163233592585
 31
0.0
  0
LINE
  5
3158A
330
1F
100
AcDbEntity
  8
0
100
AcDbLine
 10
5954.184284962749
 20
-3807.561599909385
 30
0.0
 11
5954.222848483349
 21
-3807.368782308485
 31
0.0
  0
LINE
  5
3158B
330
1F
100
AcDbEntity
  8
0
100
AcDbLine
 10
5953.36141200395
 20
-3809.275964703385
 30
0.0
 11
5953.32284848335
 21
-3809.468782304185
 31
0.0
  0
LINE
  5
3158C
330
1F
100
AcDbEntity
  8
0
100
AcDbLine
 10
5954.222848483349
 20
-3806.163233592585
 30
0.0
 11
5954.198775826349
 21
-3806.305722980886
 31
0.0
  0
LINE
  5
3158D
330
1F
100
AcDbEntity
  8
0
100
AcDbLine
 10
5953.32284848335
 20
-3810.674331020085
 30
0.0
 11
5953.34692114035
 21
-3810.531841631785
 31
0.0
  0
LWPOLYLINE
  5
3158E
330
1F
100
AcDbEntity
  8
0
100
AcDbPolyline
 90
       11
 70
     0
 43
0.0
 10
5954.184284962749
 20
-3809.275964703385
 10
5954.18951507165
 20
-3809.200742197085
 10
5954.20554711985
 20
-3809.130998024385
 10
5954.23104572585
 20
-3809.066776159285
 10
5954.26612488745
 20
-3809.007726360785
 10
5954.310381517149
 20
-3808.955315579685
 10
5954.36277517275
 20
-3808.911322926885
 10
5954.42185809665
 20
-3808.876508685185
 10
5954.485876189249
 20
-3808.851209855585
 10
5954.555312235149
 20
-3808.835389095185
 10
5954.630030880349
 20
-3808.830218785785
  0
LWPOLYLINE
  5
3158F
330
1F
100
AcDbEntity
  8
0
100
AcDbPolyline
 90
       11
 70
     0
 43
0.0
 10
5953.36141200395
 20
-3807.561599909385
 10
5953.356181895049
 20
-3807.636822415585
 10
5953.340149846849
 20
-3807.706566588385
 10
5953.314651240849
 20
-3807.770788453485
 10
5953.279572079249
 20
-3807.829838251985
 10
5953.23531544955
 20
-3807.882249032985
 10
5953.182921793949
 20
-3807.926241685885
 10
5953.123838870049
 20
-3807.961055927485
 10
5953.05982077755
 20
-3807.986354757085
 10
5952.99038473165
 20
-3808.002175517585
 10
5952.91566608635
 20
-3808.007345826985
  0
LWPOLYLINE
  5
31590
330
1F
100
AcDbEntity
  8
0
100
AcDbPolyline
 90
        3
 70
     0
 43
0.0
 10
5954.184284962749
 20
-3807.561599909385
 10
5954.19637875775
 20
-3806.508909138785
 10
5954.198775826349
 20
-3806.305722980886
  0
LWPOLYLINE
  5
31591
330
1F
100
AcDbEntity
  8
0
100
AcDbPolyline
 90
        3
 70
     0
 43
0.0
 10
5953.36141200395
 20
-3809.275964703385
 10
5953.34931820895
 20
-3810.328655473984
 10
5953.34692114035
 20
-3810.531841631785
  0
LINE
  5
31592
330
1F
100
AcDbEntity
  8
0
100
AcDbLine
 10
5954.222848483349
 20
-3809.468782306385
 30
0.0
 11
5954.222848483349
 21
-3810.674331020085
 31
0.0
  0
LINE
  5
31593
330
1F
100
AcDbEntity
  8
0
100
AcDbLine
 10
5954.222848483349
 20
-3806.163233592585
 30
0.0
 11
5954.222848483349
 21
-3807.368782306385
 31
0.0
  0
LINE
  5
31594
330
1F
100
AcDbEntity
  8
0
100
AcDbLine
 10
5953.32284848335
 20
-3807.368782306385
 30
0.0
 11
5953.32284848335
 21
-3806.163233592585
 31
0.0
  0
LINE
  5
31595
330
1F
100
AcDbEntity
  8
0
100
AcDbLine
 10
5953.32284848335
 20
-3810.674331020085
 30
0.0
 11
5953.32284848335
 21
-3809.468782306385
 31
0.0
  0
LINE
  5
31596
330
1F
100
AcDbEntity
  8
0
100
AcDbLine
 10
5954.184284962749
 20
-3809.275964703385
 30
0.0
 11
5954.198775826349
 21
-3810.531841631785
 31
0.0
  0
LINE
  5
31597
330
1F
100
AcDbEntity
  8
0
100
AcDbLine
 10
5953.36141200395
 20
-3807.561599909385
 30
0.0
 11
5953.34692114035
 21
-3806.305722980886
 31
0.0
  0
DIMENSION
  5
31598
330
1F
100
AcDbEntity
  8
0
100
AcDbDimension
  2
*D13
 10
5982.77157436775
 20
-3929.272475262624
 30
0.0
 11
5953.77157436775
 21
-3929.272475262624
 31
0.0
 70
    32
  1
%%c58
 71
     0
 72
     0
 41
0.0
 42
58.0
  3
SCALE 7
100
AcDbAlignedDimension
 13
5924.77157436775
 23
-3934.272475262624
 33
0.0
 14
5982.77157436775
 24
-3934.272475262624
 34
0.0
 50
0.0
100
AcDbRotatedDimension
1001
ACAD
1000
DSTYLE
1002
{
1070
   272
1070
     1
1002
}
  0
DIMENSION
  5
315ED
330
1F
100
AcDbEntity
  8
0
100
AcDbDimension
  2
*D25
 10
6003.915336638488
 20
-3910.416057375885
 30
0.0
 11
6003.915336638488
 21
-3855.416057375885
 31
0.0
 70
    32
 71
    76
 72
   183
 41
0.0
 42
110.0
  3
SCALE 7
100
AcDbAlignedDimension
 13
6008.915336638488
 23
-3800.416057375885
 33
0.0
 14
6008.915336638488
 24
-3910.416057375885
 34
0.0
 50
90.0
100
AcDbRotatedDimension
1001
ACAD
1000
DSTYLE
1002
{
1070
   272
1070
     1
1002
}
  0
DIMENSION
  5
315FC
330
1F
100
AcDbEntity
  8
0
100
AcDbDimension
  2
*D23
 10
6169.577994536004
 20
-3910.416057375885
 30
0.0
 11
6169.577994536004
 21
-3842.416057375885
 31
0.0
 70
    32
 71
     0
 72
     0
 42
136.0
  3
SCALE 7
100
AcDbAlignedDimension
 13
6174.577994536003
 23
-3774.416057375885
 33
0.0
 14
6174.577994536003
 24
-3910.416057375885
 34
0.0
 50
90.0
100
AcDbRotatedDimension
1001
ACAD
1000
DSTYLE
1002
{
1070
   272
1070
     1
1002
}
  0
DIMENSION
  5
3160B
330
1F
100
AcDbEntity
  8
0
100
AcDbDimension
  2
*D21
 10
6362.257807209176
 20
-3752.416057375885
 30
0.0
 11
6362.257807209176
 21
-3831.416057375885
 31
0.0
 70
    32
 71
     0
 72
     0
 41
0.0
 42
158.0
  3
SCALE 7
100
AcDbAlignedDimension
 13
6367.257807209177
 23
-3910.416057375885
 33
0.0
 14
6367.257807209177
 24
-3752.416057375885
 34
0.0
 50
90.0
100
AcDbRotatedDimension
1001
ACAD
1000
DSTYLE
1002
{
1070
   272
1070
     1
1002
}
  0
DIMENSION
  5
3161A
330
1F
100
AcDbEntity
  8
0
100
AcDbDimension
  2
*D19
 10
6574.32678342179
 20
-3740.416057375885
 30
0.0
 11
6574.32678342179
 21
-3825.416057375885
 31
0.0
 70
    32
 71
    28
 72
    42
 41
6581.024145859261
 42
170.0
  3
SCALE 7
100
AcDbAlignedDimension
 13
6579.32678342179
 23
-3910.416057375885
 33
0.0
 14
6579.32678342179
 24
-3740.416057375885
 34
0.0
 50
90.0
100
AcDbRotatedDimension
1001
ACAD
1000
DSTYLE
1002
{
1070
   272
1070
     1
1002
}
  0
DIMENSION
  5
31699
330
1F
100
AcDbEntity
  8
0
100
AcDbDimension
  2
*D36
 10
6145.77157436775
 20
-3929.272475262624
 30
0.0
 11
6103.77157436775
 21
-3929.272475262624
 31
0.0
 70
    32
  1
%%c84
 71
   232
 72
   101
 41
6098.999129386936
 42
84.0
  3
SCALE 7
100
AcDbAlignedDimension
 13
6061.77157436775
 23
-3934.272475262624
 33
0.0
 14
6145.77157436775
 24
-3934.272475262624
 34
0.0
 50
0.0
100
AcDbRotatedDimension
1001
ACAD
1000
DSTYLE
1002
{
1070
   272
1070
     1
1002
}
  0
DIMENSION
  5
316A8
330
1F
100
AcDbEntity
  8
0
100
AcDbDimension
  2
*D37
 10
6333.271572133249
 20
-3929.272475262624
 30
0.0
 11
6278.77158370585
 21
-3929.272475262624
 31
0.0
 70
    32
  1
%%c109
 71
   237
 72
   120
 41
-3906.958878558601
 42
108.9999768547995
  3
SCALE 7
100
AcDbAlignedDimension
 13
6224.27159527845
 23
-3934.272475262624
 33
0.0
 14
6333.271572133249
 24
-3934.272475262624
 34
0.0
 50
0.0
100
AcDbRotatedDimension
1001
ACAD
1000
DSTYLE
1002
{
1070
   272
1070
     1
1002
}
  0
DIMENSION
  5
316B7
330
1F
100
AcDbEntity
  8
0
100
AcDbDimension
  2
*D38
 10
6546.27157436775
 20
-3929.272475262624
 30
0.0
 11
6478.77158889285
 21
-3929.272475262624
 31
0.0
 70
    32
  1
%%c135
 71
     1
 72
     0
 41
3.0
 42
134.9999709497997
  3
SCALE 7
100
AcDbAlignedDimension
 13
6411.27160341795
 23
-3934.272475262624
 33
0.0
 14
6546.27157436775
 24
-3934.272475262624
 34
0.0
 50
0.0
100
AcDbRotatedDimension
1001
ACAD
1000
DSTYLE
1002
{
1070
   272
1070
     1
1002
}
  0
VIEWPORT
  5
4C
102
{ACAD_XDICTIONARY
360
317E5
102
}
330
73
100
AcDbEntity
 67
     1
  8
0
100
AcDbViewport
 10
5.452083077017716
 20
3.978472131443774
 30
0.0
 40
18.45840806357756
 41
8.749072030135028
 68
     1
 69
    -1
 12
5.452083077017716
 22
3.978472131443774
 13
0.0
 23
0.0
 14
10.0
 24
10.0
 15
10.0
 25
10.0
 16
0.0
 26
0.0
 36
1.0
 17
0.0
 27
0.0
 37
0.0
 42
50.0
 43
0.0
 44
0.0
 45
8.749072030135028
 50
0.0
 51
0.0
 72
   100
 90
   557088
  1

281
     0
 71
     1
 74
     0
110
0.0
120
0.0
130
0.0
111
1.0
121
0.0
131
0.0
112
0.0
122
1.0
132
0.0
 79
     0
146
0.0
  0
ENDSEC
  0
SECTION
  2
OBJECTS
  0
DICTIONARY
  5
C
330
0
100
AcDbDictionary
281
     1
  3
ACAD_COLOR
350
6C
  3
ACAD_GROUP
350
D
  3
ACAD_LAYOUT
350
1A
  3
ACAD_MATERIAL
350
6B
  3
ACAD_MLEADERSTYLE
350
317CA
  3
ACAD_MLINESTYLE
350
17
  3
ACAD_PLOTSETTINGS
350
19
  3
ACAD_PLOTSTYLENAME
350
E
  3
ACAD_SCALELIST
350
317CC
  3
ACAD_TABLESTYLE
350
92
  3
ACAD_VISUALSTYLE
350
317B1
  3
ACAD_WIPEOUT_VARS
350
31756
  3
ACDB_RECOMPOSE_DATA
350
3182C
  3
ACDBHEADERROUNDTRIPXREC
350
317E1
  3
AcDbVariableDictionary
350
59
  3
DWGPROPS
350
317E4
  0
DICTIONARY
  5
317EF
330
8
100
AcDbDictionary
280
     1
281
     1
  3
ACAD_XREC_ROUNDTRIP
360
317F0
  0
DICTIONARY
  5
317E9
330
10
100
AcDbDictionary
280
     1
281
     1
  3
ACAD_XREC_ROUNDTRIP
360
317EA
  0
DICTIONARY
  5
317EB
330
A7
100
AcDbDictionary
280
     1
281
     1
  3
ACAD_XREC_ROUNDTRIP
360
317EC
  0
DICTIONARY
  5
317ED
330
13FF0
100
AcDbDictionary
280
     1
281
     1
  3
ACAD_XREC_ROUNDTRIP
360
317EE
  0
DICTIONARY
  5
317E7
330
53
100
AcDbDictionary
280
     1
281
     1
  3
ACAD_XREC_ROUNDTRIP
360
317E8
  0
DICTIONARY
  5
317E5
330
4C
100
AcDbDictionary
280
     1
281
     1
  3
ACAD_XREC_ROUNDTRIP
360
317E6
  0
DICTIONARY
  5
6C
102
{ACAD_REACTORS
330
C
102
}
330
C
100
AcDbDictionary
281
     1
  0
DICTIONARY
  5
D
102
{ACAD_REACTORS
330
C
102
}
330
C
100
AcDbDictionary
281
     1
  0
DICTIONARY
  5
1A
102
{ACAD_REACTORS
330
C
102
}
330
C
100
AcDbDictionary
281
     1
  3
Model
350
22
  3
布局1
350
1E
  3
布局2
350
26
  0
DICTIONARY
  5
6B
102
{ACAD_REACTORS
330
C
102
}
330
C
100
AcDbDictionary
281
     1
  3
ByBlock
350
317AF
  3
ByLayer
350
317AE
  3
Global
350
317B0
  0
DICTIONARY
  5
317CA
102
{ACAD_REACTORS
330
C
102
}
330
C
100
AcDbDictionary
281
     1
  3
Standard
350
317CB
  0
DICTIONARY
  5
17
102
{ACAD_REACTORS
330
C
102
}
330
C
100
AcDbDictionary
281
     1
  3
Standard
350
18
  0
DICTIONARY
  5
19
102
{ACAD_REACTORS
330
C
102
}
330
C
100
AcDbDictionary
281
     1
  3
PDF线图
350
4D6E
  0
ACDBDICTIONARYWDFLT
  5
E
102
{ACAD_REACTORS
330
C
102
}
330
C
100
AcDbDictionary
281
     1
  3
Normal
350
F
100
AcDbDictionaryWithDefault
340
F
  0
DICTIONARY
  5
317CC
102
{ACAD_REACTORS
330
C
102
}
330
C
100
AcDbDictionary
281
     1
  3
A0
350
317CD
  3
A1
350
317CE
  3
A2
350
317CF
  3
A3
350
317D0
  3
A4
350
317D1
  3
A5
350
317D2
  3
A6
350
317D3
  3
A7
350
317D4
  3
A8
350
317D5
  3
A9
350
317D6
  3
B0
350
317D7
  3
B1
350
317D8
  3
B2
350
317D9
  3
B3
350
317DA
  3
B4
350
317DB
  3
B5
350
317DC
  3
B6
350
317DD
  0
DICTIONARY
  5
92
102
{ACAD_REACTORS
330
C
102
}
330
C
100
AcDbDictionary
281
     1
  3
Standard
350
28C9
  0
DICTIONARY
  5
317B1
102
{ACAD_REACTORS
330
C
102
}
330
C
100
AcDbDictionary
281
     1
  3
2dWireframe
350
317B6
  3
Basic
350
317B9
  3
Brighten
350
317BD
  3
ColorChange
350
317C1
  3
Conceptual
350
317BB
  3
Dim
350
317BC
  3
EdgeColorOff
350
317C4
  3
Facepattern
350
317C0
  3
Flat
350
317B2
  3
FlatWithEdges
350
317B3
  3
Gouraud
350
317B4
  3
GouraudWithEdges
350
317B5
  3
Hidden
350
317B8
  3
JitterOff
350
317C2
  3
Linepattern
350
317BF
  3
OverhangOff
350
317C3
  3
Realistic
350
317BA
  3
Shaded
350
317C9
  3
Shaded with edges
350
317C8
  3
Shades of Gray
350
317C5
  3
Sketchy
350
317C6
  3
Thicken
350
317BE
  3
Wireframe
350
317B7
  3
X-Ray
350
317C7
  0
WIPEOUTVARIABLES
  5
31756
102
{ACAD_REACTORS
330
C
102
}
330
C
100
AcDbWipeoutVariables
 70
     1
  0
XRECORD
  5
3182C
102
{ACAD_REACTORS
330
C
102
}
330
C
100
AcDbXrecord
280
     1
 90
        1
330
28C9
  0
DICTIONARY
  5
317E1
102
{ACAD_REACTORS
330
C
102
}
330
C
100
AcDbDictionary
281
     1
  3
COLORDICT
350
317E2
  3
MATERIALDICT
350
317E3
  0
DICTIONARY
  5
59
102
{ACAD_REACTORS
330
C
102
}
330
C
100
AcDbDictionary
281
     1
  3
CANNOSCALE
350
317E0
  3
CMLEADERSTYLE
350
317DE
  3
CTABLESTYLE
350
28CB
  3
DIMASSOC
350
9A
  3
HIDETEXT
350
28CC
  3
MSLTSCALE
350
317DF
  0
XRECORD
  5
317E4
102
{ACAD_REACTORS
330
C
102
}
330
C
100
AcDbXrecord
280
     1
  1
DWGPROPS COOKIE
  2

  3

  4

  6

  7

  8
fottrem
  9

300
=
301
=
302
=
303
=
304
=
305
=
306
=
307
=
308
=
309
=
 40
0.0
 41
2453354.050459155
 42
2460426.440661713
  1

 90
        0
  0
XRECORD
  5
317F0
102
{ACAD_REACTORS
330
317EF
102
}
330
317EF
100
AcDbXrecord
280
     1
102
VTR_0.000_0.000_1.000_1.000_VISUALSTYLE
340
317B6
102
VTR_0.000_0.000_1.000_1.000_GRIDDISPLAY
 70
     3
102
VTR_0.000_0.000_1.000_1.000_GRIDMAJOR
 70
     5
102
VTR_0.000_0.000_1.000_1.000_DEFAULTLIGHTING
280
     1
102
VTR_0.000_0.000_1.000_1.000_DEFAULTLIGHTINGTYPE
 70
     1
102
VTR_0.000_0.000_1.000_1.000_BRIGHTNESS
141
0.0
102
VTR_0.000_0.000_1.000_1.000_CONTRAST
142
0.0
  0
XRECORD
  5
317EA
102
{ACAD_REACTORS
330
317E9
102
}
330
317E9
100
AcDbXrecord
280
     1
102
MATERIAL
340
317B0
  0
XRECORD
  5
317EC
102
{ACAD_REACTORS
330
317EB
102
}
330
317EB
100
AcDbXrecord
280
     1
102
MATERIAL
340
317B0
  0
XRECORD
  5
317EE
102
{ACAD_REACTORS
330
317ED
102
}
330
317ED
100
AcDbXrecord
280
     1
102
MATERIAL
340
317B0
  0
XRECORD
  5
317E8
102
{ACAD_REACTORS
330
317E7
102
}
330
317E7
100
AcDbXrecord
280
     1
102
GRIDDISPLAY
 70
     2
102
GRIDMAJOR
 70
     5
102
DEFAULTLIGHTING
280
     1
102
DEFAULTLIGHTINGTYPE
 70
     1
102
BRIGHTNESS
141
0.0
102
CONTRAST
142
0.0
  0
XRECORD
  5
317E6
102
{ACAD_REACTORS
330
317E5
102
}
330
317E5
100
AcDbXrecord
280
     1
102
GRIDDISPLAY
 70
     2
102
GRIDMAJOR
 70
     5
102
DEFAULTLIGHTING
280
     1
102
DEFAULTLIGHTINGTYPE
 70
     1
102
BRIGHTNESS
141
0.0
102
CONTRAST
142
0.0
  0
LAYOUT
  5
22
102
{ACAD_REACTORS
330
1A
102
}
330
1A
100
AcDbPlotSettings
  1

  2
Adobe PDF
  4
A4
  6

 40
0.0
 41
0.0423333333333469
 42
0.0635000000000048
 43
0.0
 44
210.0
 45
297.0
 46
20.12320238095238
 47
-0.0000000000000104
 48
5154.274320694348
 49
-3864.212303653728
140
5574.274320694348
141
-3624.212303653728
142
1.0
143
1.414343009609675
 70
 11956
 72
     1
 73
     1
 74
     4
  7

 75
     0
147
0.7070420634920635
148
0.0579160791065316
149
0.0376503347311434
100
AcDbLayout
  1
Model
 70
     1
 71
     0
 10
0.0
 20
0.0
 11
12.0
 21
9.0
 12
0.0
 22
0.0
 32
0.0
 14
5924.77157436775
 24
-3934.674930924289
 34
0.0
 15
6585.980944404056
 25
-3572.729706070586
 35
0.0
146
0.0
 13
0.0
 23
0.0
 33
0.0
 16
1.0
 26
0.0
 36
0.0
 17
0.0
 27
1.0
 37
0.0
 76
     0
330
1F
331
97
  0
LAYOUT
  5
1E
102
{ACAD_REACTORS
330
1A
102
}
330
1A
100
AcDbPlotSettings
  1

  2
none_device
  4

  6

 40
0.0
 41
0.0
 42
0.0
 43
0.0
 44
0.0
 45
0.0
 46
0.0
 47
0.0
 48
0.0
 49
0.0
140
0.0
141
0.0
142
1.0
143
1.0
 70
   688
 72
     0
 73
     0
 74
     5
  7

 75
    16
147
1.0
148
0.0
149
0.0
100
AcDbLayout
  1
布局1
 70
     1
 71
     1
 10
0.0
 20
0.0
 11
12.0
 21
9.0
 12
0.0
 22
0.0
 32
0.0
 14
1.000000000000000E+20
 24
1.000000000000000E+20
 34
1.000000000000000E+20
 15
-1.000000000000000E+20
 25
-1.000000000000000E+20
 35
-1.000000000000000E+20
146
0.0
 13
0.0
 23
0.0
 33
0.0
 16
1.0
 26
0.0
 36
0.0
 17
0.0
 27
1.0
 37
0.0
 76
     0
330
1B
331
53
  0
LAYOUT
  5
26
102
{ACAD_REACTORS
330
1A
102
}
330
1A
100
AcDbPlotSettings
  1

  2
Epson Stylus 1000 ESC/P
  4

  6

 40
0.0
 41
0.0
 42
0.0
 43
0.0
 44
0.0
 45
0.0
 46
0.0
 47
0.0
 48
0.0
 49
0.0
140
0.0
141
0.0
142
1.0
143
1.0
 70
   688
 72
     0
 73
     1
 74
     5
  7

 75
    16
147
1.0
148
0.0
149
0.0
100
AcDbLayout
  1
布局2
 70
     1
 71
     2
 10
0.0
 20
0.0
 11
12.0
 21
9.0
 12
0.0
 22
0.0
 32
0.0
 14
0.0
 24
0.0
 34
0.0
 15
0.0
 25
0.0
 35
0.0
146
0.0
 13
0.0
 23
0.0
 33
0.0
 16
1.0
 26
0.0
 36
0.0
 17
0.0
 27
1.0
 37
0.0
 76
     0
330
73
331
4C
  0
MATERIAL
  5
317AF
102
{ACAD_XDICTIONARY
360
317F1
102
}
102
{ACAD_REACTORS
330
6B
102
}
330
6B
100
AcDbMaterial
  1
ByBlock
 72
     0
 73
     2
 77
     0
 78
     2
171
     0
172
     2
175
     0
176
     2
179
     0
270
     2
274
     2
  0
MATERIAL
  5
317AE
102
{ACAD_XDICTIONARY
360
317F3
102
}
102
{ACAD_REACTORS
330
6B
102
}
330
6B
100
AcDbMaterial
  1
ByLayer
 72
     0
 73
     2
 77
     0
 78
     2
171
     0
172
     2
175
     0
176
     2
179
     0
270
     2
274
     2
  0
MATERIAL
  5
317B0
102
{ACAD_XDICTIONARY
360
317F5
102
}
102
{ACAD_REACTORS
330
6B
102
}
330
6B
100
AcDbMaterial
  1
Global
 72
     0
 73
     2
 77
     0
 78
     2
171
     0
172
     2
175
     0
176
     2
179
     0
270
     2
274
     2
  0
MLEADERSTYLE
  5
317CB
102
{ACAD_XDICTIONARY
360
317F8
102
}
102
{ACAD_REACTORS
330
317CA
102
}
330
317CA
100
AcDbMLeaderStyle
170
     2
171
     1
172
     0
 90
        2
 40
0.0
 41
0.0
173
     1
 91
-1056964608
340
14
 92
       -2
290
     1
 42
0.4
291
     1
 43
2.0
  3
Standard
 44
0.18
300

342
11
174
     1
178
     1
175
     1
176
     0
 93
-1056964608
 45
0.2
292
     0
297
     0
 46
5.0
 94
-1056964608
 47
1.0
 49
1.0
140
1.0
293
     1
141
0.0
294
     1
177
     0
142
1.0
295
     0
296
     0
143
0.125
1001
ACAD_MLEADERVER
1070
     2
  0
MLINESTYLE
  5
18
102
{ACAD_REACTORS
330
17
102
}
330
17
100
AcDbMlineStyle
  2
Standard
 70
     0
  3

 62
   174
 51
90.0
 52
90.0
 71
     2
 49
0.5
 62
   256
  6
BYLAYER
 49
-0.5
 62
   256
  6
BYLAYER
  0
PLOTSETTINGS
  5
4D6E
102
{ACAD_REACTORS
330
19
102
}
330
19
100
AcDbPlotSettings
  1
pdf线图
  2
Adobe PDF_1.pc3
  4

  6

 40
0.0
 41
0.0
 42
0.0
 43
0.0
 44
0.0
 45
0.0
 46
0.4320000000000001
 47
0.254
 48
165.9031723727798
 49
105.9006797601912
140
865.9031723727798
141
505.9006797601912
142
1.0
143
1.0
 70
  1712
 72
     0
 73
     0
 74
     4
  7

 75
     0
147
1.0
148
0.0
149
0.0
  0
ACDBPLACEHOLDER
  5
F
102
{ACAD_REACTORS
330
E
102
}
330
E
  0
SCALE
  5
317CD
102
{ACAD_REACTORS
330
317CC
102
}
330
317CC
100
AcDbScale
 70
     0
300
1:1
140
1.0
141
1.0
290
     1
  0
SCALE
  5
317CE
102
{ACAD_REACTORS
330
317CC
102
}
330
317CC
100
AcDbScale
 70
     0
300
1:2
140
1.0
141
2.0
290
     0
  0
SCALE
  5
317CF
102
{ACAD_REACTORS
330
317CC
102
}
330
317CC
100
AcDbScale
 70
     0
300
1:4
140
1.0
141
4.0
290
     0
  0
SCALE
  5
317D0
102
{ACAD_REACTORS
330
317CC
102
}
330
317CC
100
AcDbScale
 70
     0
300
1:5
140
1.0
141
5.0
290
     0
  0
SCALE
  5
317D1
102
{ACAD_REACTORS
330
317CC
102
}
330
317CC
100
AcDbScale
 70
     0
300
1:8
140
1.0
141
8.0
290
     0
  0
SCALE
  5
317D2
102
{ACAD_REACTORS
330
317CC
102
}
330
317CC
100
AcDbScale
 70
     0
300
1:10
140
1.0
141
10.0
290
     0
  0
SCALE
  5
317D3
102
{ACAD_REACTORS
330
317CC
102
}
330
317CC
100
AcDbScale
 70
     0
300
1:16
140
1.0
141
16.0
290
     0
  0
SCALE
  5
317D4
102
{ACAD_REACTORS
330
317CC
102
}
330
317CC
100
AcDbScale
 70
     0
300
1:20
140
1.0
141
20.0
290
     0
  0
SCALE
  5
317D5
102
{ACAD_REACTORS
330
317CC
102
}
330
317CC
100
AcDbScale
 70
     0
300
1:30
140
1.0
141
30.0
290
     0
  0
SCALE
  5
317D6
102
{ACAD_REACTORS
330
317CC
102
}
330
317CC
100
AcDbScale
 70
     0
300
1:40
140
1.0
141
40.0
290
     0
  0
SCALE
  5
317D7
102
{ACAD_REACTORS
330
317CC
102
}
330
317CC
100
AcDbScale
 70
     0
300
1:50
140
1.0
141
50.0
290
     0
  0
SCALE
  5
317D8
102
{ACAD_REACTORS
330
317CC
102
}
330
317CC
100
AcDbScale
 70
     0
300
1:100
140
1.0
141
100.0
290
     0
  0
SCALE
  5
317D9
102
{ACAD_REACTORS
330
317CC
102
}
330
317CC
100
AcDbScale
 70
     0
300
2:1
140
2.0
141
1.0
290
     0
  0
SCALE
  5
317DA
102
{ACAD_REACTORS
330
317CC
102
}
330
317CC
100
AcDbScale
 70
     0
300
4:1
140
4.0
141
1.0
290
     0
  0
SCALE
  5
317DB
102
{ACAD_REACTORS
330
317CC
102
}
330
317CC
100
AcDbScale
 70
     0
300
8:1
140
8.0
141
1.0
290
     0
  0
SCALE
  5
317DC
102
{ACAD_REACTORS
330
317CC
102
}
330
317CC
100
AcDbScale
 70
     0
300
10:1
140
10.0
141
1.0
290
     0
  0
SCALE
  5
317DD
102
{ACAD_REACTORS
330
317CC
102
}
330
317CC
100
AcDbScale
 70
     0
300
100:1
140
100.0
141
1.0
290
     0
  0
TABLESTYLE
  5
28C9
102
{ACAD_XDICTIONARY
360
317AC
102
}
102
{ACAD_REACTORS
330
92
102
}
330
92
100
AcDbTableStyle
  3

 70
     0
 71
     0
 40
0.06
 41
0.06
280
     0
281
     0
  7

140
0.18
170
     2
 62
     0
 63
   257
283
     0
274
    -2
284
     1
 64
     0
275
    -2
285
     1
 65
     0
276
    -2
286
     1
 66
     0
277
    -2
287
     1
 67
     0
278
    -2
288
     1
 68
     0
279
    -2
289
     1
 69
     0
  7

140
0.25
170
     5
 62
     0
 63
   257
283
     0
274
    -2
284
     1
 64
     0
275
    -2
285
     1
 65
     0
276
    -2
286
     1
 66
     0
277
    -2
287
     1
 67
     0
278
    -2
288
     1
 68
     0
279
    -2
289
     1
 69
     0
  7

140
0.18
170
     5
 62
     0
 63
   257
283
     0
274
    -2
284
     1
 64
     0
275
    -2
285
     1
 65
     0
276
    -2
286
     1
 66
     0
277
    -2
287
     1
 67
     0
278
    -2
288
     1
 68
     0
279
    -2
289
     1
 69
     0
  0
VISUALSTYLE
  5
317B6
102
{ACAD_XDICTIONARY
360
317FC
102
}
102
{ACAD_REACTORS
330
317B1
102
}
330
317B1
100
AcDbVisualStyle
  2
2dWireframe
 70
     4
 71
     0
 72
     2
 73
     0
 90
        0
 40
0.6
 41
30.0
 62
     5
 63
     7
 74
     1
 91
        4
 64
     7
 65
   257
 75
     1
175
     1
 42
1.0
 92
        0
 66
   257
 43
1.0
 76
     1
 77
     6
 78
     2
 67
     7
 79
     5
170
     0
171
     0
290
     0
174
     0
 93
        1
 44
0.0
173
     0
291
     0
 45
0.0
1001
ACAD
1000
AcDbSavedByObjectVersion
1070
     0
  0
VISUALSTYLE
  5
317B9
102
{ACAD_XDICTIONARY
360
317FE
102
}
102
{ACAD_REACTORS
330
317B1
102
}
330
317B1
100
AcDbVisualStyle
  2
Basic
 70
     7
 71
     1
 72
     0
 73
     1
 90
        0
 40
0.6
 41
30.0
 62
     5
 63
     7
 74
     0
 91
        4
 64
     7
 65
   257
 75
     1
175
     1
 42
1.0
 92
        8
 66
     7
 43
1.0
 76
     1
 77
     6
 78
     2
 67
     7
 79
     5
170
     0
171
     0
290
     0
174
     0
 93
        1
 44
0.0
173
     0
291
     1
 45
0.0
1001
ACAD
1000
AcDbSavedByObjectVersion
1070
     0
  0
VISUALSTYLE
  5
317BD
102
{ACAD_XDICTIONARY
360
31800
102
}
102
{ACAD_REACTORS
330
317B1
102
}
330
317B1
100
AcDbVisualStyle
  2
Brighten
 70
    12
 71
     2
 72
     2
 73
     0
 90
        0
 40
0.6
 41
30.0
 62
     5
 63
     7
 74
     1
 91
        4
 64
     7
 65
   257
 75
     1
175
     1
 42
1.0
 92
        8
 66
     7
 43
1.0
 76
     1
 77
     6
 78
     2
 67
     7
 79
     5
170
     0
171
     0
290
     0
174
     0
 93
        1
 44
50.0
173
     0
291
     1
 45
0.0
1001
ACAD
1000
AcDbSavedByObjectVersion
1070
     0
  0
VISUALSTYLE
  5
317C1
102
{ACAD_XDICTIONARY
360
31802
102
}
102
{ACAD_REACTORS
330
317B1
102
}
330
317B1
100
AcDbVisualStyle
  2
ColorChange
 70
    16
 71
     2
 72
     2
 73
     3
 90
        0
 40
0.6
 41
30.0
 62
     5
 63
     8
 74
     1
 91
        4
 64
     7
 65
   257
 75
     1
175
     1
 42
1.0
 92
        8
 66
     8
 43
1.0
 76
     1
 77
     6
 78
     2
 67
     7
 79
     5
170
     0
171
     0
290
     0
174
     0
 93
        1
 44
0.0
173
     0
291
     1
 45
0.0
1001
ACAD
1000
AcDbSavedByObjectVersion
1070
     0
  0
VISUALSTYLE
  5
317BB
102
{ACAD_XDICTIONARY
360
31804
102
}
102
{ACAD_REACTORS
330
317B1
102
}
330
317B1
100
AcDbVisualStyle
  2
Conceptual
 70
     9
 71
     3
 72
     2
 73
     0
 90
        0
 40
0.6
 41
30.0
 62
     5
 63
     7
 74
     2
 91
        2
 64
     7
 65
   257
 75
     1
175
     1
 42
179.0
 92
        8
 66
     7
 43
1.0
 76
     1
 77
     6
 78
     2
 67
     7
 79
     3
170
     0
171
     0
290
     0
174
     0
 93
        1
 44
0.0
173
     0
291
     0
 45
0.0
1001
ACAD
1000
AcDbSavedByObjectVersion
1070
     0
  0
VISUALSTYLE
  5
317BC
102
{ACAD_XDICTIONARY
360
31806
102
}
102
{ACAD_REACTORS
330
317B1
102
}
330
317B1
100
AcDbVisualStyle
  2
Dim
 70
    11
 71
     2
 72
     2
 73
     0
 90
        0
 40
0.6
 41
30.0
 62
     5
 63
     7
 74
     1
 91
        4
 64
     7
 65
   257
 75
     1
175
     1
 42
1.0
 92
        8
 66
     7
 43
1.0
 76
     1
 77
     6
 78
     2
 67
     7
 79
     5
170
     0
171
     0
290
     0
174
     0
 93
        1
 44
-50.0
173
     0
291
     1
 45
0.0
1001
ACAD
1000
AcDbSavedByObjectVersion
1070
     0
  0
VISUALSTYLE
  5
317C4
102
{ACAD_XDICTIONARY
360
31808
102
}
102
{ACAD_REACTORS
330
317B1
102
}
330
317B1
100
AcDbVisualStyle
  2
EdgeColorOff
 70
    22
 71
     2
 72
     2
 73
     0
 90
        0
 40
0.6
 41
30.0
 62
     5
 63
     7
 74
     1
 91
        4
 64
     7
 65
   257
 75
     1
175
     1
 42
1.0
 92
        8
 66
     7
 43
1.0
 76
     1
 77
     6
 78
     2
 67
     7
 79
     5
170
     0
171
     0
290
     0
174
     0
 93
        1
 44
0.0
173
     0
291
     1
 45
0.0
1001
ACAD
1000
AcDbSavedByObjectVersion
1070
     0
  0
VISUALSTYLE
  5
317C0
102
{ACAD_XDICTIONARY
360
3180A
102
}
102
{ACAD_REACTORS
330
317B1
102
}
330
317B1
100
AcDbVisualStyle
  2
Facepattern
 70
    15
 71
     2
 72
     2
 73
     0
 90
        0
 40
0.6
 41
30.0
 62
     5
 63
     7
 74
     1
 91
        4
 64
     7
 65
   257
 75
     1
175
     1
 42
1.0
 92
        8
 66
     7
 43
1.0
 76
     1
 77
     6
 78
     2
 67
     7
 79
     5
170
     0
171
     0
290
     0
174
     0
 93
        1
 44
0.0
173
     0
291
     1
 45
0.0
1001
ACAD
1000
AcDbSavedByObjectVersion
1070
     0
  0
VISUALSTYLE
  5
317B2
102
{ACAD_XDICTIONARY
360
3180C
102
}
102
{ACAD_REACTORS
330
317B1
102
}
330
317B1
100
AcDbVisualStyle
  2
Flat
 70
     0
 71
     2
 72
     1
 73
     1
 90
        2
 40
0.6
 41
30.0
 62
     5
 63
     7
 74
     0
 91
        0
 64
     7
 65
   257
 75
     1
175
     1
 42
1.0
 92
        8
 66
     7
 43
1.0
 76
     1
 77
     6
 78
     2
 67
     7
 79
     5
170
     0
171
     0
290
     0
174
     0
 93
       13
 44
0.0
173
     0
291
     1
 45
0.0
1001
ACAD
1000
AcDbSavedByObjectVersion
1070
     0
  0
VISUALSTYLE
  5
317B3
102
{ACAD_XDICTIONARY
360
3180E
102
}
102
{ACAD_REACTORS
330
317B1
102
}
330
317B1
100
AcDbVisualStyle
  2
FlatWithEdges
 70
     1
 71
     2
 72
     1
 73
     1
 90
        2
 40
0.6
 41
30.0
 62
     5
 63
     7
 74
     1
 91
        0
 64
     7
 65
   257
 75
     1
175
     1
 42
1.0
 92
        0
 66
   257
 43
1.0
 76
     1
 77
     6
 78
     2
 67
     7
 79
     5
170
     0
171
     0
290
     0
174
     0
 93
       13
 44
0.0
173
     0
291
     1
 45
0.0
1001
ACAD
1000
AcDbSavedByObjectVersion
1070
     0
  0
VISUALSTYLE
  5
317B4
102
{ACAD_XDICTIONARY
360
31810
102
}
102
{ACAD_REACTORS
330
317B1
102
}
330
317B1
100
AcDbVisualStyle
  2
Gouraud
 70
     2
 71
     2
 72
     2
 73
     1
 90
        2
 40
0.6
 41
30.0
 62
     5
 63
     7
 74
     0
 91
        0
 64
     7
 65
   257
 75
     1
175
     1
 42
1.0
 92
        0
 66
     7
 43
1.0
 76
     1
 77
     6
 78
     2
 67
     7
 79
     5
170
     0
171
     0
290
     0
174
     0
 93
       13
 44
0.0
173
     0
291
     1
 45
0.0
1001
ACAD
1000
AcDbSavedByObjectVersion
1070
     0
  0
VISUALSTYLE
  5
317B5
102
{ACAD_XDICTIONARY
360
31812
102
}
102
{ACAD_REACTORS
330
317B1
102
}
330
317B1
100
AcDbVisualStyle
  2
GouraudWithEdges
 70
     3
 71
     2
 72
     2
 73
     1
 90
        2
 40
0.6
 41
30.0
 62
     5
 63
     7
 74
     1
 91
        0
 64
     7
 65
   257
 75
     1
175
     1
 42
1.0
 92
        0
 66
   257
 43
1.0
 76
     1
 77
     6
 78
     2
 67
     7
 79
     5
170
     0
171
     0
290
     0
174
     0
 93
       13
 44
0.0
173
     0
291
     1
 45
0.0
1001
ACAD
1000
AcDbSavedByObjectVersion
1070
     0
  0
VISUALSTYLE
  5
317B8
102
{ACAD_XDICTIONARY
360
31814
102
}
102
{ACAD_REACTORS
330
317B1
102
}
330
317B1
100
AcDbVisualStyle
  2
Hidden
 70
     6
 71
     1
 72
     2
 73
     2
 90
        0
 40
0.6
 41
30.0
 62
     5
 63
     7
 74
     2
 91
        2
 64
     7
 65
   257
 75
     2
175
     1
 42
40.0
 92
        0
 66
   257
 43
1.0
 76
     1
 77
     6
 78
     2
 67
     7
 79
     3
170
     0
171
     0
290
     0
174
     0
 93
        1
 44
0.0
173
     0
291
     0
 45
0.0
1001
ACAD
1000
AcDbSavedByObjectVersion
1070
     0
  0
VISUALSTYLE
  5
317C2
102
{ACAD_XDICTIONARY
360
31816
102
}
102
{ACAD_REACTORS
330
317B1
102
}
330
317B1
100
AcDbVisualStyle
  2
JitterOff
 70
    20
 71
     2
 72
     2
 73
     0
 90
        0
 40
0.6
 41
30.0
 62
     5
 63
     7
 74
     1
 91
        4
 64
     7
 65
   257
 75
     1
175
     1
 42
1.0
 92
       10
 66
     7
 43
1.0
 76
     1
 77
     6
 78
     2
 67
     7
 79
     5
170
     0
171
     0
290
     0
174
     0
 93
        1
 44
0.0
173
     0
291
     1
 45
0.0
1001
ACAD
1000
AcDbSavedByObjectVersion
1070
     0
  0
VISUALSTYLE
  5
317BF
102
{ACAD_XDICTIONARY
360
31818
102
}
102
{ACAD_REACTORS
330
317B1
102
}
330
317B1
100
AcDbVisualStyle
  2
Linepattern
 70
    14
 71
     2
 72
     2
 73
     0
 90
        0
 40
0.6
 41
30.0
 62
     5
 63
     7
 74
     1
 91
        4
 64
     7
 65
   257
 75
     7
175
     7
 42
1.0
 92
        8
 66
     7
 43
1.0
 76
     1
 77
     6
 78
     2
 67
     7
 79
     5
170
     0
171
     0
290
     0
174
     0
 93
        1
 44
0.0
173
     0
291
     1
 45
0.0
1001
ACAD
1000
AcDbSavedByObjectVersion
1070
     0
  0
VISUALSTYLE
  5
317C3
102
{ACAD_XDICTIONARY
360
3181A
102
}
102
{ACAD_REACTORS
330
317B1
102
}
330
317B1
100
AcDbVisualStyle
  2
OverhangOff
 70
    21
 71
     2
 72
     2
 73
     0
 90
        0
 40
0.6
 41
30.0
 62
     5
 63
     7
 74
     1
 91
        4
 64
     7
 65
   257
 75
     1
175
     1
 42
1.0
 92
        9
 66
     7
 43
1.0
 76
     1
 77
     6
 78
     2
 67
     7
 79
     5
170
     0
171
     0
290
     0
174
     0
 93
        1
 44
0.0
173
     0
291
     1
 45
0.0
1001
ACAD
1000
AcDbSavedByObjectVersion
1070
     0
  0
VISUALSTYLE
  5
317BA
102
{ACAD_XDICTIONARY
360
3181C
102
}
102
{ACAD_REACTORS
330
317B1
102
}
330
317B1
100
AcDbVisualStyle
  2
Realistic
 70
     8
 71
     2
 72
     3
 73
     0
 90
        2
 40
0.6
 41
30.0
 62
     5
 63
     7
 74
     0
 91
        0
 64
     7
 65
   257
 75
     1
175
     1
 42
1.0
 92
        8
 66
   257
 43
1.0
 76
     1
 77
     6
 78
     2
 67
     7
 79
     3
170
     0
171
     0
290
     0
174
     0
 93
       13
 44
0.0
173
     0
291
     0
 45
0.0
1001
ACAD
1000
AcDbSavedByObjectVersion
1070
     0
  0
VISUALSTYLE
  5
317C9
102
{ACAD_XDICTIONARY
360
3181E
102
}
102
{ACAD_REACTORS
330
317B1
102
}
330
317B1
100
AcDbVisualStyle
  2
Shaded
 70
    27
 71
     2
 72
     2
 73
     1
 90
        2
 40
0.6
 41
30.0
 62
     5
 63
     7
 74
     0
 91
        4
 64
     7
 65
   257
 75
     1
175
     1
 42
1.0
 92
        8
 66
   257
 43
1.0
 76
     1
 77
     6
 78
     2
 67
     8
 79
     3
170
     0
171
     0
290
     0
174
     0
 93
        5
 44
0.0
173
     0
291
     0
 45
0.0
1001
ACAD
1000
AcDbSavedByObjectVersion
1070
     0
  0
VISUALSTYLE
  5
317C8
102
{ACAD_XDICTIONARY
360
31820
102
}
102
{ACAD_REACTORS
330
317B1
102
}
330
317B1
100
AcDbVisualStyle
  2
Shaded with edges
 70
    26
 71
     2
 72
     2
 73
     1
 90
        2
 40
0.6
 41
30.0
 62
     5
 63
     7
 74
     1
 91
       10
 64
     7
 65
   257
 75
     2
175
     1
 42
1.0
 92
        8
 66
   257
 43
1.0
 76
     1
 77
     6
 78
     2
 67
     7
 79
     3
170
     0
171
     0
290
     0
174
     0
 93
        5
 44
0.0
173
     0
291
     0
 45
0.0
1001
ACAD
1000
AcDbSavedByObjectVersion
1070
     0
  0
VISUALSTYLE
  5
317C5
102
{ACAD_XDICTIONARY
360
31822
102
}
102
{ACAD_REACTORS
330
317B1
102
}
330
317B1
100
AcDbVisualStyle
  2
Shades of Gray
 70
    23
 71
     2
 72
     2
 73
     3
 90
        0
 40
0.6
 41
30.0
 62
     5
 63
     7
 74
     2
 91
        2
 64
     7
 65
     7
 75
     1
175
     1
 42
40.0
 92
        8
 66
     7
 43
1.0
 76
     1
 77
     6
 78
     2
 67
     7
 79
     3
170
     0
171
     0
290
     0
174
     0
 93
        1
 44
0.0
173
     0
291
     0
 45
0.0
1001
ACAD
1000
AcDbSavedByObjectVersion
1070
     0
  0
VISUALSTYLE
  5
317C6
102
{ACAD_XDICTIONARY
360
31824
102
}
102
{ACAD_REACTORS
330
317B1
102
}
330
317B1
100
AcDbVisualStyle
  2
Sketchy
 70
    24
 71
     1
 72
     2
 73
     2
 90
        0
 40
0.6
 41
30.0
 62
     5
 63
     7
 74
     2
 91
        2
 64
     7
 65
     7
 75
     1
175
     1
 42
40.0
 92
       11
 66
     7
 43
1.0
 76
     1
 77
     6
 78
     2
 67
     7
 79
     6
170
     0
171
     0
290
     0
174
     0
 93
        1
 44
0.0
173
     0
291
     0
 45
0.0
1001
ACAD
1000
AcDbSavedByObjectVersion
1070
     0
  0
VISUALSTYLE
  5
317BE
102
{ACAD_XDICTIONARY
360
31826
102
}
102
{ACAD_REACTORS
330
317B1
102
}
330
317B1
100
AcDbVisualStyle
  2
Thicken
 70
    13
 71
     2
 72
     2
 73
     0
 90
        0
 40
0.6
 41
30.0
 62
     5
 63
     7
 74
     1
 91
        4
 64
     7
 65
   257
 75
     1
175
     1
 42
1.0
 92
       12
 66
     7
 43
1.0
 76
     1
 77
     6
 78
     2
 67
     7
 79
     5
170
     0
171
     0
290
     0
174
     0
 93
        1
 44
0.0
173
     0
291
     1
 45
0.0
1001
ACAD
1000
AcDbSavedByObjectVersion
1070
     0
  0
VISUALSTYLE
  5
317B7
102
{ACAD_XDICTIONARY
360
31828
102
}
102
{ACAD_REACTORS
330
317B1
102
}
330
317B1
100
AcDbVisualStyle
  2
Wireframe
 70
     5
 71
     0
 72
     2
 73
     0
 90
        0
 40
0.6
 41
30.0
 62
     5
 63
     7
 74
     1
 91
        4
 64
     7
 65
   257
 75
     1
175
     1
 42
1.0
 92
        0
 66
   257
 43
1.0
 76
     1
 77
     6
 78
     2
 67
     7
 79
     3
170
     0
171
     0
290
     0
174
     0
 93
        1
 44
0.0
173
     0
291
     0
 45
0.0
1001
ACAD
1000
AcDbSavedByObjectVersion
1070
     0
  0
VISUALSTYLE
  5
317C7
102
{ACAD_XDICTIONARY
360
3182A
102
}
102
{ACAD_REACTORS
330
317B1
102
}
330
317B1
100
AcDbVisualStyle
  2
X-Ray
 70
    25
 71
     2
 72
     2
 73
     1
 90
        1
 40
0.5
 41
30.0
 62
     5
 63
     7
 74
     1
 91
        0
 64
     7
 65
   257
 75
     1
175
     1
 42
1.0
 92
        8
 66
     7
 43
1.0
 76
     1
 77
     6
 78
     2
 67
     7
 79
     3
170
     0
171
     0
290
     0
174
     0
 93
       13
 44
0.0
173
     0
291
     0
 45
0.0
1001
ACAD
1000
AcDbSavedByObjectVersion
1070
     0
  0
XRECORD
  5
317E2
102
{ACAD_REACTORS
330
317E1
102
}
330
317E1
100
AcDbXrecord
280
     1
340
6C
  0
XRECORD
  5
317E3
102
{ACAD_REACTORS
330
317E1
102
}
330
317E1
100
AcDbXrecord
280
     1
340
6B
  0
DICTIONARYVAR
  5
317E0
102
{ACAD_REACTORS
330
59
102
}
330
59
100
DictionaryVariables
280
     0
  1
1:1
  0
DICTIONARYVAR
  5
317DE
102
{ACAD_REACTORS
330
59
102
}
330
59
100
DictionaryVariables
280
     0
  1
Standard
  0
DICTIONARYVAR
  5
28CB
102
{ACAD_REACTORS
330
59
102
}
330
59
100
DictionaryVariables
280
     0
  1
Standard
  0
DICTIONARYVAR
  5
9A
102
{ACAD_REACTORS
330
59
102
}
330
59
100
DictionaryVariables
280
     0
  1
2
  0
DICTIONARYVAR
  5
28CC
102
{ACAD_REACTORS
330
59
102
}
330
59
100
DictionaryVariables
280
     0
  1
1
  0
DICTIONARYVAR
  5
317DF
102
{ACAD_REACTORS
330
59
102
}
330
59
100
DictionaryVariables
280
     0
  1
0
  0
DICTIONARY
  5
317F1
330
317AF
100
AcDbDictionary
280
     1
281
     1
  3
ACAD_XREC_ROUNDTRIP
360
317F2
  0
DICTIONARY
  5
317F3
330
317AE
100
AcDbDictionary
280
     1
281
     1
  3
ACAD_XREC_ROUNDTRIP
360
317F4
  0
DICTIONARY
  5
317F5
330
317B0
100
AcDbDictionary
280
     1
281
     1
  3
ACAD_XREC_ROUNDTRIP
360
317F6
  0
DICTIONARY
  5
317F8
330
317CB
100
AcDbDictionary
280
     1
281
     1
  3
ACAD_XREC_ROUNDTRIP
360
317F9
  0
DICTIONARY
  5
317AC
330
28C9
100
AcDbDictionary
280
     1
281
     1
  3
ACAD_ROUNDTRIP_2008_TABLESTYLE_CELLSTYLEMAP
360
317FB
  3
ACAD_XREC_ROUNDTRIP
360
317FA
  0
DICTIONARY
  5
317FC
330
317B6
100
AcDbDictionary
280
     1
281
     1
  3
ACAD_XREC_ROUNDTRIP
360
317FD
  0
DICTIONARY
  5
317FE
330
317B9
100
AcDbDictionary
280
     1
281
     1
  3
ACAD_XREC_ROUNDTRIP
360
317FF
  0
DICTIONARY
  5
31800
330
317BD
100
AcDbDictionary
280
     1
281
     1
  3
ACAD_XREC_ROUNDTRIP
360
31801
  0
DICTIONARY
  5
31802
330
317C1
100
AcDbDictionary
280
     1
281
     1
  3
ACAD_XREC_ROUNDTRIP
360
31803
  0
DICTIONARY
  5
31804
330
317BB
100
AcDbDictionary
280
     1
281
     1
  3
ACAD_XREC_ROUNDTRIP
360
31805
  0
DICTIONARY
  5
31806
330
317BC
100
AcDbDictionary
280
     1
281
     1
  3
ACAD_XREC_ROUNDTRIP
360
31807
  0
DICTIONARY
  5
31808
330
317C4
100
AcDbDictionary
280
     1
281
     1
  3
ACAD_XREC_ROUNDTRIP
360
31809
  0
DICTIONARY
  5
3180A
330
317C0
100
AcDbDictionary
280
     1
281
     1
  3
ACAD_XREC_ROUNDTRIP
360
3180B
  0
DICTIONARY
  5
3180C
330
317B2
100
AcDbDictionary
280
     1
281
     1
  3
ACAD_XREC_ROUNDTRIP
360
3180D
  0
DICTIONARY
  5
3180E
330
317B3
100
AcDbDictionary
280
     1
281
     1
  3
ACAD_XREC_ROUNDTRIP
360
3180F
  0
DICTIONARY
  5
31810
330
317B4
100
AcDbDictionary
280
     1
281
     1
  3
ACAD_XREC_ROUNDTRIP
360
31811
  0
DICTIONARY
  5
31812
330
317B5
100
AcDbDictionary
280
     1
281
     1
  3
ACAD_XREC_ROUNDTRIP
360
31813
  0
DICTIONARY
  5
31814
330
317B8
100
AcDbDictionary
280
     1
281
     1
  3
ACAD_XREC_ROUNDTRIP
360
31815
  0
DICTIONARY
  5
31816
330
317C2
100
AcDbDictionary
280
     1
281
     1
  3
ACAD_XREC_ROUNDTRIP
360
31817
  0
DICTIONARY
  5
31818
330
317BF
100
AcDbDictionary
280
     1
281
     1
  3
ACAD_XREC_ROUNDTRIP
360
31819
  0
DICTIONARY
  5
3181A
330
317C3
100
AcDbDictionary
280
     1
281
     1
  3
ACAD_XREC_ROUNDTRIP
360
3181B
  0
DICTIONARY
  5
3181C
330
317BA
100
AcDbDictionary
280
     1
281
     1
  3
ACAD_XREC_ROUNDTRIP
360
3181D
  0
DICTIONARY
  5
3181E
330
317C9
100
AcDbDictionary
280
     1
281
     1
  3
ACAD_XREC_ROUNDTRIP
360
3181F
  0
DICTIONARY
  5
31820
330
317C8
100
AcDbDictionary
280
     1
281
     1
  3
ACAD_XREC_ROUNDTRIP
360
31821
  0
DICTIONARY
  5
31822
330
317C5
100
AcDbDictionary
280
     1
281
     1
  3
ACAD_XREC_ROUNDTRIP
360
31823
  0
DICTIONARY
  5
31824
330
317C6
100
AcDbDictionary
280
     1
281
     1
  3
ACAD_XREC_ROUNDTRIP
360
31825
  0
DICTIONARY
  5
31826
330
317BE
100
AcDbDictionary
280
     1
281
     1
  3
ACAD_XREC_ROUNDTRIP
360
31827
  0
DICTIONARY
  5
31828
330
317B7
100
AcDbDictionary
280
     1
281
     1
  3
ACAD_XREC_ROUNDTRIP
360
31829
  0
DICTIONARY
  5
3182A
330
317C7
100
AcDbDictionary
280
     1
281
     1
  3
ACAD_XREC_ROUNDTRIP
360
3182B
  0
XRECORD
  5
317F2
102
{ACAD_REACTORS
330
317F1
102
}
330
317F1
100
AcDbXrecord
280
     1
102
MATERIAL
148
0.0
149
0.0
149
0.0
 93
        0
 94
      127
282
     0
 72
     0
 77
     0
171
     0
175
     0
179
     0
273
     0
  0
XRECORD
  5
317F4
102
{ACAD_REACTORS
330
317F3
102
}
330
317F3
100
AcDbXrecord
280
     1
102
MATERIAL
148
0.0
149
0.0
149
0.0
 93
        0
 94
      127
282
     0
 72
     0
 77
     0
171
     0
175
     0
179
     0
273
     0
  0
XRECORD
  5
317F6
102
{ACAD_REACTORS
330
317F5
102
}
330
317F5
100
AcDbXrecord
280
     1
102
MATERIAL
148
0.0
149
0.0
149
0.0
 93
        0
 94
      127
282
     0
 72
     0
 77
     0
171
     0
175
     0
179
     0
273
     0
  0
XRECORD
  5
317F9
102
{ACAD_REACTORS
330
317F8
102
}
330
317F8
100
AcDbXrecord
280
     1
102
ACAD_ROUNDTRIP_2010_MLEADER_STYLE
  0
CELLSTYLEMAP
  5
317FB
102
{ACAD_REACTORS
330
317AC
102
}
330
317AC
100
AcDbCellStyleMap
 90
        3
300
CELLSTYLE
  1
TABLEFORMAT_BEGIN
 90
        5
170
     1
 91
        0
 92
    32768
 62
   257
 93
        1
300
CONTENTFORMAT
  1
CONTENTFORMAT_BEGIN
 90
        0
 91
        0
 92
      512
 93
        0
300

 40
0.0
140
1.0
 94
        5
 62
     0
340
0
144
0.25
309
CONTENTFORMAT_END
171
     1
301
MARGIN
  1
CELLMARGIN_BEGIN
 40
0.06
 40
0.06
 40
0.06
 40
0.06
 40
0.06
 40
0.06
309
CELLMARGIN_END
 94
        6
 95
        1
302
GRIDFORMAT
  1
GRIDFORMAT_BEGIN
 90
        0
 91
        1
 62
     0
 92
       -2
340
0
 93
        0
 40
0.045
309
GRIDFORMAT_END
 95
        2
302
GRIDFORMAT
  1
GRIDFORMAT_BEGIN
 90
        0
 91
        1
 62
     0
 92
       -2
340
0
 93
        0
 40
0.045
309
GRIDFORMAT_END
 95
        4
302
GRIDFORMAT
  1
GRIDFORMAT_BEGIN
 90
        0
 91
        1
 62
     0
 92
       -2
340
0
 93
        0
 40
0.045
309
GRIDFORMAT_END
 95
        8
302
GRIDFORMAT
  1
GRIDFORMAT_BEGIN
 90
        0
 91
        1
 62
     0
 92
       -2
340
0
 93
        0
 40
0.045
309
GRIDFORMAT_END
 95
       16
302
GRIDFORMAT
  1
GRIDFORMAT_BEGIN
 90
        0
 91
        1
 62
     0
 92
       -2
340
0
 93
        0
 40
0.045
309
GRIDFORMAT_END
 95
       32
302
GRIDFORMAT
  1
GRIDFORMAT_BEGIN
 90
        0
 91
        1
 62
     0
 92
       -2
340
0
 93
        0
 40
0.045
309
GRIDFORMAT_END
309
TABLEFORMAT_END
  1
CELLSTYLE_BEGIN
 90
        1
 91
        1
300
_TITLE
309
CELLSTYLE_END
300
CELLSTYLE
  1
TABLEFORMAT_BEGIN
 90
        5
170
     1
 91
        0
 92
        0
 62
   257
 93
        1
300
CONTENTFORMAT
  1
CONTENTFORMAT_BEGIN
 90
        0
 91
        0
 92
      512
 93
        0
300

 40
0.0
140
1.0
 94
        5
 62
     0
340
0
144
0.18
309
CONTENTFORMAT_END
171
     1
301
MARGIN
  1
CELLMARGIN_BEGIN
 40
0.06
 40
0.06
 40
0.06
 40
0.06
 40
0.06
 40
0.06
309
CELLMARGIN_END
 94
        6
 95
        1
302
GRIDFORMAT
  1
GRIDFORMAT_BEGIN
 90
        0
 91
        1
 62
     0
 92
       -2
340
0
 93
        0
 40
0.045
309
GRIDFORMAT_END
 95
        2
302
GRIDFORMAT
  1
GRIDFORMAT_BEGIN
 90
        0
 91
        1
 62
     0
 92
       -2
340
0
 93
        0
 40
0.045
309
GRIDFORMAT_END
 95
        4
302
GRIDFORMAT
  1
GRIDFORMAT_BEGIN
 90
        0
 91
        1
 62
     0
 92
       -2
340
0
 93
        0
 40
0.045
309
GRIDFORMAT_END
 95
        8
302
GRIDFORMAT
  1
GRIDFORMAT_BEGIN
 90
        0
 91
        1
 62
     0
 92
       -2
340
0
 93
        0
 40
0.045
309
GRIDFORMAT_END
 95
       16
302
GRIDFORMAT
  1
GRIDFORMAT_BEGIN
 90
        0
 91
        1
 62
     0
 92
       -2
340
0
 93
        0
 40
0.045
309
GRIDFORMAT_END
 95
       32
302
GRIDFORMAT
  1
GRIDFORMAT_BEGIN
 90
        0
 91
        1
 62
     0
 92
       -2
340
0
 93
        0
 40
0.045
309
GRIDFORMAT_END
309
TABLEFORMAT_END
  1
CELLSTYLE_BEGIN
 90
        2
 91
        1
300
_HEADER
309
CELLSTYLE_END
300
CELLSTYLE
  1
TABLEFORMAT_BEGIN
 90
        5
170
     1
 91
        0
 92
        0
 62
   257
 93
        1
300
CONTENTFORMAT
  1
CONTENTFORMAT_BEGIN
 90
        0
 91
        0
 92
      512
 93
        0
300

 40
0.0
140
1.0
 94
        2
 62
     0
340
0
144
0.18
309
CONTENTFORMAT_END
171
     1
301
MARGIN
  1
CELLMARGIN_BEGIN
 40
0.06
 40
0.06
 40
0.06
 40
0.06
 40
0.06
 40
0.06
309
CELLMARGIN_END
 94
        6
 95
        1
302
GRIDFORMAT
  1
GRIDFORMAT_BEGIN
 90
        0
 91
        1
 62
     0
 92
       -2
340
0
 93
        0
 40
0.045
309
GRIDFORMAT_END
 95
        2
302
GRIDFORMAT
  1
GRIDFORMAT_BEGIN
 90
        0
 91
        1
 62
     0
 92
       -2
340
0
 93
        0
 40
0.045
309
GRIDFORMAT_END
 95
        4
302
GRIDFORMAT
  1
GRIDFORMAT_BEGIN
 90
        0
 91
        1
 62
     0
 92
       -2
340
0
 93
        0
 40
0.045
309
GRIDFORMAT_END
 95
        8
302
GRIDFORMAT
  1
GRIDFORMAT_BEGIN
 90
        0
 91
        1
 62
     0
 92
       -2
340
0
 93
        0
 40
0.045
309
GRIDFORMAT_END
 95
       16
302
GRIDFORMAT
  1
GRIDFORMAT_BEGIN
 90
        0
 91
        1
 62
     0
 92
       -2
340
0
 93
        0
 40
0.045
309
GRIDFORMAT_END
 95
       32
302
GRIDFORMAT
  1
GRIDFORMAT_BEGIN
 90
        0
 91
        1
 62
     0
 92
       -2
340
0
 93
        0
 40
0.045
309
GRIDFORMAT_END
309
TABLEFORMAT_END
  1
CELLSTYLE_BEGIN
 90
        3
 91
        2
300
_DATA
309
CELLSTYLE_END
  0
XRECORD
  5
317FA
102
{ACAD_REACTORS
330
317AC
102
}
330
317AC
100
AcDbXrecord
280
     1
102
ACAD_ROUNDTRIP_PRE2007_TABLESTYLE
 90
      512
 91
        0
  1

 92
      512
 93
        0
  2

 94
      512
 95
        0
  3

  0
XRECORD
  5
317FD
102
{ACAD_REACTORS
330
317FC
102
}
330
317FC
100
AcDbXrecord
280
     1
102
RTVSPropertyOp0
 70
     1
102
RTVSPropertyOp1
 70
     1
102
RTVSPropertyOp2
 70
     1
102
RTVSPropertyOp3
 70
     1
102
RTVSPropertyOp4
 70
     1
102
RTVSPropertyOp5
 70
     1
102
RTVSPropertyOp6
 70
     1
102
RTVSPropertyOp7
 70
     1
102
RTVSPropertyOp8
 70
     1
102
RTVSPropertyOp9
 70
     1
102
RTVSPropertyOp10
 70
     1
102
RTVSPropertyOp11
 70
     1
102
RTVSPropertyOp12
 70
     1
102
RTVSPropertyOp13
 70
     1
102
RTVSPropertyOp14
 70
     1
102
RTVSPropertyOp15
 70
     1
102
RTVSPropertyOp16
 70
     1
102
RTVSPropertyOp17
 70
     1
102
RTVSPropertyOp18
 70
     1
102
RTVSPropertyOp19
 70
     1
102
RTVSPropertyOp20
 70
     1
102
RTVSPropertyOp21
 70
     1
102
RTVSPropertyOp22
 70
     1
102
RTVSPropertyOp23
 70
     1
102
RTVSPropertyOp24
 70
     1
102
RTVSPropertyOp25
 70
     1
102
RTVSPropertyOp26
 70
     1
102
RTVSPropertyOp27
 70
     1
102
RTVSPropertyOp28
 70
     1
102
RTVSPropertyOp29
 70
     1
102
RTVSPropertyOp30
 70
     1
102
RTVSPropertyOp31
 70
     1
102
RTVSPropertyOp32
 70
     1
102
RTVSPropertyOp33
 70
     1
102
RTVSPropertyOp34
 70
     1
102
RTVSPropertyOp35
 70
     1
102
RTVSPropertyOp36
 70
     1
102
RTVSPropertyOp37
 70
     1
102
RTVSPropertyOp38
 70
     1
102
RTVSPropertyOp39
 70
     1
102
RTVSPropertyOp40
 70
     1
102
RTVSPropertyOp41
 70
     1
102
RTVSPropertyOp42
 70
     1
102
RTVSPropertyOp43
 70
     1
102
RTVSPropertyOp44
 70
     1
102
RTVSPropertyOp45
 70
     1
102
RTVSPropertyOp46
 70
     1
102
RTVSPropertyOp47
 70
     1
102
RTVSPropertyOp48
 70
     1
102
RTVSPropertyOp49
 70
     1
102
RTVSPropertyOp50
 70
     1
102
RTVSPropertyOp51
 70
     0
102
RTVSPropertyOp52
 70
     0
102
RTVSPropertyOp53
 70
     1
102
RTVSPropertyOp54
 70
     1
102
RTVSPropertyOp55
 70
     1
102
RTVSPropertyOp56
 70
     1
102
RTVSPropertyOp57
 70
     1
102
RTVSPost2010Prop28
280
     1
102
RTVSPost2010PropOp28
 70
     1
102
RTVSPost2010Prop29
280
     1
102
RTVSPost2010PropOp29
 70
     1
102
RTVSPost2010Prop30
280
     0
102
RTVSPost2010PropOp30
 70
     1
102
RTVSPost2010Prop31
280
     0
102
RTVSPost2010PropOp31
 70
     1
102
RTVSPost2010Prop32
280
     0
102
RTVSPost2010PropOp32
 70
     1
102
RTVSPost2010Prop33
280
     0
102
RTVSPost2010PropOp33
 70
     1
102
RTVSPost2010Prop34
280
     0
102
RTVSPost2010PropOp34
 70
     1
102
RTVSPost2010Prop35
280
     0
102
RTVSPost2010PropOp35
 70
     1
102
RTVSPost2010Prop36
280
     0
102
RTVSPost2010PropOp36
 70
     1
102
RTVSPost2010Prop37
 90
       50
102
RTVSPost2010PropOp37
 70
     1
102
RTVSPost2010Prop38
140
0.0
102
RTVSPost2010PropOp38
 70
     1
102
RTVSPost2010Prop39
140
1.0
102
RTVSPost2010PropOp39
 70
     1
102
RTVSPost2010Prop40
 90
        0
102
RTVSPost2010PropOp40
 70
     1
102
RTVSPost2010Prop41ColorIndex
 90
       18
102
RTVSPost2010Prop41ColorRGB
 90
        0
102
RTVSPost2010PropOp41
 70
     1
102
RTVSPost2010Prop42
 90
       50
102
RTVSPost2010PropOp42
 70
     1
102
RTVSPost2010Prop43
 90
        3
102
RTVSPost2010PropOp43
 70
     1
102
RTVSPost2010Prop44ColorIndex
 90
        5
102
RTVSPost2010Prop44ColorRGB
 90
      255
102
RTVSPost2010PropOp44
 70
     1
102
RTVSPost2010Prop45
280
     0
102
RTVSPost2010PropOp45
 70
     1
102
RTVSPost2010Prop46
 90
       50
102
RTVSPost2010PropOp46
 70
     1
102
RTVSPost2010Prop47
 90
       50
102
RTVSPost2010PropOp47
 70
     1
102
RTVSPost2010Prop48
 90
       50
102
RTVSPost2010PropOp48
 70
     1
102
RTVSPost2010Prop49
280
     0
102
RTVSPost2010PropOp49
 70
     1
102
RTVSPost2010Prop50
 90
       50
102
RTVSPost2010PropOp50
 70
     1
102
RTVSPost2010Prop51ColorIndex
 90
      256
102
RTVSPost2010Prop51ColorRGB
 90
-16777216
102
RTVSPost2010PropOp51
 70
     0
102
RTVSPost2010Prop52
140
1.0
102
RTVSPost2010PropOp52
 70
     0
102
RTVSPost2010Prop53
 90
        2
102
RTVSPost2010PropOp53
 70
     1
102
RTVSPost2010Prop54
  1
strokes_ogs.tif
102
RTVSPost2010PropOp54
 70
     1
102
RTVSPost2010Prop55
280
     0
102
RTVSPost2010PropOp55
 70
     1
102
RTVSPost2010Prop56
140
1.0
102
RTVSPost2010PropOp56
 70
     1
102
RTVSPost2010Prop57
140
1.0
102
RTVSPost2010PropOp57
 70
     1
  0
XRECORD
  5
317FF
102
{ACAD_REACTORS
330
317FE
102
}
330
317FE
100
AcDbXrecord
280
     1
102
RTVSPropertyOp0
 70
     1
102
RTVSPropertyOp1
 70
     1
102
RTVSPropertyOp2
 70
     1
102
RTVSPropertyOp3
 70
     1
102
RTVSPropertyOp4
 70
     1
102
RTVSPropertyOp5
 70
     1
102
RTVSPropertyOp6
 70
     1
102
RTVSPropertyOp7
 70
     1
102
RTVSPropertyOp8
 70
     1
102
RTVSPropertyOp9
 70
     1
102
RTVSPropertyOp10
 70
     1
102
RTVSPropertyOp11
 70
     1
102
RTVSPropertyOp12
 70
     1
102
RTVSPropertyOp13
 70
     1
102
RTVSPropertyOp14
 70
     1
102
RTVSPropertyOp15
 70
     1
102
RTVSPropertyOp16
 70
     1
102
RTVSPropertyOp17
 70
     1
102
RTVSPropertyOp18
 70
     1
102
RTVSPropertyOp19
 70
     1
102
RTVSPropertyOp20
 70
     1
102
RTVSPropertyOp21
 70
     1
102
RTVSPropertyOp22
 70
     1
102
RTVSPropertyOp23
 70
     1
102
RTVSPropertyOp24
 70
     1
102
RTVSPropertyOp25
 70
     1
102
RTVSPropertyOp26
 70
     1
102
RTVSPropertyOp27
 70
     1
102
RTVSPropertyOp28
 70
     1
102
RTVSPropertyOp29
 70
     1
102
RTVSPropertyOp30
 70
     1
102
RTVSPropertyOp31
 70
     1
102
RTVSPropertyOp32
 70
     1
102
RTVSPropertyOp33
 70
     1
102
RTVSPropertyOp34
 70
     1
102
RTVSPropertyOp35
 70
     1
102
RTVSPropertyOp36
 70
     1
102
RTVSPropertyOp37
 70
     1
102
RTVSPropertyOp38
 70
     1
102
RTVSPropertyOp39
 70
     1
102
RTVSPropertyOp40
 70
     1
102
RTVSPropertyOp41
 70
     1
102
RTVSPropertyOp42
 70
     1
102
RTVSPropertyOp43
 70
     1
102
RTVSPropertyOp44
 70
     1
102
RTVSPropertyOp45
 70
     1
102
RTVSPropertyOp46
 70
     1
102
RTVSPropertyOp47
 70
     1
102
RTVSPropertyOp48
 70
     1
102
RTVSPropertyOp49
 70
     1
102
RTVSPropertyOp50
 70
     1
102
RTVSPropertyOp51
 70
     0
102
RTVSPropertyOp52
 70
     0
102
RTVSPropertyOp53
 70
     1
102
RTVSPropertyOp54
 70
     1
102
RTVSPropertyOp55
 70
     1
102
RTVSPropertyOp56
 70
     1
102
RTVSPropertyOp57
 70
     1
102
RTVSPost2010Prop28
280
     0
102
RTVSPost2010PropOp28
 70
     1
102
RTVSPost2010Prop29
280
     1
102
RTVSPost2010PropOp29
 70
     1
102
RTVSPost2010Prop30
280
     1
102
RTVSPost2010PropOp30
 70
     1
102
RTVSPost2010Prop31
280
     0
102
RTVSPost2010PropOp31
 70
     1
102
RTVSPost2010Prop32
280
     0
102
RTVSPost2010PropOp32
 70
     1
102
RTVSPost2010Prop33
280
     0
102
RTVSPost2010PropOp33
 70
     1
102
RTVSPost2010Prop34
280
     0
102
RTVSPost2010PropOp34
 70
     1
102
RTVSPost2010Prop35
280
     0
102
RTVSPost2010PropOp35
 70
     1
102
RTVSPost2010Prop36
280
     0
102
RTVSPost2010PropOp36
 70
     1
102
RTVSPost2010Prop37
 90
       50
102
RTVSPost2010PropOp37
 70
     1
102
RTVSPost2010Prop38
140
0.0
102
RTVSPost2010PropOp38
 70
     1
102
RTVSPost2010Prop39
140
1.0
102
RTVSPost2010PropOp39
 70
     1
102
RTVSPost2010Prop40
 90
        0
102
RTVSPost2010PropOp40
 70
     1
102
RTVSPost2010Prop41ColorIndex
 90
       18
102
RTVSPost2010Prop41ColorRGB
 90
        0
102
RTVSPost2010PropOp41
 70
     1
102
RTVSPost2010Prop42
 90
       50
102
RTVSPost2010PropOp42
 70
     1
102
RTVSPost2010Prop43
 90
        3
102
RTVSPost2010PropOp43
 70
     1
102
RTVSPost2010Prop44ColorIndex
 90
        5
102
RTVSPost2010Prop44ColorRGB
 90
      255
102
RTVSPost2010PropOp44
 70
     1
102
RTVSPost2010Prop45
280
     0
102
RTVSPost2010PropOp45
 70
     1
102
RTVSPost2010Prop46
 90
       50
102
RTVSPost2010PropOp46
 70
     1
102
RTVSPost2010Prop47
 90
       50
102
RTVSPost2010PropOp47
 70
     1
102
RTVSPost2010Prop48
 90
       50
102
RTVSPost2010PropOp48
 70
     1
102
RTVSPost2010Prop49
280
     0
102
RTVSPost2010PropOp49
 70
     1
102
RTVSPost2010Prop50
 90
       50
102
RTVSPost2010PropOp50
 70
     1
102
RTVSPost2010Prop51ColorIndex
 90
      256
102
RTVSPost2010Prop51ColorRGB
 90
-16777216
102
RTVSPost2010PropOp51
 70
     0
102
RTVSPost2010Prop52
140
1.0
102
RTVSPost2010PropOp52
 70
     0
102
RTVSPost2010Prop53
 90
        2
102
RTVSPost2010PropOp53
 70
     1
102
RTVSPost2010Prop54
  1
strokes_ogs.tif
102
RTVSPost2010PropOp54
 70
     1
102
RTVSPost2010Prop55
280
     0
102
RTVSPost2010PropOp55
 70
     1
102
RTVSPost2010Prop56
140
1.0
102
RTVSPost2010PropOp56
 70
     1
102
RTVSPost2010Prop57
140
1.0
102
RTVSPost2010PropOp57
 70
     1
  0
XRECORD
  5
31801
102
{ACAD_REACTORS
330
31800
102
}
330
31800
100
AcDbXrecord
280
     1
102
RTVSPropertyOp0
 70
     1
102
RTVSPropertyOp1
 70
     1
102
RTVSPropertyOp2
 70
     1
102
RTVSPropertyOp3
 70
     1
102
RTVSPropertyOp4
 70
     1
102
RTVSPropertyOp5
 70
     1
102
RTVSPropertyOp6
 70
     1
102
RTVSPropertyOp7
 70
     1
102
RTVSPropertyOp8
 70
     1
102
RTVSPropertyOp9
 70
     1
102
RTVSPropertyOp10
 70
     1
102
RTVSPropertyOp11
 70
     1
102
RTVSPropertyOp12
 70
     1
102
RTVSPropertyOp13
 70
     1
102
RTVSPropertyOp14
 70
     1
102
RTVSPropertyOp15
 70
     1
102
RTVSPropertyOp16
 70
     1
102
RTVSPropertyOp17
 70
     1
102
RTVSPropertyOp18
 70
     1
102
RTVSPropertyOp19
 70
     1
102
RTVSPropertyOp20
 70
     1
102
RTVSPropertyOp21
 70
     1
102
RTVSPropertyOp22
 70
     1
102
RTVSPropertyOp23
 70
     1
102
RTVSPropertyOp24
 70
     1
102
RTVSPropertyOp25
 70
     1
102
RTVSPropertyOp26
 70
     1
102
RTVSPropertyOp27
 70
     1
102
RTVSPropertyOp28
 70
     1
102
RTVSPropertyOp29
 70
     1
102
RTVSPropertyOp30
 70
     1
102
RTVSPropertyOp31
 70
     1
102
RTVSPropertyOp32
 70
     1
102
RTVSPropertyOp33
 70
     1
102
RTVSPropertyOp34
 70
     1
102
RTVSPropertyOp35
 70
     1
102
RTVSPropertyOp36
 70
     1
102
RTVSPropertyOp37
 70
     1
102
RTVSPropertyOp38
 70
     1
102
RTVSPropertyOp39
 70
     1
102
RTVSPropertyOp40
 70
     1
102
RTVSPropertyOp41
 70
     1
102
RTVSPropertyOp42
 70
     1
102
RTVSPropertyOp43
 70
     1
102
RTVSPropertyOp44
 70
     1
102
RTVSPropertyOp45
 70
     1
102
RTVSPropertyOp46
 70
     1
102
RTVSPropertyOp47
 70
     1
102
RTVSPropertyOp48
 70
     1
102
RTVSPropertyOp49
 70
     1
102
RTVSPropertyOp50
 70
     1
102
RTVSPropertyOp51
 70
     0
102
RTVSPropertyOp52
 70
     0
102
RTVSPropertyOp53
 70
     1
102
RTVSPropertyOp54
 70
     1
102
RTVSPropertyOp55
 70
     1
102
RTVSPropertyOp56
 70
     1
102
RTVSPropertyOp57
 70
     1
102
RTVSPost2010Prop28
280
     0
102
RTVSPost2010PropOp28
 70
     1
102
RTVSPost2010Prop29
280
     1
102
RTVSPost2010PropOp29
 70
     1
102
RTVSPost2010Prop30
280
     1
102
RTVSPost2010PropOp30
 70
     1
102
RTVSPost2010Prop31
280
     0
102
RTVSPost2010PropOp31
 70
     1
102
RTVSPost2010Prop32
280
     0
102
RTVSPost2010PropOp32
 70
     1
102
RTVSPost2010Prop33
280
     0
102
RTVSPost2010PropOp33
 70
     1
102
RTVSPost2010Prop34
280
     0
102
RTVSPost2010PropOp34
 70
     1
102
RTVSPost2010Prop35
280
     0
102
RTVSPost2010PropOp35
 70
     1
102
RTVSPost2010Prop36
280
     0
102
RTVSPost2010PropOp36
 70
     1
102
RTVSPost2010Prop37
 90
       50
102
RTVSPost2010PropOp37
 70
     1
102
RTVSPost2010Prop38
140
0.0
102
RTVSPost2010PropOp38
 70
     1
102
RTVSPost2010Prop39
140
1.0
102
RTVSPost2010PropOp39
 70
     1
102
RTVSPost2010Prop40
 90
        0
102
RTVSPost2010PropOp40
 70
     1
102
RTVSPost2010Prop41ColorIndex
 90
       18
102
RTVSPost2010Prop41ColorRGB
 90
        0
102
RTVSPost2010PropOp41
 70
     1
102
RTVSPost2010Prop42
 90
       50
102
RTVSPost2010PropOp42
 70
     1
102
RTVSPost2010Prop43
 90
        3
102
RTVSPost2010PropOp43
 70
     1
102
RTVSPost2010Prop44ColorIndex
 90
        5
102
RTVSPost2010Prop44ColorRGB
 90
      255
102
RTVSPost2010PropOp44
 70
     1
102
RTVSPost2010Prop45
280
     0
102
RTVSPost2010PropOp45
 70
     1
102
RTVSPost2010Prop46
 90
       50
102
RTVSPost2010PropOp46
 70
     1
102
RTVSPost2010Prop47
 90
       50
102
RTVSPost2010PropOp47
 70
     1
102
RTVSPost2010Prop48
 90
       50
102
RTVSPost2010PropOp48
 70
     1
102
RTVSPost2010Prop49
280
     0
102
RTVSPost2010PropOp49
 70
     1
102
RTVSPost2010Prop50
 90
       50
102
RTVSPost2010PropOp50
 70
     1
102
RTVSPost2010Prop51ColorIndex
 90
      256
102
RTVSPost2010Prop51ColorRGB
 90
-16777216
102
RTVSPost2010PropOp51
 70
     0
102
RTVSPost2010Prop52
140
1.0
102
RTVSPost2010PropOp52
 70
     0
102
RTVSPost2010Prop53
 90
        2
102
RTVSPost2010PropOp53
 70
     1
102
RTVSPost2010Prop54
  1
strokes_ogs.tif
102
RTVSPost2010PropOp54
 70
     1
102
RTVSPost2010Prop55
280
     0
102
RTVSPost2010PropOp55
 70
     1
102
RTVSPost2010Prop56
140
1.0
102
RTVSPost2010PropOp56
 70
     1
102
RTVSPost2010Prop57
140
1.0
102
RTVSPost2010PropOp57
 70
     1
  0
XRECORD
  5
31803
102
{ACAD_REACTORS
330
31802
102
}
330
31802
100
AcDbXrecord
280
     1
102
RTVSPropertyOp0
 70
     1
102
RTVSPropertyOp1
 70
     1
102
RTVSPropertyOp2
 70
     1
102
RTVSPropertyOp3
 70
     1
102
RTVSPropertyOp4
 70
     1
102
RTVSPropertyOp5
 70
     1
102
RTVSPropertyOp6
 70
     1
102
RTVSPropertyOp7
 70
     1
102
RTVSPropertyOp8
 70
     1
102
RTVSPropertyOp9
 70
     1
102
RTVSPropertyOp10
 70
     1
102
RTVSPropertyOp11
 70
     1
102
RTVSPropertyOp12
 70
     1
102
RTVSPropertyOp13
 70
     1
102
RTVSPropertyOp14
 70
     1
102
RTVSPropertyOp15
 70
     1
102
RTVSPropertyOp16
 70
     1
102
RTVSPropertyOp17
 70
     1
102
RTVSPropertyOp18
 70
     1
102
RTVSPropertyOp19
 70
     1
102
RTVSPropertyOp20
 70
     1
102
RTVSPropertyOp21
 70
     1
102
RTVSPropertyOp22
 70
     1
102
RTVSPropertyOp23
 70
     1
102
RTVSPropertyOp24
 70
     1
102
RTVSPropertyOp25
 70
     1
102
RTVSPropertyOp26
 70
     1
102
RTVSPropertyOp27
 70
     1
102
RTVSPropertyOp28
 70
     1
102
RTVSPropertyOp29
 70
     1
102
RTVSPropertyOp30
 70
     1
102
RTVSPropertyOp31
 70
     1
102
RTVSPropertyOp32
 70
     1
102
RTVSPropertyOp33
 70
     1
102
RTVSPropertyOp34
 70
     1
102
RTVSPropertyOp35
 70
     1
102
RTVSPropertyOp36
 70
     1
102
RTVSPropertyOp37
 70
     1
102
RTVSPropertyOp38
 70
     1
102
RTVSPropertyOp39
 70
     1
102
RTVSPropertyOp40
 70
     1
102
RTVSPropertyOp41
 70
     1
102
RTVSPropertyOp42
 70
     1
102
RTVSPropertyOp43
 70
     1
102
RTVSPropertyOp44
 70
     1
102
RTVSPropertyOp45
 70
     1
102
RTVSPropertyOp46
 70
     1
102
RTVSPropertyOp47
 70
     1
102
RTVSPropertyOp48
 70
     1
102
RTVSPropertyOp49
 70
     1
102
RTVSPropertyOp50
 70
     1
102
RTVSPropertyOp51
 70
     0
102
RTVSPropertyOp52
 70
     0
102
RTVSPropertyOp53
 70
     1
102
RTVSPropertyOp54
 70
     1
102
RTVSPropertyOp55
 70
     1
102
RTVSPropertyOp56
 70
     1
102
RTVSPropertyOp57
 70
     1
102
RTVSPost2010Prop28
280
     0
102
RTVSPost2010PropOp28
 70
     1
102
RTVSPost2010Prop29
280
     1
102
RTVSPost2010PropOp29
 70
     1
102
RTVSPost2010Prop30
280
     1
102
RTVSPost2010PropOp30
 70
     1
102
RTVSPost2010Prop31
280
     0
102
RTVSPost2010PropOp31
 70
     1
102
RTVSPost2010Prop32
280
     0
102
RTVSPost2010PropOp32
 70
     1
102
RTVSPost2010Prop33
280
     0
102
RTVSPost2010PropOp33
 70
     1
102
RTVSPost2010Prop34
280
     0
102
RTVSPost2010PropOp34
 70
     1
102
RTVSPost2010Prop35
280
     0
102
RTVSPost2010PropOp35
 70
     1
102
RTVSPost2010Prop36
280
     0
102
RTVSPost2010PropOp36
 70
     1
102
RTVSPost2010Prop37
 90
       50
102
RTVSPost2010PropOp37
 70
     1
102
RTVSPost2010Prop38
140
0.0
102
RTVSPost2010PropOp38
 70
     1
102
RTVSPost2010Prop39
140
1.0
102
RTVSPost2010PropOp39
 70
     1
102
RTVSPost2010Prop40
 90
        0
102
RTVSPost2010PropOp40
 70
     1
102
RTVSPost2010Prop41ColorIndex
 90
       18
102
RTVSPost2010Prop41ColorRGB
 90
        0
102
RTVSPost2010PropOp41
 70
     1
102
RTVSPost2010Prop42
 90
       50
102
RTVSPost2010PropOp42
 70
     1
102
RTVSPost2010Prop43
 90
        3
102
RTVSPost2010PropOp43
 70
     1
102
RTVSPost2010Prop44ColorIndex
 90
        5
102
RTVSPost2010Prop44ColorRGB
 90
      255
102
RTVSPost2010PropOp44
 70
     1
102
RTVSPost2010Prop45
280
     0
102
RTVSPost2010PropOp45
 70
     1
102
RTVSPost2010Prop46
 90
       50
102
RTVSPost2010PropOp46
 70
     1
102
RTVSPost2010Prop47
 90
       50
102
RTVSPost2010PropOp47
 70
     1
102
RTVSPost2010Prop48
 90
       50
102
RTVSPost2010PropOp48
 70
     1
102
RTVSPost2010Prop49
280
     0
102
RTVSPost2010PropOp49
 70
     1
102
RTVSPost2010Prop50
 90
       50
102
RTVSPost2010PropOp50
 70
     1
102
RTVSPost2010Prop51ColorIndex
 90
      256
102
RTVSPost2010Prop51ColorRGB
 90
-16777216
102
RTVSPost2010PropOp51
 70
     0
102
RTVSPost2010Prop52
140
1.0
102
RTVSPost2010PropOp52
 70
     0
102
RTVSPost2010Prop53
 90
        2
102
RTVSPost2010PropOp53
 70
     1
102
RTVSPost2010Prop54
  1
strokes_ogs.tif
102
RTVSPost2010PropOp54
 70
     1
102
RTVSPost2010Prop55
280
     0
102
RTVSPost2010PropOp55
 70
     1
102
RTVSPost2010Prop56
140
1.0
102
RTVSPost2010PropOp56
 70
     1
102
RTVSPost2010Prop57
140
1.0
102
RTVSPost2010PropOp57
 70
     1
  0
XRECORD
  5
31805
102
{ACAD_REACTORS
330
31804
102
}
330
31804
100
AcDbXrecord
280
     1
102
RTVSPropertyOp0
 70
     1
102
RTVSPropertyOp1
 70
     1
102
RTVSPropertyOp2
 70
     1
102
RTVSPropertyOp3
 70
     1
102
RTVSPropertyOp4
 70
     1
102
RTVSPropertyOp5
 70
     1
102
RTVSPropertyOp6
 70
     1
102
RTVSPropertyOp7
 70
     1
102
RTVSPropertyOp8
 70
     1
102
RTVSPropertyOp9
 70
     1
102
RTVSPropertyOp10
 70
     1
102
RTVSPropertyOp11
 70
     1
102
RTVSPropertyOp12
 70
     1
102
RTVSPropertyOp13
 70
     1
102
RTVSPropertyOp14
 70
     1
102
RTVSPropertyOp15
 70
     1
102
RTVSPropertyOp16
 70
     1
102
RTVSPropertyOp17
 70
     1
102
RTVSPropertyOp18
 70
     1
102
RTVSPropertyOp19
 70
     1
102
RTVSPropertyOp20
 70
     1
102
RTVSPropertyOp21
 70
     1
102
RTVSPropertyOp22
 70
     1
102
RTVSPropertyOp23
 70
     1
102
RTVSPropertyOp24
 70
     1
102
RTVSPropertyOp25
 70
     1
102
RTVSPropertyOp26
 70
     1
102
RTVSPropertyOp27
 70
     1
102
RTVSPropertyOp28
 70
     1
102
RTVSPropertyOp29
 70
     1
102
RTVSPropertyOp30
 70
     1
102
RTVSPropertyOp31
 70
     1
102
RTVSPropertyOp32
 70
     1
102
RTVSPropertyOp33
 70
     1
102
RTVSPropertyOp34
 70
     1
102
RTVSPropertyOp35
 70
     1
102
RTVSPropertyOp36
 70
     1
102
RTVSPropertyOp37
 70
     1
102
RTVSPropertyOp38
 70
     1
102
RTVSPropertyOp39
 70
     1
102
RTVSPropertyOp40
 70
     1
102
RTVSPropertyOp41
 70
     1
102
RTVSPropertyOp42
 70
     1
102
RTVSPropertyOp43
 70
     1
102
RTVSPropertyOp44
 70
     1
102
RTVSPropertyOp45
 70
     1
102
RTVSPropertyOp46
 70
     1
102
RTVSPropertyOp47
 70
     1
102
RTVSPropertyOp48
 70
     1
102
RTVSPropertyOp49
 70
     1
102
RTVSPropertyOp50
 70
     1
102
RTVSPropertyOp51
 70
     0
102
RTVSPropertyOp52
 70
     0
102
RTVSPropertyOp53
 70
     1
102
RTVSPropertyOp54
 70
     1
102
RTVSPropertyOp55
 70
     1
102
RTVSPropertyOp56
 70
     1
102
RTVSPropertyOp57
 70
     1
102
RTVSPost2010Prop28
280
     0
102
RTVSPost2010PropOp28
 70
     1
102
RTVSPost2010Prop29
280
     1
102
RTVSPost2010PropOp29
 70
     1
102
RTVSPost2010Prop30
280
     1
102
RTVSPost2010PropOp30
 70
     1
102
RTVSPost2010Prop31
280
     0
102
RTVSPost2010PropOp31
 70
     1
102
RTVSPost2010Prop32
280
     0
102
RTVSPost2010PropOp32
 70
     1
102
RTVSPost2010Prop33
280
     0
102
RTVSPost2010PropOp33
 70
     1
102
RTVSPost2010Prop34
280
     0
102
RTVSPost2010PropOp34
 70
     1
102
RTVSPost2010Prop35
280
     0
102
RTVSPost2010PropOp35
 70
     1
102
RTVSPost2010Prop36
280
     0
102
RTVSPost2010PropOp36
 70
     1
102
RTVSPost2010Prop37
 90
       50
102
RTVSPost2010PropOp37
 70
     1
102
RTVSPost2010Prop38
140
0.0
102
RTVSPost2010PropOp38
 70
     1
102
RTVSPost2010Prop39
140
1.0
102
RTVSPost2010PropOp39
 70
     1
102
RTVSPost2010Prop40
 90
        0
102
RTVSPost2010PropOp40
 70
     1
102
RTVSPost2010Prop41ColorIndex
 90
       18
102
RTVSPost2010Prop41ColorRGB
 90
        0
102
RTVSPost2010PropOp41
 70
     1
102
RTVSPost2010Prop42
 90
       50
102
RTVSPost2010PropOp42
 70
     1
102
RTVSPost2010Prop43
 90
        3
102
RTVSPost2010PropOp43
 70
     1
102
RTVSPost2010Prop44ColorIndex
 90
        5
102
RTVSPost2010Prop44ColorRGB
 90
      255
102
RTVSPost2010PropOp44
 70
     1
102
RTVSPost2010Prop45
280
     0
102
RTVSPost2010PropOp45
 70
     1
102
RTVSPost2010Prop46
 90
       50
102
RTVSPost2010PropOp46
 70
     1
102
RTVSPost2010Prop47
 90
       50
102
RTVSPost2010PropOp47
 70
     1
102
RTVSPost2010Prop48
 90
       50
102
RTVSPost2010PropOp48
 70
     1
102
RTVSPost2010Prop49
280
     0
102
RTVSPost2010PropOp49
 70
     1
102
RTVSPost2010Prop50
 90
       50
102
RTVSPost2010PropOp50
 70
     1
102
RTVSPost2010Prop51ColorIndex
 90
      256
102
RTVSPost2010Prop51ColorRGB
 90
-16777216
102
RTVSPost2010PropOp51
 70
     0
102
RTVSPost2010Prop52
140
1.0
102
RTVSPost2010PropOp52
 70
     0
102
RTVSPost2010Prop53
 90
        2
102
RTVSPost2010PropOp53
 70
     1
102
RTVSPost2010Prop54
  1
strokes_ogs.tif
102
RTVSPost2010PropOp54
 70
     1
102
RTVSPost2010Prop55
280
     0
102
RTVSPost2010PropOp55
 70
     1
102
RTVSPost2010Prop56
140
1.0
102
RTVSPost2010PropOp56
 70
     1
102
RTVSPost2010Prop57
140
1.0
102
RTVSPost2010PropOp57
 70
     1
  0
XRECORD
  5
31807
102
{ACAD_REACTORS
330
31806
102
}
330
31806
100
AcDbXrecord
280
     1
102
RTVSPropertyOp0
 70
     1
102
RTVSPropertyOp1
 70
     1
102
RTVSPropertyOp2
 70
     1
102
RTVSPropertyOp3
 70
     1
102
RTVSPropertyOp4
 70
     1
102
RTVSPropertyOp5
 70
     1
102
RTVSPropertyOp6
 70
     1
102
RTVSPropertyOp7
 70
     1
102
RTVSPropertyOp8
 70
     1
102
RTVSPropertyOp9
 70
     1
102
RTVSPropertyOp10
 70
     1
102
RTVSPropertyOp11
 70
     1
102
RTVSPropertyOp12
 70
     1
102
RTVSPropertyOp13
 70
     1
102
RTVSPropertyOp14
 70
     1
102
RTVSPropertyOp15
 70
     1
102
RTVSPropertyOp16
 70
     1
102
RTVSPropertyOp17
 70
     1
102
RTVSPropertyOp18
 70
     1
102
RTVSPropertyOp19
 70
     1
102
RTVSPropertyOp20
 70
     1
102
RTVSPropertyOp21
 70
     1
102
RTVSPropertyOp22
 70
     1
102
RTVSPropertyOp23
 70
     1
102
RTVSPropertyOp24
 70
     1
102
RTVSPropertyOp25
 70
     1
102
RTVSPropertyOp26
 70
     1
102
RTVSPropertyOp27
 70
     1
102
RTVSPropertyOp28
 70
     1
102
RTVSPropertyOp29
 70
     1
102
RTVSPropertyOp30
 70
     1
102
RTVSPropertyOp31
 70
     1
102
RTVSPropertyOp32
 70
     1
102
RTVSPropertyOp33
 70
     1
102
RTVSPropertyOp34
 70
     1
102
RTVSPropertyOp35
 70
     1
102
RTVSPropertyOp36
 70
     1
102
RTVSPropertyOp37
 70
     1
102
RTVSPropertyOp38
 70
     1
102
RTVSPropertyOp39
 70
     1
102
RTVSPropertyOp40
 70
     1
102
RTVSPropertyOp41
 70
     1
102
RTVSPropertyOp42
 70
     1
102
RTVSPropertyOp43
 70
     1
102
RTVSPropertyOp44
 70
     1
102
RTVSPropertyOp45
 70
     1
102
RTVSPropertyOp46
 70
     1
102
RTVSPropertyOp47
 70
     1
102
RTVSPropertyOp48
 70
     1
102
RTVSPropertyOp49
 70
     1
102
RTVSPropertyOp50
 70
     1
102
RTVSPropertyOp51
 70
     0
102
RTVSPropertyOp52
 70
     0
102
RTVSPropertyOp53
 70
     1
102
RTVSPropertyOp54
 70
     1
102
RTVSPropertyOp55
 70
     1
102
RTVSPropertyOp56
 70
     1
102
RTVSPropertyOp57
 70
     1
102
RTVSPost2010Prop28
280
     0
102
RTVSPost2010PropOp28
 70
     1
102
RTVSPost2010Prop29
280
     1
102
RTVSPost2010PropOp29
 70
     1
102
RTVSPost2010Prop30
280
     1
102
RTVSPost2010PropOp30
 70
     1
102
RTVSPost2010Prop31
280
     0
102
RTVSPost2010PropOp31
 70
     1
102
RTVSPost2010Prop32
280
     0
102
RTVSPost2010PropOp32
 70
     1
102
RTVSPost2010Prop33
280
     0
102
RTVSPost2010PropOp33
 70
     1
102
RTVSPost2010Prop34
280
     0
102
RTVSPost2010PropOp34
 70
     1
102
RTVSPost2010Prop35
280
     0
102
RTVSPost2010PropOp35
 70
     1
102
RTVSPost2010Prop36
280
     0
102
RTVSPost2010PropOp36
 70
     1
102
RTVSPost2010Prop37
 90
       50
102
RTVSPost2010PropOp37
 70
     1
102
RTVSPost2010Prop38
140
0.0
102
RTVSPost2010PropOp38
 70
     1
102
RTVSPost2010Prop39
140
1.0
102
RTVSPost2010PropOp39
 70
     1
102
RTVSPost2010Prop40
 90
        0
102
RTVSPost2010PropOp40
 70
     1
102
RTVSPost2010Prop41ColorIndex
 90
       18
102
RTVSPost2010Prop41ColorRGB
 90
        0
102
RTVSPost2010PropOp41
 70
     1
102
RTVSPost2010Prop42
 90
       50
102
RTVSPost2010PropOp42
 70
     1
102
RTVSPost2010Prop43
 90
        3
102
RTVSPost2010PropOp43
 70
     1
102
RTVSPost2010Prop44ColorIndex
 90
        5
102
RTVSPost2010Prop44ColorRGB
 90
      255
102
RTVSPost2010PropOp44
 70
     1
102
RTVSPost2010Prop45
280
     0
102
RTVSPost2010PropOp45
 70
     1
102
RTVSPost2010Prop46
 90
       50
102
RTVSPost2010PropOp46
 70
     1
102
RTVSPost2010Prop47
 90
       50
102
RTVSPost2010PropOp47
 70
     1
102
RTVSPost2010Prop48
 90
       50
102
RTVSPost2010PropOp48
 70
     1
102
RTVSPost2010Prop49
280
     0
102
RTVSPost2010PropOp49
 70
     1
102
RTVSPost2010Prop50
 90
       50
102
RTVSPost2010PropOp50
 70
     1
102
RTVSPost2010Prop51ColorIndex
 90
      256
102
RTVSPost2010Prop51ColorRGB
 90
-16777216
102
RTVSPost2010PropOp51
 70
     0
102
RTVSPost2010Prop52
140
1.0
102
RTVSPost2010PropOp52
 70
     0
102
RTVSPost2010Prop53
 90
        2
102
RTVSPost2010PropOp53
 70
     1
102
RTVSPost2010Prop54
  1
strokes_ogs.tif
102
RTVSPost2010PropOp54
 70
     1
102
RTVSPost2010Prop55
280
     0
102
RTVSPost2010PropOp55
 70
     1
102
RTVSPost2010Prop56
140
1.0
102
RTVSPost2010PropOp56
 70
     1
102
RTVSPost2010Prop57
140
1.0
102
RTVSPost2010PropOp57
 70
     1
  0
XRECORD
  5
31809
102
{ACAD_REACTORS
330
31808
102
}
330
31808
100
AcDbXrecord
280
     1
102
RTVSPropertyOp0
 70
     0
102
RTVSPropertyOp1
 70
     0
102
RTVSPropertyOp2
 70
     0
102
RTVSPropertyOp3
 70
     0
102
RTVSPropertyOp4
 70
     0
102
RTVSPropertyOp5
 70
     0
102
RTVSPropertyOp6
 70
     0
102
RTVSPropertyOp7
 70
     0
102
RTVSPropertyOp8
 70
     0
102
RTVSPropertyOp9
 70
     0
102
RTVSPropertyOp10
 70
     0
102
RTVSPropertyOp11
 70
     0
102
RTVSPropertyOp12
 70
     0
102
RTVSPropertyOp13
 70
     0
102
RTVSPropertyOp14
 70
     2
102
RTVSPropertyOp15
 70
     0
102
RTVSPropertyOp16
 70
     0
102
RTVSPropertyOp17
 70
     0
102
RTVSPropertyOp18
 70
     0
102
RTVSPropertyOp19
 70
     0
102
RTVSPropertyOp20
 70
     0
102
RTVSPropertyOp21
 70
     0
102
RTVSPropertyOp22
 70
     0
102
RTVSPropertyOp23
 70
     0
102
RTVSPropertyOp24
 70
     0
102
RTVSPropertyOp25
 70
     0
102
RTVSPropertyOp26
 70
     0
102
RTVSPropertyOp27
 70
     0
102
RTVSPropertyOp28
 70
     0
102
RTVSPropertyOp29
 70
     0
102
RTVSPropertyOp30
 70
     0
102
RTVSPropertyOp31
 70
     0
102
RTVSPropertyOp32
 70
     0
102
RTVSPropertyOp33
 70
     0
102
RTVSPropertyOp34
 70
     0
102
RTVSPropertyOp35
 70
     0
102
RTVSPropertyOp36
 70
     0
102
RTVSPropertyOp37
 70
     0
102
RTVSPropertyOp38
 70
     0
102
RTVSPropertyOp39
 70
     0
102
RTVSPropertyOp40
 70
     0
102
RTVSPropertyOp41
 70
     0
102
RTVSPropertyOp42
 70
     0
102
RTVSPropertyOp43
 70
     0
102
RTVSPropertyOp44
 70
     0
102
RTVSPropertyOp45
 70
     0
102
RTVSPropertyOp46
 70
     0
102
RTVSPropertyOp47
 70
     0
102
RTVSPropertyOp48
 70
     0
102
RTVSPropertyOp49
 70
     0
102
RTVSPropertyOp50
 70
     0
102
RTVSPropertyOp51
 70
     0
102
RTVSPropertyOp52
 70
     0
102
RTVSPropertyOp53
 70
     0
102
RTVSPropertyOp54
 70
     0
102
RTVSPropertyOp55
 70
     0
102
RTVSPropertyOp56
 70
     0
102
RTVSPropertyOp57
 70
     0
102
RTVSPost2010Prop28
280
     0
102
RTVSPost2010PropOp28
 70
     0
102
RTVSPost2010Prop29
280
     1
102
RTVSPost2010PropOp29
 70
     0
102
RTVSPost2010Prop30
280
     1
102
RTVSPost2010PropOp30
 70
     0
102
RTVSPost2010Prop31
280
     0
102
RTVSPost2010PropOp31
 70
     0
102
RTVSPost2010Prop32
280
     0
102
RTVSPost2010PropOp32
 70
     0
102
RTVSPost2010Prop33
280
     0
102
RTVSPost2010PropOp33
 70
     0
102
RTVSPost2010Prop34
280
     0
102
RTVSPost2010PropOp34
 70
     0
102
RTVSPost2010Prop35
280
     0
102
RTVSPost2010PropOp35
 70
     0
102
RTVSPost2010Prop36
280
     0
102
RTVSPost2010PropOp36
 70
     0
102
RTVSPost2010Prop37
 90
       50
102
RTVSPost2010PropOp37
 70
     0
102
RTVSPost2010Prop38
140
0.0
102
RTVSPost2010PropOp38
 70
     0
102
RTVSPost2010Prop39
140
1.0
102
RTVSPost2010PropOp39
 70
     0
102
RTVSPost2010Prop40
 90
        0
102
RTVSPost2010PropOp40
 70
     0
102
RTVSPost2010Prop41ColorIndex
 90
       18
102
RTVSPost2010Prop41ColorRGB
 90
        0
102
RTVSPost2010PropOp41
 70
     0
102
RTVSPost2010Prop42
 90
       50
102
RTVSPost2010PropOp42
 70
     0
102
RTVSPost2010Prop43
 90
        3
102
RTVSPost2010PropOp43
 70
     0
102
RTVSPost2010Prop44ColorIndex
 90
        5
102
RTVSPost2010Prop44ColorRGB
 90
      255
102
RTVSPost2010PropOp44
 70
     0
102
RTVSPost2010Prop45
280
     0
102
RTVSPost2010PropOp45
 70
     0
102
RTVSPost2010Prop46
 90
       50
102
RTVSPost2010PropOp46
 70
     0
102
RTVSPost2010Prop47
 90
       50
102
RTVSPost2010PropOp47
 70
     0
102
RTVSPost2010Prop48
 90
       50
102
RTVSPost2010PropOp48
 70
     0
102
RTVSPost2010Prop49
280
     0
102
RTVSPost2010PropOp49
 70
     0
102
RTVSPost2010Prop50
 90
       50
102
RTVSPost2010PropOp50
 70
     0
102
RTVSPost2010Prop51ColorIndex
 90
      256
102
RTVSPost2010Prop51ColorRGB
 90
-16777216
102
RTVSPost2010PropOp51
 70
     0
102
RTVSPost2010Prop52
140
1.0
102
RTVSPost2010PropOp52
 70
     0
102
RTVSPost2010Prop53
 90
        2
102
RTVSPost2010PropOp53
 70
     0
102
RTVSPost2010Prop54
  1
strokes_ogs.tif
102
RTVSPost2010PropOp54
 70
     0
102
RTVSPost2010Prop55
280
     0
102
RTVSPost2010PropOp55
 70
     0
102
RTVSPost2010Prop56
140
1.0
102
RTVSPost2010PropOp56
 70
     0
102
RTVSPost2010Prop57
140
1.0
102
RTVSPost2010PropOp57
 70
     0
  0
XRECORD
  5
3180B
102
{ACAD_REACTORS
330
3180A
102
}
330
3180A
100
AcDbXrecord
280
     1
102
RTVSPropertyOp0
 70
     1
102
RTVSPropertyOp1
 70
     1
102
RTVSPropertyOp2
 70
     1
102
RTVSPropertyOp3
 70
     1
102
RTVSPropertyOp4
 70
     1
102
RTVSPropertyOp5
 70
     1
102
RTVSPropertyOp6
 70
     1
102
RTVSPropertyOp7
 70
     1
102
RTVSPropertyOp8
 70
     1
102
RTVSPropertyOp9
 70
     1
102
RTVSPropertyOp10
 70
     1
102
RTVSPropertyOp11
 70
     1
102
RTVSPropertyOp12
 70
     1
102
RTVSPropertyOp13
 70
     1
102
RTVSPropertyOp14
 70
     1
102
RTVSPropertyOp15
 70
     1
102
RTVSPropertyOp16
 70
     1
102
RTVSPropertyOp17
 70
     1
102
RTVSPropertyOp18
 70
     1
102
RTVSPropertyOp19
 70
     1
102
RTVSPropertyOp20
 70
     1
102
RTVSPropertyOp21
 70
     1
102
RTVSPropertyOp22
 70
     1
102
RTVSPropertyOp23
 70
     1
102
RTVSPropertyOp24
 70
     1
102
RTVSPropertyOp25
 70
     1
102
RTVSPropertyOp26
 70
     1
102
RTVSPropertyOp27
 70
     1
102
RTVSPropertyOp28
 70
     1
102
RTVSPropertyOp29
 70
     1
102
RTVSPropertyOp30
 70
     1
102
RTVSPropertyOp31
 70
     1
102
RTVSPropertyOp32
 70
     1
102
RTVSPropertyOp33
 70
     1
102
RTVSPropertyOp34
 70
     1
102
RTVSPropertyOp35
 70
     1
102
RTVSPropertyOp36
 70
     1
102
RTVSPropertyOp37
 70
     1
102
RTVSPropertyOp38
 70
     1
102
RTVSPropertyOp39
 70
     1
102
RTVSPropertyOp40
 70
     1
102
RTVSPropertyOp41
 70
     1
102
RTVSPropertyOp42
 70
     1
102
RTVSPropertyOp43
 70
     1
102
RTVSPropertyOp44
 70
     1
102
RTVSPropertyOp45
 70
     1
102
RTVSPropertyOp46
 70
     1
102
RTVSPropertyOp47
 70
     1
102
RTVSPropertyOp48
 70
     1
102
RTVSPropertyOp49
 70
     1
102
RTVSPropertyOp50
 70
     1
102
RTVSPropertyOp51
 70
     0
102
RTVSPropertyOp52
 70
     0
102
RTVSPropertyOp53
 70
     1
102
RTVSPropertyOp54
 70
     1
102
RTVSPropertyOp55
 70
     1
102
RTVSPropertyOp56
 70
     1
102
RTVSPropertyOp57
 70
     1
102
RTVSPost2010Prop28
280
     0
102
RTVSPost2010PropOp28
 70
     1
102
RTVSPost2010Prop29
280
     1
102
RTVSPost2010PropOp29
 70
     1
102
RTVSPost2010Prop30
280
     1
102
RTVSPost2010PropOp30
 70
     1
102
RTVSPost2010Prop31
280
     0
102
RTVSPost2010PropOp31
 70
     1
102
RTVSPost2010Prop32
280
     0
102
RTVSPost2010PropOp32
 70
     1
102
RTVSPost2010Prop33
280
     0
102
RTVSPost2010PropOp33
 70
     1
102
RTVSPost2010Prop34
280
     0
102
RTVSPost2010PropOp34
 70
     1
102
RTVSPost2010Prop35
280
     0
102
RTVSPost2010PropOp35
 70
     1
102
RTVSPost2010Prop36
280
     0
102
RTVSPost2010PropOp36
 70
     1
102
RTVSPost2010Prop37
 90
       50
102
RTVSPost2010PropOp37
 70
     1
102
RTVSPost2010Prop38
140
0.0
102
RTVSPost2010PropOp38
 70
     1
102
RTVSPost2010Prop39
140
1.0
102
RTVSPost2010PropOp39
 70
     1
102
RTVSPost2010Prop40
 90
        0
102
RTVSPost2010PropOp40
 70
     1
102
RTVSPost2010Prop41ColorIndex
 90
       18
102
RTVSPost2010Prop41ColorRGB
 90
        0
102
RTVSPost2010PropOp41
 70
     1
102
RTVSPost2010Prop42
 90
       50
102
RTVSPost2010PropOp42
 70
     1
102
RTVSPost2010Prop43
 90
        3
102
RTVSPost2010PropOp43
 70
     1
102
RTVSPost2010Prop44ColorIndex
 90
        5
102
RTVSPost2010Prop44ColorRGB
 90
      255
102
RTVSPost2010PropOp44
 70
     1
102
RTVSPost2010Prop45
280
     0
102
RTVSPost2010PropOp45
 70
     1
102
RTVSPost2010Prop46
 90
       50
102
RTVSPost2010PropOp46
 70
     1
102
RTVSPost2010Prop47
 90
       50
102
RTVSPost2010PropOp47
 70
     1
102
RTVSPost2010Prop48
 90
       50
102
RTVSPost2010PropOp48
 70
     1
102
RTVSPost2010Prop49
280
     0
102
RTVSPost2010PropOp49
 70
     1
102
RTVSPost2010Prop50
 90
       50
102
RTVSPost2010PropOp50
 70
     1
102
RTVSPost2010Prop51ColorIndex
 90
      256
102
RTVSPost2010Prop51ColorRGB
 90
-16777216
102
RTVSPost2010PropOp51
 70
     0
102
RTVSPost2010Prop52
140
1.0
102
RTVSPost2010PropOp52
 70
     0
102
RTVSPost2010Prop53
 90
        2
102
RTVSPost2010PropOp53
 70
     1
102
RTVSPost2010Prop54
  1
strokes_ogs.tif
102
RTVSPost2010PropOp54
 70
     1
102
RTVSPost2010Prop55
280
     0
102
RTVSPost2010PropOp55
 70
     1
102
RTVSPost2010Prop56
140
1.0
102
RTVSPost2010PropOp56
 70
     1
102
RTVSPost2010Prop57
140
1.0
102
RTVSPost2010PropOp57
 70
     1
  0
XRECORD
  5
3180D
102
{ACAD_REACTORS
330
3180C
102
}
330
3180C
100
AcDbXrecord
280
     1
102
RTVSPropertyOp0
 70
     1
102
RTVSPropertyOp1
 70
     1
102
RTVSPropertyOp2
 70
     1
102
RTVSPropertyOp3
 70
     1
102
RTVSPropertyOp4
 70
     1
102
RTVSPropertyOp5
 70
     1
102
RTVSPropertyOp6
 70
     1
102
RTVSPropertyOp7
 70
     1
102
RTVSPropertyOp8
 70
     1
102
RTVSPropertyOp9
 70
     1
102
RTVSPropertyOp10
 70
     1
102
RTVSPropertyOp11
 70
     1
102
RTVSPropertyOp12
 70
     1
102
RTVSPropertyOp13
 70
     1
102
RTVSPropertyOp14
 70
     1
102
RTVSPropertyOp15
 70
     1
102
RTVSPropertyOp16
 70
     1
102
RTVSPropertyOp17
 70
     1
102
RTVSPropertyOp18
 70
     1
102
RTVSPropertyOp19
 70
     1
102
RTVSPropertyOp20
 70
     1
102
RTVSPropertyOp21
 70
     1
102
RTVSPropertyOp22
 70
     1
102
RTVSPropertyOp23
 70
     1
102
RTVSPropertyOp24
 70
     1
102
RTVSPropertyOp25
 70
     1
102
RTVSPropertyOp26
 70
     1
102
RTVSPropertyOp27
 70
     1
102
RTVSPropertyOp28
 70
     1
102
RTVSPropertyOp29
 70
     1
102
RTVSPropertyOp30
 70
     1
102
RTVSPropertyOp31
 70
     1
102
RTVSPropertyOp32
 70
     1
102
RTVSPropertyOp33
 70
     1
102
RTVSPropertyOp34
 70
     1
102
RTVSPropertyOp35
 70
     1
102
RTVSPropertyOp36
 70
     1
102
RTVSPropertyOp37
 70
     1
102
RTVSPropertyOp38
 70
     1
102
RTVSPropertyOp39
 70
     1
102
RTVSPropertyOp40
 70
     1
102
RTVSPropertyOp41
 70
     1
102
RTVSPropertyOp42
 70
     1
102
RTVSPropertyOp43
 70
     1
102
RTVSPropertyOp44
 70
     1
102
RTVSPropertyOp45
 70
     1
102
RTVSPropertyOp46
 70
     1
102
RTVSPropertyOp47
 70
     1
102
RTVSPropertyOp48
 70
     1
102
RTVSPropertyOp49
 70
     1
102
RTVSPropertyOp50
 70
     1
102
RTVSPropertyOp51
 70
     0
102
RTVSPropertyOp52
 70
     0
102
RTVSPropertyOp53
 70
     1
102
RTVSPropertyOp54
 70
     1
102
RTVSPropertyOp55
 70
     1
102
RTVSPropertyOp56
 70
     1
102
RTVSPropertyOp57
 70
     1
102
RTVSPost2010Prop28
280
     0
102
RTVSPost2010PropOp28
 70
     1
102
RTVSPost2010Prop29
280
     1
102
RTVSPost2010PropOp29
 70
     1
102
RTVSPost2010Prop30
280
     1
102
RTVSPost2010PropOp30
 70
     1
102
RTVSPost2010Prop31
280
     0
102
RTVSPost2010PropOp31
 70
     1
102
RTVSPost2010Prop32
280
     0
102
RTVSPost2010PropOp32
 70
     1
102
RTVSPost2010Prop33
280
     0
102
RTVSPost2010PropOp33
 70
     1
102
RTVSPost2010Prop34
280
     0
102
RTVSPost2010PropOp34
 70
     1
102
RTVSPost2010Prop35
280
     0
102
RTVSPost2010PropOp35
 70
     1
102
RTVSPost2010Prop36
280
     0
102
RTVSPost2010PropOp36
 70
     1
102
RTVSPost2010Prop37
 90
       50
102
RTVSPost2010PropOp37
 70
     1
102
RTVSPost2010Prop38
140
0.0
102
RTVSPost2010PropOp38
 70
     1
102
RTVSPost2010Prop39
140
1.0
102
RTVSPost2010PropOp39
 70
     1
102
RTVSPost2010Prop40
 90
        0
102
RTVSPost2010PropOp40
 70
     1
102
RTVSPost2010Prop41ColorIndex
 90
       18
102
RTVSPost2010Prop41ColorRGB
 90
        0
102
RTVSPost2010PropOp41
 70
     1
102
RTVSPost2010Prop42
 90
       50
102
RTVSPost2010PropOp42
 70
     1
102
RTVSPost2010Prop43
 90
        3
102
RTVSPost2010PropOp43
 70
     1
102
RTVSPost2010Prop44ColorIndex
 90
        5
102
RTVSPost2010Prop44ColorRGB
 90
      255
102
RTVSPost2010PropOp44
 70
     1
102
RTVSPost2010Prop45
280
     0
102
RTVSPost2010PropOp45
 70
     1
102
RTVSPost2010Prop46
 90
       50
102
RTVSPost2010PropOp46
 70
     1
102
RTVSPost2010Prop47
 90
       50
102
RTVSPost2010PropOp47
 70
     1
102
RTVSPost2010Prop48
 90
       50
102
RTVSPost2010PropOp48
 70
     1
102
RTVSPost2010Prop49
280
     0
102
RTVSPost2010PropOp49
 70
     1
102
RTVSPost2010Prop50
 90
       50
102
RTVSPost2010PropOp50
 70
     1
102
RTVSPost2010Prop51ColorIndex
 90
      256
102
RTVSPost2010Prop51ColorRGB
 90
-16777216
102
RTVSPost2010PropOp51
 70
     0
102
RTVSPost2010Prop52
140
1.0
102
RTVSPost2010PropOp52
 70
     0
102
RTVSPost2010Prop53
 90
        2
102
RTVSPost2010PropOp53
 70
     1
102
RTVSPost2010Prop54
  1
strokes_ogs.tif
102
RTVSPost2010PropOp54
 70
     1
102
RTVSPost2010Prop55
280
     0
102
RTVSPost2010PropOp55
 70
     1
102
RTVSPost2010Prop56
140
1.0
102
RTVSPost2010PropOp56
 70
     1
102
RTVSPost2010Prop57
140
1.0
102
RTVSPost2010PropOp57
 70
     1
  0
XRECORD
  5
3180F
102
{ACAD_REACTORS
330
3180E
102
}
330
3180E
100
AcDbXrecord
280
     1
102
RTVSPropertyOp0
 70
     1
102
RTVSPropertyOp1
 70
     1
102
RTVSPropertyOp2
 70
     1
102
RTVSPropertyOp3
 70
     1
102
RTVSPropertyOp4
 70
     1
102
RTVSPropertyOp5
 70
     1
102
RTVSPropertyOp6
 70
     1
102
RTVSPropertyOp7
 70
     1
102
RTVSPropertyOp8
 70
     1
102
RTVSPropertyOp9
 70
     1
102
RTVSPropertyOp10
 70
     1
102
RTVSPropertyOp11
 70
     1
102
RTVSPropertyOp12
 70
     1
102
RTVSPropertyOp13
 70
     1
102
RTVSPropertyOp14
 70
     1
102
RTVSPropertyOp15
 70
     1
102
RTVSPropertyOp16
 70
     1
102
RTVSPropertyOp17
 70
     1
102
RTVSPropertyOp18
 70
     1
102
RTVSPropertyOp19
 70
     1
102
RTVSPropertyOp20
 70
     1
102
RTVSPropertyOp21
 70
     1
102
RTVSPropertyOp22
 70
     1
102
RTVSPropertyOp23
 70
     1
102
RTVSPropertyOp24
 70
     1
102
RTVSPropertyOp25
 70
     1
102
RTVSPropertyOp26
 70
     1
102
RTVSPropertyOp27
 70
     1
102
RTVSPropertyOp28
 70
     1
102
RTVSPropertyOp29
 70
     1
102
RTVSPropertyOp30
 70
     1
102
RTVSPropertyOp31
 70
     1
102
RTVSPropertyOp32
 70
     1
102
RTVSPropertyOp33
 70
     1
102
RTVSPropertyOp34
 70
     1
102
RTVSPropertyOp35
 70
     1
102
RTVSPropertyOp36
 70
     1
102
RTVSPropertyOp37
 70
     1
102
RTVSPropertyOp38
 70
     1
102
RTVSPropertyOp39
 70
     1
102
RTVSPropertyOp40
 70
     1
102
RTVSPropertyOp41
 70
     1
102
RTVSPropertyOp42
 70
     1
102
RTVSPropertyOp43
 70
     1
102
RTVSPropertyOp44
 70
     1
102
RTVSPropertyOp45
 70
     1
102
RTVSPropertyOp46
 70
     1
102
RTVSPropertyOp47
 70
     1
102
RTVSPropertyOp48
 70
     1
102
RTVSPropertyOp49
 70
     1
102
RTVSPropertyOp50
 70
     1
102
RTVSPropertyOp51
 70
     0
102
RTVSPropertyOp52
 70
     0
102
RTVSPropertyOp53
 70
     1
102
RTVSPropertyOp54
 70
     1
102
RTVSPropertyOp55
 70
     1
102
RTVSPropertyOp56
 70
     1
102
RTVSPropertyOp57
 70
     1
102
RTVSPost2010Prop28
280
     0
102
RTVSPost2010PropOp28
 70
     1
102
RTVSPost2010Prop29
280
     1
102
RTVSPost2010PropOp29
 70
     1
102
RTVSPost2010Prop30
280
     1
102
RTVSPost2010PropOp30
 70
     1
102
RTVSPost2010Prop31
280
     0
102
RTVSPost2010PropOp31
 70
     1
102
RTVSPost2010Prop32
280
     0
102
RTVSPost2010PropOp32
 70
     1
102
RTVSPost2010Prop33
280
     0
102
RTVSPost2010PropOp33
 70
     1
102
RTVSPost2010Prop34
280
     0
102
RTVSPost2010PropOp34
 70
     1
102
RTVSPost2010Prop35
280
     0
102
RTVSPost2010PropOp35
 70
     1
102
RTVSPost2010Prop36
280
     0
102
RTVSPost2010PropOp36
 70
     1
102
RTVSPost2010Prop37
 90
       50
102
RTVSPost2010PropOp37
 70
     1
102
RTVSPost2010Prop38
140
0.0
102
RTVSPost2010PropOp38
 70
     1
102
RTVSPost2010Prop39
140
1.0
102
RTVSPost2010PropOp39
 70
     1
102
RTVSPost2010Prop40
 90
        0
102
RTVSPost2010PropOp40
 70
     1
102
RTVSPost2010Prop41ColorIndex
 90
       18
102
RTVSPost2010Prop41ColorRGB
 90
        0
102
RTVSPost2010PropOp41
 70
     1
102
RTVSPost2010Prop42
 90
       50
102
RTVSPost2010PropOp42
 70
     1
102
RTVSPost2010Prop43
 90
        3
102
RTVSPost2010PropOp43
 70
     1
102
RTVSPost2010Prop44ColorIndex
 90
        5
102
RTVSPost2010Prop44ColorRGB
 90
      255
102
RTVSPost2010PropOp44
 70
     1
102
RTVSPost2010Prop45
280
     0
102
RTVSPost2010PropOp45
 70
     1
102
RTVSPost2010Prop46
 90
       50
102
RTVSPost2010PropOp46
 70
     1
102
RTVSPost2010Prop47
 90
       50
102
RTVSPost2010PropOp47
 70
     1
102
RTVSPost2010Prop48
 90
       50
102
RTVSPost2010PropOp48
 70
     1
102
RTVSPost2010Prop49
280
     0
102
RTVSPost2010PropOp49
 70
     1
102
RTVSPost2010Prop50
 90
       50
102
RTVSPost2010PropOp50
 70
     1
102
RTVSPost2010Prop51ColorIndex
 90
      256
102
RTVSPost2010Prop51ColorRGB
 90
-16777216
102
RTVSPost2010PropOp51
 70
     0
102
RTVSPost2010Prop52
140
1.0
102
RTVSPost2010PropOp52
 70
     0
102
RTVSPost2010Prop53
 90
        2
102
RTVSPost2010PropOp53
 70
     1
102
RTVSPost2010Prop54
  1
strokes_ogs.tif
102
RTVSPost2010PropOp54
 70
     1
102
RTVSPost2010Prop55
280
     0
102
RTVSPost2010PropOp55
 70
     1
102
RTVSPost2010Prop56
140
1.0
102
RTVSPost2010PropOp56
 70
     1
102
RTVSPost2010Prop57
140
1.0
102
RTVSPost2010PropOp57
 70
     1
  0
XRECORD
  5
31811
102
{ACAD_REACTORS
330
31810
102
}
330
31810
100
AcDbXrecord
280
     1
102
RTVSPropertyOp0
 70
     1
102
RTVSPropertyOp1
 70
     1
102
RTVSPropertyOp2
 70
     1
102
RTVSPropertyOp3
 70
     1
102
RTVSPropertyOp4
 70
     1
102
RTVSPropertyOp5
 70
     1
102
RTVSPropertyOp6
 70
     1
102
RTVSPropertyOp7
 70
     1
102
RTVSPropertyOp8
 70
     1
102
RTVSPropertyOp9
 70
     1
102
RTVSPropertyOp10
 70
     1
102
RTVSPropertyOp11
 70
     1
102
RTVSPropertyOp12
 70
     1
102
RTVSPropertyOp13
 70
     1
102
RTVSPropertyOp14
 70
     1
102
RTVSPropertyOp15
 70
     1
102
RTVSPropertyOp16
 70
     1
102
RTVSPropertyOp17
 70
     1
102
RTVSPropertyOp18
 70
     1
102
RTVSPropertyOp19
 70
     1
102
RTVSPropertyOp20
 70
     1
102
RTVSPropertyOp21
 70
     1
102
RTVSPropertyOp22
 70
     1
102
RTVSPropertyOp23
 70
     1
102
RTVSPropertyOp24
 70
     1
102
RTVSPropertyOp25
 70
     1
102
RTVSPropertyOp26
 70
     1
102
RTVSPropertyOp27
 70
     1
102
RTVSPropertyOp28
 70
     1
102
RTVSPropertyOp29
 70
     1
102
RTVSPropertyOp30
 70
     1
102
RTVSPropertyOp31
 70
     1
102
RTVSPropertyOp32
 70
     1
102
RTVSPropertyOp33
 70
     1
102
RTVSPropertyOp34
 70
     1
102
RTVSPropertyOp35
 70
     1
102
RTVSPropertyOp36
 70
     1
102
RTVSPropertyOp37
 70
     1
102
RTVSPropertyOp38
 70
     1
102
RTVSPropertyOp39
 70
     1
102
RTVSPropertyOp40
 70
     1
102
RTVSPropertyOp41
 70
     1
102
RTVSPropertyOp42
 70
     1
102
RTVSPropertyOp43
 70
     1
102
RTVSPropertyOp44
 70
     1
102
RTVSPropertyOp45
 70
     1
102
RTVSPropertyOp46
 70
     1
102
RTVSPropertyOp47
 70
     1
102
RTVSPropertyOp48
 70
     1
102
RTVSPropertyOp49
 70
     1
102
RTVSPropertyOp50
 70
     1
102
RTVSPropertyOp51
 70
     0
102
RTVSPropertyOp52
 70
     0
102
RTVSPropertyOp53
 70
     1
102
RTVSPropertyOp54
 70
     1
102
RTVSPropertyOp55
 70
     1
102
RTVSPropertyOp56
 70
     1
102
RTVSPropertyOp57
 70
     1
102
RTVSPost2010Prop28
280
     0
102
RTVSPost2010PropOp28
 70
     1
102
RTVSPost2010Prop29
280
     1
102
RTVSPost2010PropOp29
 70
     1
102
RTVSPost2010Prop30
280
     1
102
RTVSPost2010PropOp30
 70
     1
102
RTVSPost2010Prop31
280
     0
102
RTVSPost2010PropOp31
 70
     1
102
RTVSPost2010Prop32
280
     0
102
RTVSPost2010PropOp32
 70
     1
102
RTVSPost2010Prop33
280
     0
102
RTVSPost2010PropOp33
 70
     1
102
RTVSPost2010Prop34
280
     0
102
RTVSPost2010PropOp34
 70
     1
102
RTVSPost2010Prop35
280
     0
102
RTVSPost2010PropOp35
 70
     1
102
RTVSPost2010Prop36
280
     0
102
RTVSPost2010PropOp36
 70
     1
102
RTVSPost2010Prop37
 90
       50
102
RTVSPost2010PropOp37
 70
     1
102
RTVSPost2010Prop38
140
0.0
102
RTVSPost2010PropOp38
 70
     1
102
RTVSPost2010Prop39
140
1.0
102
RTVSPost2010PropOp39
 70
     1
102
RTVSPost2010Prop40
 90
        0
102
RTVSPost2010PropOp40
 70
     1
102
RTVSPost2010Prop41ColorIndex
 90
       18
102
RTVSPost2010Prop41ColorRGB
 90
        0
102
RTVSPost2010PropOp41
 70
     1
102
RTVSPost2010Prop42
 90
       50
102
RTVSPost2010PropOp42
 70
     1
102
RTVSPost2010Prop43
 90
        3
102
RTVSPost2010PropOp43
 70
     1
102
RTVSPost2010Prop44ColorIndex
 90
        5
102
RTVSPost2010Prop44ColorRGB
 90
      255
102
RTVSPost2010PropOp44
 70
     1
102
RTVSPost2010Prop45
280
     0
102
RTVSPost2010PropOp45
 70
     1
102
RTVSPost2010Prop46
 90
       50
102
RTVSPost2010PropOp46
 70
     1
102
RTVSPost2010Prop47
 90
       50
102
RTVSPost2010PropOp47
 70
     1
102
RTVSPost2010Prop48
 90
       50
102
RTVSPost2010PropOp48
 70
     1
102
RTVSPost2010Prop49
280
     0
102
RTVSPost2010PropOp49
 70
     1
102
RTVSPost2010Prop50
 90
       50
102
RTVSPost2010PropOp50
 70
     1
102
RTVSPost2010Prop51ColorIndex
 90
      256
102
RTVSPost2010Prop51ColorRGB
 90
-16777216
102
RTVSPost2010PropOp51
 70
     0
102
RTVSPost2010Prop52
140
1.0
102
RTVSPost2010PropOp52
 70
     0
102
RTVSPost2010Prop53
 90
        2
102
RTVSPost2010PropOp53
 70
     1
102
RTVSPost2010Prop54
  1
strokes_ogs.tif
102
RTVSPost2010PropOp54
 70
     1
102
RTVSPost2010Prop55
280
     0
102
RTVSPost2010PropOp55
 70
     1
102
RTVSPost2010Prop56
140
1.0
102
RTVSPost2010PropOp56
 70
     1
102
RTVSPost2010Prop57
140
1.0
102
RTVSPost2010PropOp57
 70
     1
  0
XRECORD
  5
31813
102
{ACAD_REACTORS
330
31812
102
}
330
31812
100
AcDbXrecord
280
     1
102
RTVSPropertyOp0
 70
     1
102
RTVSPropertyOp1
 70
     1
102
RTVSPropertyOp2
 70
     1
102
RTVSPropertyOp3
 70
     1
102
RTVSPropertyOp4
 70
     1
102
RTVSPropertyOp5
 70
     1
102
RTVSPropertyOp6
 70
     1
102
RTVSPropertyOp7
 70
     1
102
RTVSPropertyOp8
 70
     1
102
RTVSPropertyOp9
 70
     1
102
RTVSPropertyOp10
 70
     1
102
RTVSPropertyOp11
 70
     1
102
RTVSPropertyOp12
 70
     1
102
RTVSPropertyOp13
 70
     1
102
RTVSPropertyOp14
 70
     1
102
RTVSPropertyOp15
 70
     1
102
RTVSPropertyOp16
 70
     1
102
RTVSPropertyOp17
 70
     1
102
RTVSPropertyOp18
 70
     1
102
RTVSPropertyOp19
 70
     1
102
RTVSPropertyOp20
 70
     1
102
RTVSPropertyOp21
 70
     1
102
RTVSPropertyOp22
 70
     1
102
RTVSPropertyOp23
 70
     1
102
RTVSPropertyOp24
 70
     1
102
RTVSPropertyOp25
 70
     1
102
RTVSPropertyOp26
 70
     1
102
RTVSPropertyOp27
 70
     1
102
RTVSPropertyOp28
 70
     1
102
RTVSPropertyOp29
 70
     1
102
RTVSPropertyOp30
 70
     1
102
RTVSPropertyOp31
 70
     1
102
RTVSPropertyOp32
 70
     1
102
RTVSPropertyOp33
 70
     1
102
RTVSPropertyOp34
 70
     1
102
RTVSPropertyOp35
 70
     1
102
RTVSPropertyOp36
 70
     1
102
RTVSPropertyOp37
 70
     1
102
RTVSPropertyOp38
 70
     1
102
RTVSPropertyOp39
 70
     1
102
RTVSPropertyOp40
 70
     1
102
RTVSPropertyOp41
 70
     1
102
RTVSPropertyOp42
 70
     1
102
RTVSPropertyOp43
 70
     1
102
RTVSPropertyOp44
 70
     1
102
RTVSPropertyOp45
 70
     1
102
RTVSPropertyOp46
 70
     1
102
RTVSPropertyOp47
 70
     1
102
RTVSPropertyOp48
 70
     1
102
RTVSPropertyOp49
 70
     1
102
RTVSPropertyOp50
 70
     1
102
RTVSPropertyOp51
 70
     0
102
RTVSPropertyOp52
 70
     0
102
RTVSPropertyOp53
 70
     1
102
RTVSPropertyOp54
 70
     1
102
RTVSPropertyOp55
 70
     1
102
RTVSPropertyOp56
 70
     1
102
RTVSPropertyOp57
 70
     1
102
RTVSPost2010Prop28
280
     0
102
RTVSPost2010PropOp28
 70
     1
102
RTVSPost2010Prop29
280
     1
102
RTVSPost2010PropOp29
 70
     1
102
RTVSPost2010Prop30
280
     1
102
RTVSPost2010PropOp30
 70
     1
102
RTVSPost2010Prop31
280
     0
102
RTVSPost2010PropOp31
 70
     1
102
RTVSPost2010Prop32
280
     0
102
RTVSPost2010PropOp32
 70
     1
102
RTVSPost2010Prop33
280
     0
102
RTVSPost2010PropOp33
 70
     1
102
RTVSPost2010Prop34
280
     0
102
RTVSPost2010PropOp34
 70
     1
102
RTVSPost2010Prop35
280
     0
102
RTVSPost2010PropOp35
 70
     1
102
RTVSPost2010Prop36
280
     0
102
RTVSPost2010PropOp36
 70
     1
102
RTVSPost2010Prop37
 90
       50
102
RTVSPost2010PropOp37
 70
     1
102
RTVSPost2010Prop38
140
0.0
102
RTVSPost2010PropOp38
 70
     1
102
RTVSPost2010Prop39
140
1.0
102
RTVSPost2010PropOp39
 70
     1
102
RTVSPost2010Prop40
 90
        0
102
RTVSPost2010PropOp40
 70
     1
102
RTVSPost2010Prop41ColorIndex
 90
       18
102
RTVSPost2010Prop41ColorRGB
 90
        0
102
RTVSPost2010PropOp41
 70
     1
102
RTVSPost2010Prop42
 90
       50
102
RTVSPost2010PropOp42
 70
     1
102
RTVSPost2010Prop43
 90
        3
102
RTVSPost2010PropOp43
 70
     1
102
RTVSPost2010Prop44ColorIndex
 90
        5
102
RTVSPost2010Prop44ColorRGB
 90
      255
102
RTVSPost2010PropOp44
 70
     1
102
RTVSPost2010Prop45
280
     0
102
RTVSPost2010PropOp45
 70
     1
102
RTVSPost2010Prop46
 90
       50
102
RTVSPost2010PropOp46
 70
     1
102
RTVSPost2010Prop47
 90
       50
102
RTVSPost2010PropOp47
 70
     1
102
RTVSPost2010Prop48
 90
       50
102
RTVSPost2010PropOp48
 70
     1
102
RTVSPost2010Prop49
280
     0
102
RTVSPost2010PropOp49
 70
     1
102
RTVSPost2010Prop50
 90
       50
102
RTVSPost2010PropOp50
 70
     1
102
RTVSPost2010Prop51ColorIndex
 90
      256
102
RTVSPost2010Prop51ColorRGB
 90
-16777216
102
RTVSPost2010PropOp51
 70
     0
102
RTVSPost2010Prop52
140
1.0
102
RTVSPost2010PropOp52
 70
     0
102
RTVSPost2010Prop53
 90
        2
102
RTVSPost2010PropOp53
 70
     1
102
RTVSPost2010Prop54
  1
strokes_ogs.tif
102
RTVSPost2010PropOp54
 70
     1
102
RTVSPost2010Prop55
280
     0
102
RTVSPost2010PropOp55
 70
     1
102
RTVSPost2010Prop56
140
1.0
102
RTVSPost2010PropOp56
 70
     1
102
RTVSPost2010Prop57
140
1.0
102
RTVSPost2010PropOp57
 70
     1
  0
XRECORD
  5
31815
102
{ACAD_REACTORS
330
31814
102
}
330
31814
100
AcDbXrecord
280
     1
102
RTVSPropertyOp0
 70
     1
102
RTVSPropertyOp1
 70
     1
102
RTVSPropertyOp2
 70
     1
102
RTVSPropertyOp3
 70
     1
102
RTVSPropertyOp4
 70
     1
102
RTVSPropertyOp5
 70
     1
102
RTVSPropertyOp6
 70
     1
102
RTVSPropertyOp7
 70
     1
102
RTVSPropertyOp8
 70
     1
102
RTVSPropertyOp9
 70
     1
102
RTVSPropertyOp10
 70
     1
102
RTVSPropertyOp11
 70
     1
102
RTVSPropertyOp12
 70
     1
102
RTVSPropertyOp13
 70
     1
102
RTVSPropertyOp14
 70
     1
102
RTVSPropertyOp15
 70
     1
102
RTVSPropertyOp16
 70
     1
102
RTVSPropertyOp17
 70
     1
102
RTVSPropertyOp18
 70
     1
102
RTVSPropertyOp19
 70
     1
102
RTVSPropertyOp20
 70
     1
102
RTVSPropertyOp21
 70
     1
102
RTVSPropertyOp22
 70
     1
102
RTVSPropertyOp23
 70
     1
102
RTVSPropertyOp24
 70
     1
102
RTVSPropertyOp25
 70
     1
102
RTVSPropertyOp26
 70
     1
102
RTVSPropertyOp27
 70
     1
102
RTVSPropertyOp28
 70
     1
102
RTVSPropertyOp29
 70
     1
102
RTVSPropertyOp30
 70
     1
102
RTVSPropertyOp31
 70
     1
102
RTVSPropertyOp32
 70
     1
102
RTVSPropertyOp33
 70
     1
102
RTVSPropertyOp34
 70
     1
102
RTVSPropertyOp35
 70
     1
102
RTVSPropertyOp36
 70
     1
102
RTVSPropertyOp37
 70
     1
102
RTVSPropertyOp38
 70
     1
102
RTVSPropertyOp39
 70
     1
102
RTVSPropertyOp40
 70
     1
102
RTVSPropertyOp41
 70
     1
102
RTVSPropertyOp42
 70
     1
102
RTVSPropertyOp43
 70
     1
102
RTVSPropertyOp44
 70
     1
102
RTVSPropertyOp45
 70
     1
102
RTVSPropertyOp46
 70
     1
102
RTVSPropertyOp47
 70
     1
102
RTVSPropertyOp48
 70
     1
102
RTVSPropertyOp49
 70
     1
102
RTVSPropertyOp50
 70
     1
102
RTVSPropertyOp51
 70
     0
102
RTVSPropertyOp52
 70
     0
102
RTVSPropertyOp53
 70
     1
102
RTVSPropertyOp54
 70
     1
102
RTVSPropertyOp55
 70
     1
102
RTVSPropertyOp56
 70
     1
102
RTVSPropertyOp57
 70
     1
102
RTVSPost2010Prop28
280
     0
102
RTVSPost2010PropOp28
 70
     1
102
RTVSPost2010Prop29
280
     1
102
RTVSPost2010PropOp29
 70
     1
102
RTVSPost2010Prop30
280
     1
102
RTVSPost2010PropOp30
 70
     1
102
RTVSPost2010Prop31
280
     0
102
RTVSPost2010PropOp31
 70
     1
102
RTVSPost2010Prop32
280
     0
102
RTVSPost2010PropOp32
 70
     1
102
RTVSPost2010Prop33
280
     0
102
RTVSPost2010PropOp33
 70
     1
102
RTVSPost2010Prop34
280
     0
102
RTVSPost2010PropOp34
 70
     1
102
RTVSPost2010Prop35
280
     0
102
RTVSPost2010PropOp35
 70
     1
102
RTVSPost2010Prop36
280
     0
102
RTVSPost2010PropOp36
 70
     1
102
RTVSPost2010Prop37
 90
       50
102
RTVSPost2010PropOp37
 70
     1
102
RTVSPost2010Prop38
140
0.0
102
RTVSPost2010PropOp38
 70
     1
102
RTVSPost2010Prop39
140
1.0
102
RTVSPost2010PropOp39
 70
     1
102
RTVSPost2010Prop40
 90
        0
102
RTVSPost2010PropOp40
 70
     1
102
RTVSPost2010Prop41ColorIndex
 90
       18
102
RTVSPost2010Prop41ColorRGB
 90
        0
102
RTVSPost2010PropOp41
 70
     1
102
RTVSPost2010Prop42
 90
       50
102
RTVSPost2010PropOp42
 70
     1
102
RTVSPost2010Prop43
 90
        3
102
RTVSPost2010PropOp43
 70
     1
102
RTVSPost2010Prop44ColorIndex
 90
        5
102
RTVSPost2010Prop44ColorRGB
 90
      255
102
RTVSPost2010PropOp44
 70
     1
102
RTVSPost2010Prop45
280
     0
102
RTVSPost2010PropOp45
 70
     1
102
RTVSPost2010Prop46
 90
       50
102
RTVSPost2010PropOp46
 70
     1
102
RTVSPost2010Prop47
 90
       50
102
RTVSPost2010PropOp47
 70
     1
102
RTVSPost2010Prop48
 90
       50
102
RTVSPost2010PropOp48
 70
     1
102
RTVSPost2010Prop49
280
     0
102
RTVSPost2010PropOp49
 70
     1
102
RTVSPost2010Prop50
 90
       50
102
RTVSPost2010PropOp50
 70
     1
102
RTVSPost2010Prop51ColorIndex
 90
      256
102
RTVSPost2010Prop51ColorRGB
 90
-16777216
102
RTVSPost2010PropOp51
 70
     0
102
RTVSPost2010Prop52
140
1.0
102
RTVSPost2010PropOp52
 70
     0
102
RTVSPost2010Prop53
 90
        2
102
RTVSPost2010PropOp53
 70
     1
102
RTVSPost2010Prop54
  1
strokes_ogs.tif
102
RTVSPost2010PropOp54
 70
     1
102
RTVSPost2010Prop55
280
     0
102
RTVSPost2010PropOp55
 70
     1
102
RTVSPost2010Prop56
140
1.0
102
RTVSPost2010PropOp56
 70
     1
102
RTVSPost2010Prop57
140
1.0
102
RTVSPost2010PropOp57
 70
     1
  0
XRECORD
  5
31817
102
{ACAD_REACTORS
330
31816
102
}
330
31816
100
AcDbXrecord
280
     1
102
RTVSPropertyOp0
 70
     0
102
RTVSPropertyOp1
 70
     0
102
RTVSPropertyOp2
 70
     0
102
RTVSPropertyOp3
 70
     0
102
RTVSPropertyOp4
 70
     0
102
RTVSPropertyOp5
 70
     0
102
RTVSPropertyOp6
 70
     0
102
RTVSPropertyOp7
 70
     0
102
RTVSPropertyOp8
 70
     0
102
RTVSPropertyOp9
 70
     0
102
RTVSPropertyOp10
 70
     0
102
RTVSPropertyOp11
 70
     0
102
RTVSPropertyOp12
 70
     0
102
RTVSPropertyOp13
 70
     0
102
RTVSPropertyOp14
 70
     2
102
RTVSPropertyOp15
 70
     0
102
RTVSPropertyOp16
 70
     0
102
RTVSPropertyOp17
 70
     0
102
RTVSPropertyOp18
 70
     0
102
RTVSPropertyOp19
 70
     0
102
RTVSPropertyOp20
 70
     0
102
RTVSPropertyOp21
 70
     0
102
RTVSPropertyOp22
 70
     0
102
RTVSPropertyOp23
 70
     0
102
RTVSPropertyOp24
 70
     0
102
RTVSPropertyOp25
 70
     0
102
RTVSPropertyOp26
 70
     0
102
RTVSPropertyOp27
 70
     0
102
RTVSPropertyOp28
 70
     0
102
RTVSPropertyOp29
 70
     0
102
RTVSPropertyOp30
 70
     0
102
RTVSPropertyOp31
 70
     0
102
RTVSPropertyOp32
 70
     0
102
RTVSPropertyOp33
 70
     0
102
RTVSPropertyOp34
 70
     0
102
RTVSPropertyOp35
 70
     0
102
RTVSPropertyOp36
 70
     0
102
RTVSPropertyOp37
 70
     0
102
RTVSPropertyOp38
 70
     0
102
RTVSPropertyOp39
 70
     0
102
RTVSPropertyOp40
 70
     0
102
RTVSPropertyOp41
 70
     0
102
RTVSPropertyOp42
 70
     0
102
RTVSPropertyOp43
 70
     0
102
RTVSPropertyOp44
 70
     0
102
RTVSPropertyOp45
 70
     0
102
RTVSPropertyOp46
 70
     0
102
RTVSPropertyOp47
 70
     0
102
RTVSPropertyOp48
 70
     0
102
RTVSPropertyOp49
 70
     0
102
RTVSPropertyOp50
 70
     0
102
RTVSPropertyOp51
 70
     0
102
RTVSPropertyOp52
 70
     0
102
RTVSPropertyOp53
 70
     0
102
RTVSPropertyOp54
 70
     0
102
RTVSPropertyOp55
 70
     0
102
RTVSPropertyOp56
 70
     0
102
RTVSPropertyOp57
 70
     0
102
RTVSPost2010Prop28
280
     0
102
RTVSPost2010PropOp28
 70
     0
102
RTVSPost2010Prop29
280
     1
102
RTVSPost2010PropOp29
 70
     0
102
RTVSPost2010Prop30
280
     1
102
RTVSPost2010PropOp30
 70
     0
102
RTVSPost2010Prop31
280
     0
102
RTVSPost2010PropOp31
 70
     0
102
RTVSPost2010Prop32
280
     0
102
RTVSPost2010PropOp32
 70
     0
102
RTVSPost2010Prop33
280
     0
102
RTVSPost2010PropOp33
 70
     0
102
RTVSPost2010Prop34
280
     0
102
RTVSPost2010PropOp34
 70
     0
102
RTVSPost2010Prop35
280
     0
102
RTVSPost2010PropOp35
 70
     0
102
RTVSPost2010Prop36
280
     0
102
RTVSPost2010PropOp36
 70
     0
102
RTVSPost2010Prop37
 90
       50
102
RTVSPost2010PropOp37
 70
     0
102
RTVSPost2010Prop38
140
0.0
102
RTVSPost2010PropOp38
 70
     0
102
RTVSPost2010Prop39
140
1.0
102
RTVSPost2010PropOp39
 70
     0
102
RTVSPost2010Prop40
 90
        0
102
RTVSPost2010PropOp40
 70
     0
102
RTVSPost2010Prop41ColorIndex
 90
       18
102
RTVSPost2010Prop41ColorRGB
 90
        0
102
RTVSPost2010PropOp41
 70
     0
102
RTVSPost2010Prop42
 90
       50
102
RTVSPost2010PropOp42
 70
     0
102
RTVSPost2010Prop43
 90
        3
102
RTVSPost2010PropOp43
 70
     0
102
RTVSPost2010Prop44ColorIndex
 90
        5
102
RTVSPost2010Prop44ColorRGB
 90
      255
102
RTVSPost2010PropOp44
 70
     0
102
RTVSPost2010Prop45
280
     0
102
RTVSPost2010PropOp45
 70
     0
102
RTVSPost2010Prop46
 90
       50
102
RTVSPost2010PropOp46
 70
     0
102
RTVSPost2010Prop47
 90
       50
102
RTVSPost2010PropOp47
 70
     0
102
RTVSPost2010Prop48
 90
       50
102
RTVSPost2010PropOp48
 70
     0
102
RTVSPost2010Prop49
280
     0
102
RTVSPost2010PropOp49
 70
     0
102
RTVSPost2010Prop50
 90
       50
102
RTVSPost2010PropOp50
 70
     0
102
RTVSPost2010Prop51ColorIndex
 90
      256
102
RTVSPost2010Prop51ColorRGB
 90
-16777216
102
RTVSPost2010PropOp51
 70
     0
102
RTVSPost2010Prop52
140
1.0
102
RTVSPost2010PropOp52
 70
     0
102
RTVSPost2010Prop53
 90
        2
102
RTVSPost2010PropOp53
 70
     0
102
RTVSPost2010Prop54
  1
strokes_ogs.tif
102
RTVSPost2010PropOp54
 70
     0
102
RTVSPost2010Prop55
280
     0
102
RTVSPost2010PropOp55
 70
     0
102
RTVSPost2010Prop56
140
1.0
102
RTVSPost2010PropOp56
 70
     0
102
RTVSPost2010Prop57
140
1.0
102
RTVSPost2010PropOp57
 70
     0
  0
XRECORD
  5
31819
102
{ACAD_REACTORS
330
31818
102
}
330
31818
100
AcDbXrecord
280
     1
102
RTVSPropertyOp0
 70
     1
102
RTVSPropertyOp1
 70
     1
102
RTVSPropertyOp2
 70
     1
102
RTVSPropertyOp3
 70
     1
102
RTVSPropertyOp4
 70
     1
102
RTVSPropertyOp5
 70
     1
102
RTVSPropertyOp6
 70
     1
102
RTVSPropertyOp7
 70
     1
102
RTVSPropertyOp8
 70
     1
102
RTVSPropertyOp9
 70
     1
102
RTVSPropertyOp10
 70
     1
102
RTVSPropertyOp11
 70
     1
102
RTVSPropertyOp12
 70
     1
102
RTVSPropertyOp13
 70
     1
102
RTVSPropertyOp14
 70
     1
102
RTVSPropertyOp15
 70
     1
102
RTVSPropertyOp16
 70
     1
102
RTVSPropertyOp17
 70
     1
102
RTVSPropertyOp18
 70
     1
102
RTVSPropertyOp19
 70
     1
102
RTVSPropertyOp20
 70
     1
102
RTVSPropertyOp21
 70
     1
102
RTVSPropertyOp22
 70
     1
102
RTVSPropertyOp23
 70
     1
102
RTVSPropertyOp24
 70
     1
102
RTVSPropertyOp25
 70
     1
102
RTVSPropertyOp26
 70
     1
102
RTVSPropertyOp27
 70
     1
102
RTVSPropertyOp28
 70
     1
102
RTVSPropertyOp29
 70
     1
102
RTVSPropertyOp30
 70
     1
102
RTVSPropertyOp31
 70
     1
102
RTVSPropertyOp32
 70
     1
102
RTVSPropertyOp33
 70
     1
102
RTVSPropertyOp34
 70
     1
102
RTVSPropertyOp35
 70
     1
102
RTVSPropertyOp36
 70
     1
102
RTVSPropertyOp37
 70
     1
102
RTVSPropertyOp38
 70
     1
102
RTVSPropertyOp39
 70
     1
102
RTVSPropertyOp40
 70
     1
102
RTVSPropertyOp41
 70
     1
102
RTVSPropertyOp42
 70
     1
102
RTVSPropertyOp43
 70
     1
102
RTVSPropertyOp44
 70
     1
102
RTVSPropertyOp45
 70
     1
102
RTVSPropertyOp46
 70
     1
102
RTVSPropertyOp47
 70
     1
102
RTVSPropertyOp48
 70
     1
102
RTVSPropertyOp49
 70
     1
102
RTVSPropertyOp50
 70
     1
102
RTVSPropertyOp51
 70
     0
102
RTVSPropertyOp52
 70
     0
102
RTVSPropertyOp53
 70
     1
102
RTVSPropertyOp54
 70
     1
102
RTVSPropertyOp55
 70
     1
102
RTVSPropertyOp56
 70
     1
102
RTVSPropertyOp57
 70
     1
102
RTVSPost2010Prop28
280
     0
102
RTVSPost2010PropOp28
 70
     1
102
RTVSPost2010Prop29
280
     1
102
RTVSPost2010PropOp29
 70
     1
102
RTVSPost2010Prop30
280
     1
102
RTVSPost2010PropOp30
 70
     1
102
RTVSPost2010Prop31
280
     0
102
RTVSPost2010PropOp31
 70
     1
102
RTVSPost2010Prop32
280
     0
102
RTVSPost2010PropOp32
 70
     1
102
RTVSPost2010Prop33
280
     0
102
RTVSPost2010PropOp33
 70
     1
102
RTVSPost2010Prop34
280
     0
102
RTVSPost2010PropOp34
 70
     1
102
RTVSPost2010Prop35
280
     0
102
RTVSPost2010PropOp35
 70
     1
102
RTVSPost2010Prop36
280
     0
102
RTVSPost2010PropOp36
 70
     1
102
RTVSPost2010Prop37
 90
       50
102
RTVSPost2010PropOp37
 70
     1
102
RTVSPost2010Prop38
140
0.0
102
RTVSPost2010PropOp38
 70
     1
102
RTVSPost2010Prop39
140
1.0
102
RTVSPost2010PropOp39
 70
     1
102
RTVSPost2010Prop40
 90
        0
102
RTVSPost2010PropOp40
 70
     1
102
RTVSPost2010Prop41ColorIndex
 90
       18
102
RTVSPost2010Prop41ColorRGB
 90
        0
102
RTVSPost2010PropOp41
 70
     1
102
RTVSPost2010Prop42
 90
       50
102
RTVSPost2010PropOp42
 70
     1
102
RTVSPost2010Prop43
 90
        3
102
RTVSPost2010PropOp43
 70
     1
102
RTVSPost2010Prop44ColorIndex
 90
        5
102
RTVSPost2010Prop44ColorRGB
 90
      255
102
RTVSPost2010PropOp44
 70
     1
102
RTVSPost2010Prop45
280
     0
102
RTVSPost2010PropOp45
 70
     1
102
RTVSPost2010Prop46
 90
       50
102
RTVSPost2010PropOp46
 70
     1
102
RTVSPost2010Prop47
 90
       50
102
RTVSPost2010PropOp47
 70
     1
102
RTVSPost2010Prop48
 90
       50
102
RTVSPost2010PropOp48
 70
     1
102
RTVSPost2010Prop49
280
     0
102
RTVSPost2010PropOp49
 70
     1
102
RTVSPost2010Prop50
 90
       50
102
RTVSPost2010PropOp50
 70
     1
102
RTVSPost2010Prop51ColorIndex
 90
      256
102
RTVSPost2010Prop51ColorRGB
 90
-16777216
102
RTVSPost2010PropOp51
 70
     0
102
RTVSPost2010Prop52
140
1.0
102
RTVSPost2010PropOp52
 70
     0
102
RTVSPost2010Prop53
 90
        2
102
RTVSPost2010PropOp53
 70
     1
102
RTVSPost2010Prop54
  1
strokes_ogs.tif
102
RTVSPost2010PropOp54
 70
     1
102
RTVSPost2010Prop55
280
     0
102
RTVSPost2010PropOp55
 70
     1
102
RTVSPost2010Prop56
140
1.0
102
RTVSPost2010PropOp56
 70
     1
102
RTVSPost2010Prop57
140
1.0
102
RTVSPost2010PropOp57
 70
     1
  0
XRECORD
  5
3181B
102
{ACAD_REACTORS
330
3181A
102
}
330
3181A
100
AcDbXrecord
280
     1
102
RTVSPropertyOp0
 70
     0
102
RTVSPropertyOp1
 70
     0
102
RTVSPropertyOp2
 70
     0
102
RTVSPropertyOp3
 70
     0
102
RTVSPropertyOp4
 70
     0
102
RTVSPropertyOp5
 70
     0
102
RTVSPropertyOp6
 70
     0
102
RTVSPropertyOp7
 70
     0
102
RTVSPropertyOp8
 70
     0
102
RTVSPropertyOp9
 70
     0
102
RTVSPropertyOp10
 70
     0
102
RTVSPropertyOp11
 70
     0
102
RTVSPropertyOp12
 70
     0
102
RTVSPropertyOp13
 70
     0
102
RTVSPropertyOp14
 70
     2
102
RTVSPropertyOp15
 70
     0
102
RTVSPropertyOp16
 70
     0
102
RTVSPropertyOp17
 70
     0
102
RTVSPropertyOp18
 70
     0
102
RTVSPropertyOp19
 70
     0
102
RTVSPropertyOp20
 70
     0
102
RTVSPropertyOp21
 70
     0
102
RTVSPropertyOp22
 70
     0
102
RTVSPropertyOp23
 70
     0
102
RTVSPropertyOp24
 70
     0
102
RTVSPropertyOp25
 70
     0
102
RTVSPropertyOp26
 70
     0
102
RTVSPropertyOp27
 70
     0
102
RTVSPropertyOp28
 70
     0
102
RTVSPropertyOp29
 70
     0
102
RTVSPropertyOp30
 70
     0
102
RTVSPropertyOp31
 70
     0
102
RTVSPropertyOp32
 70
     0
102
RTVSPropertyOp33
 70
     0
102
RTVSPropertyOp34
 70
     0
102
RTVSPropertyOp35
 70
     0
102
RTVSPropertyOp36
 70
     0
102
RTVSPropertyOp37
 70
     0
102
RTVSPropertyOp38
 70
     0
102
RTVSPropertyOp39
 70
     0
102
RTVSPropertyOp40
 70
     0
102
RTVSPropertyOp41
 70
     0
102
RTVSPropertyOp42
 70
     0
102
RTVSPropertyOp43
 70
     0
102
RTVSPropertyOp44
 70
     0
102
RTVSPropertyOp45
 70
     0
102
RTVSPropertyOp46
 70
     0
102
RTVSPropertyOp47
 70
     0
102
RTVSPropertyOp48
 70
     0
102
RTVSPropertyOp49
 70
     0
102
RTVSPropertyOp50
 70
     0
102
RTVSPropertyOp51
 70
     0
102
RTVSPropertyOp52
 70
     0
102
RTVSPropertyOp53
 70
     0
102
RTVSPropertyOp54
 70
     0
102
RTVSPropertyOp55
 70
     0
102
RTVSPropertyOp56
 70
     0
102
RTVSPropertyOp57
 70
     0
102
RTVSPost2010Prop28
280
     0
102
RTVSPost2010PropOp28
 70
     0
102
RTVSPost2010Prop29
280
     1
102
RTVSPost2010PropOp29
 70
     0
102
RTVSPost2010Prop30
280
     1
102
RTVSPost2010PropOp30
 70
     0
102
RTVSPost2010Prop31
280
     0
102
RTVSPost2010PropOp31
 70
     0
102
RTVSPost2010Prop32
280
     0
102
RTVSPost2010PropOp32
 70
     0
102
RTVSPost2010Prop33
280
     0
102
RTVSPost2010PropOp33
 70
     0
102
RTVSPost2010Prop34
280
     0
102
RTVSPost2010PropOp34
 70
     0
102
RTVSPost2010Prop35
280
     0
102
RTVSPost2010PropOp35
 70
     0
102
RTVSPost2010Prop36
280
     0
102
RTVSPost2010PropOp36
 70
     0
102
RTVSPost2010Prop37
 90
       50
102
RTVSPost2010PropOp37
 70
     0
102
RTVSPost2010Prop38
140
0.0
102
RTVSPost2010PropOp38
 70
     0
102
RTVSPost2010Prop39
140
1.0
102
RTVSPost2010PropOp39
 70
     0
102
RTVSPost2010Prop40
 90
        0
102
RTVSPost2010PropOp40
 70
     0
102
RTVSPost2010Prop41ColorIndex
 90
       18
102
RTVSPost2010Prop41ColorRGB
 90
        0
102
RTVSPost2010PropOp41
 70
     0
102
RTVSPost2010Prop42
 90
       50
102
RTVSPost2010PropOp42
 70
     0
102
RTVSPost2010Prop43
 90
        3
102
RTVSPost2010PropOp43
 70
     0
102
RTVSPost2010Prop44ColorIndex
 90
        5
102
RTVSPost2010Prop44ColorRGB
 90
      255
102
RTVSPost2010PropOp44
 70
     0
102
RTVSPost2010Prop45
280
     0
102
RTVSPost2010PropOp45
 70
     0
102
RTVSPost2010Prop46
 90
       50
102
RTVSPost2010PropOp46
 70
     0
102
RTVSPost2010Prop47
 90
       50
102
RTVSPost2010PropOp47
 70
     0
102
RTVSPost2010Prop48
 90
       50
102
RTVSPost2010PropOp48
 70
     0
102
RTVSPost2010Prop49
280
     0
102
RTVSPost2010PropOp49
 70
     0
102
RTVSPost2010Prop50
 90
       50
102
RTVSPost2010PropOp50
 70
     0
102
RTVSPost2010Prop51ColorIndex
 90
      256
102
RTVSPost2010Prop51ColorRGB
 90
-16777216
102
RTVSPost2010PropOp51
 70
     0
102
RTVSPost2010Prop52
140
1.0
102
RTVSPost2010PropOp52
 70
     0
102
RTVSPost2010Prop53
 90
        2
102
RTVSPost2010PropOp53
 70
     0
102
RTVSPost2010Prop54
  1
strokes_ogs.tif
102
RTVSPost2010PropOp54
 70
     0
102
RTVSPost2010Prop55
280
     0
102
RTVSPost2010PropOp55
 70
     0
102
RTVSPost2010Prop56
140
1.0
102
RTVSPost2010PropOp56
 70
     0
102
RTVSPost2010Prop57
140
1.0
102
RTVSPost2010PropOp57
 70
     0
  0
XRECORD
  5
3181D
102
{ACAD_REACTORS
330
3181C
102
}
330
3181C
100
AcDbXrecord
280
     1
102
RTVSPropertyOp0
 70
     1
102
RTVSPropertyOp1
 70
     1
102
RTVSPropertyOp2
 70
     1
102
RTVSPropertyOp3
 70
     1
102
RTVSPropertyOp4
 70
     1
102
RTVSPropertyOp5
 70
     1
102
RTVSPropertyOp6
 70
     1
102
RTVSPropertyOp7
 70
     1
102
RTVSPropertyOp8
 70
     1
102
RTVSPropertyOp9
 70
     1
102
RTVSPropertyOp10
 70
     1
102
RTVSPropertyOp11
 70
     1
102
RTVSPropertyOp12
 70
     1
102
RTVSPropertyOp13
 70
     1
102
RTVSPropertyOp14
 70
     1
102
RTVSPropertyOp15
 70
     1
102
RTVSPropertyOp16
 70
     1
102
RTVSPropertyOp17
 70
     1
102
RTVSPropertyOp18
 70
     1
102
RTVSPropertyOp19
 70
     1
102
RTVSPropertyOp20
 70
     1
102
RTVSPropertyOp21
 70
     1
102
RTVSPropertyOp22
 70
     1
102
RTVSPropertyOp23
 70
     1
102
RTVSPropertyOp24
 70
     1
102
RTVSPropertyOp25
 70
     1
102
RTVSPropertyOp26
 70
     1
102
RTVSPropertyOp27
 70
     1
102
RTVSPropertyOp28
 70
     1
102
RTVSPropertyOp29
 70
     1
102
RTVSPropertyOp30
 70
     1
102
RTVSPropertyOp31
 70
     1
102
RTVSPropertyOp32
 70
     1
102
RTVSPropertyOp33
 70
     1
102
RTVSPropertyOp34
 70
     1
102
RTVSPropertyOp35
 70
     1
102
RTVSPropertyOp36
 70
     1
102
RTVSPropertyOp37
 70
     1
102
RTVSPropertyOp38
 70
     1
102
RTVSPropertyOp39
 70
     1
102
RTVSPropertyOp40
 70
     1
102
RTVSPropertyOp41
 70
     1
102
RTVSPropertyOp42
 70
     1
102
RTVSPropertyOp43
 70
     1
102
RTVSPropertyOp44
 70
     1
102
RTVSPropertyOp45
 70
     1
102
RTVSPropertyOp46
 70
     1
102
RTVSPropertyOp47
 70
     1
102
RTVSPropertyOp48
 70
     1
102
RTVSPropertyOp49
 70
     1
102
RTVSPropertyOp50
 70
     1
102
RTVSPropertyOp51
 70
     0
102
RTVSPropertyOp52
 70
     0
102
RTVSPropertyOp53
 70
     1
102
RTVSPropertyOp54
 70
     1
102
RTVSPropertyOp55
 70
     1
102
RTVSPropertyOp56
 70
     1
102
RTVSPropertyOp57
 70
     1
102
RTVSPost2010Prop28
280
     0
102
RTVSPost2010PropOp28
 70
     1
102
RTVSPost2010Prop29
280
     1
102
RTVSPost2010PropOp29
 70
     1
102
RTVSPost2010Prop30
280
     1
102
RTVSPost2010PropOp30
 70
     1
102
RTVSPost2010Prop31
280
     0
102
RTVSPost2010PropOp31
 70
     1
102
RTVSPost2010Prop32
280
     0
102
RTVSPost2010PropOp32
 70
     1
102
RTVSPost2010Prop33
280
     0
102
RTVSPost2010PropOp33
 70
     1
102
RTVSPost2010Prop34
280
     0
102
RTVSPost2010PropOp34
 70
     1
102
RTVSPost2010Prop35
280
     0
102
RTVSPost2010PropOp35
 70
     1
102
RTVSPost2010Prop36
280
     0
102
RTVSPost2010PropOp36
 70
     1
102
RTVSPost2010Prop37
 90
       50
102
RTVSPost2010PropOp37
 70
     1
102
RTVSPost2010Prop38
140
0.0
102
RTVSPost2010PropOp38
 70
     1
102
RTVSPost2010Prop39
140
1.0
102
RTVSPost2010PropOp39
 70
     1
102
RTVSPost2010Prop40
 90
        0
102
RTVSPost2010PropOp40
 70
     1
102
RTVSPost2010Prop41ColorIndex
 90
       18
102
RTVSPost2010Prop41ColorRGB
 90
        0
102
RTVSPost2010PropOp41
 70
     1
102
RTVSPost2010Prop42
 90
       50
102
RTVSPost2010PropOp42
 70
     1
102
RTVSPost2010Prop43
 90
        3
102
RTVSPost2010PropOp43
 70
     1
102
RTVSPost2010Prop44ColorIndex
 90
        5
102
RTVSPost2010Prop44ColorRGB
 90
      255
102
RTVSPost2010PropOp44
 70
     1
102
RTVSPost2010Prop45
280
     0
102
RTVSPost2010PropOp45
 70
     1
102
RTVSPost2010Prop46
 90
       50
102
RTVSPost2010PropOp46
 70
     1
102
RTVSPost2010Prop47
 90
       50
102
RTVSPost2010PropOp47
 70
     1
102
RTVSPost2010Prop48
 90
       50
102
RTVSPost2010PropOp48
 70
     1
102
RTVSPost2010Prop49
280
     0
102
RTVSPost2010PropOp49
 70
     1
102
RTVSPost2010Prop50
 90
       50
102
RTVSPost2010PropOp50
 70
     1
102
RTVSPost2010Prop51ColorIndex
 90
      256
102
RTVSPost2010Prop51ColorRGB
 90
-16777216
102
RTVSPost2010PropOp51
 70
     0
102
RTVSPost2010Prop52
140
1.0
102
RTVSPost2010PropOp52
 70
     0
102
RTVSPost2010Prop53
 90
        2
102
RTVSPost2010PropOp53
 70
     1
102
RTVSPost2010Prop54
  1
strokes_ogs.tif
102
RTVSPost2010PropOp54
 70
     1
102
RTVSPost2010Prop55
280
     0
102
RTVSPost2010PropOp55
 70
     1
102
RTVSPost2010Prop56
140
1.0
102
RTVSPost2010PropOp56
 70
     1
102
RTVSPost2010Prop57
140
1.0
102
RTVSPost2010PropOp57
 70
     1
  0
XRECORD
  5
3181F
102
{ACAD_REACTORS
330
3181E
102
}
330
3181E
100
AcDbXrecord
280
     1
102
RTVSPropertyOp0
 70
     1
102
RTVSPropertyOp1
 70
     1
102
RTVSPropertyOp2
 70
     1
102
RTVSPropertyOp3
 70
     1
102
RTVSPropertyOp4
 70
     1
102
RTVSPropertyOp5
 70
     1
102
RTVSPropertyOp6
 70
     1
102
RTVSPropertyOp7
 70
     1
102
RTVSPropertyOp8
 70
     1
102
RTVSPropertyOp9
 70
     1
102
RTVSPropertyOp10
 70
     1
102
RTVSPropertyOp11
 70
     1
102
RTVSPropertyOp12
 70
     1
102
RTVSPropertyOp13
 70
     1
102
RTVSPropertyOp14
 70
     1
102
RTVSPropertyOp15
 70
     1
102
RTVSPropertyOp16
 70
     1
102
RTVSPropertyOp17
 70
     1
102
RTVSPropertyOp18
 70
     1
102
RTVSPropertyOp19
 70
     1
102
RTVSPropertyOp20
 70
     1
102
RTVSPropertyOp21
 70
     1
102
RTVSPropertyOp22
 70
     1
102
RTVSPropertyOp23
 70
     1
102
RTVSPropertyOp24
 70
     1
102
RTVSPropertyOp25
 70
     1
102
RTVSPropertyOp26
 70
     1
102
RTVSPropertyOp27
 70
     1
102
RTVSPropertyOp28
 70
     1
102
RTVSPropertyOp29
 70
     1
102
RTVSPropertyOp30
 70
     1
102
RTVSPropertyOp31
 70
     1
102
RTVSPropertyOp32
 70
     1
102
RTVSPropertyOp33
 70
     1
102
RTVSPropertyOp34
 70
     1
102
RTVSPropertyOp35
 70
     1
102
RTVSPropertyOp36
 70
     1
102
RTVSPropertyOp37
 70
     1
102
RTVSPropertyOp38
 70
     1
102
RTVSPropertyOp39
 70
     1
102
RTVSPropertyOp40
 70
     1
102
RTVSPropertyOp41
 70
     1
102
RTVSPropertyOp42
 70
     1
102
RTVSPropertyOp43
 70
     1
102
RTVSPropertyOp44
 70
     1
102
RTVSPropertyOp45
 70
     1
102
RTVSPropertyOp46
 70
     1
102
RTVSPropertyOp47
 70
     1
102
RTVSPropertyOp48
 70
     1
102
RTVSPropertyOp49
 70
     1
102
RTVSPropertyOp50
 70
     1
102
RTVSPropertyOp51
 70
     0
102
RTVSPropertyOp52
 70
     0
102
RTVSPropertyOp53
 70
     1
102
RTVSPropertyOp54
 70
     1
102
RTVSPropertyOp55
 70
     1
102
RTVSPropertyOp56
 70
     1
102
RTVSPropertyOp57
 70
     1
102
RTVSPost2010Prop28
280
     0
102
RTVSPost2010PropOp28
 70
     1
102
RTVSPost2010Prop29
280
     1
102
RTVSPost2010PropOp29
 70
     1
102
RTVSPost2010Prop30
280
     1
102
RTVSPost2010PropOp30
 70
     1
102
RTVSPost2010Prop31
280
     0
102
RTVSPost2010PropOp31
 70
     1
102
RTVSPost2010Prop32
280
     0
102
RTVSPost2010PropOp32
 70
     1
102
RTVSPost2010Prop33
280
     0
102
RTVSPost2010PropOp33
 70
     1
102
RTVSPost2010Prop34
280
     0
102
RTVSPost2010PropOp34
 70
     1
102
RTVSPost2010Prop35
280
     0
102
RTVSPost2010PropOp35
 70
     1
102
RTVSPost2010Prop36
280
     0
102
RTVSPost2010PropOp36
 70
     1
102
RTVSPost2010Prop37
 90
       50
102
RTVSPost2010PropOp37
 70
     1
102
RTVSPost2010Prop38
140
0.0
102
RTVSPost2010PropOp38
 70
     1
102
RTVSPost2010Prop39
140
1.0
102
RTVSPost2010PropOp39
 70
     1
102
RTVSPost2010Prop40
 90
        0
102
RTVSPost2010PropOp40
 70
     1
102
RTVSPost2010Prop41ColorIndex
 90
       18
102
RTVSPost2010Prop41ColorRGB
 90
        0
102
RTVSPost2010PropOp41
 70
     1
102
RTVSPost2010Prop42
 90
       50
102
RTVSPost2010PropOp42
 70
     1
102
RTVSPost2010Prop43
 90
        3
102
RTVSPost2010PropOp43
 70
     1
102
RTVSPost2010Prop44ColorIndex
 90
        5
102
RTVSPost2010Prop44ColorRGB
 90
      255
102
RTVSPost2010PropOp44
 70
     1
102
RTVSPost2010Prop45
280
     0
102
RTVSPost2010PropOp45
 70
     1
102
RTVSPost2010Prop46
 90
       50
102
RTVSPost2010PropOp46
 70
     1
102
RTVSPost2010Prop47
 90
       50
102
RTVSPost2010PropOp47
 70
     1
102
RTVSPost2010Prop48
 90
       50
102
RTVSPost2010PropOp48
 70
     1
102
RTVSPost2010Prop49
280
     0
102
RTVSPost2010PropOp49
 70
     1
102
RTVSPost2010Prop50
 90
       50
102
RTVSPost2010PropOp50
 70
     1
102
RTVSPost2010Prop51ColorIndex
 90
      256
102
RTVSPost2010Prop51ColorRGB
 90
-16777216
102
RTVSPost2010PropOp51
 70
     0
102
RTVSPost2010Prop52
140
1.0
102
RTVSPost2010PropOp52
 70
     0
102
RTVSPost2010Prop53
 90
        2
102
RTVSPost2010PropOp53
 70
     1
102
RTVSPost2010Prop54
  1
strokes_ogs.tif
102
RTVSPost2010PropOp54
 70
     1
102
RTVSPost2010Prop55
280
     0
102
RTVSPost2010PropOp55
 70
     1
102
RTVSPost2010Prop56
140
1.0
102
RTVSPost2010PropOp56
 70
     1
102
RTVSPost2010Prop57
140
1.0
102
RTVSPost2010PropOp57
 70
     1
  0
XRECORD
  5
31821
102
{ACAD_REACTORS
330
31820
102
}
330
31820
100
AcDbXrecord
280
     1
102
RTVSPropertyOp0
 70
     1
102
RTVSPropertyOp1
 70
     1
102
RTVSPropertyOp2
 70
     1
102
RTVSPropertyOp3
 70
     1
102
RTVSPropertyOp4
 70
     1
102
RTVSPropertyOp5
 70
     1
102
RTVSPropertyOp6
 70
     1
102
RTVSPropertyOp7
 70
     1
102
RTVSPropertyOp8
 70
     1
102
RTVSPropertyOp9
 70
     1
102
RTVSPropertyOp10
 70
     1
102
RTVSPropertyOp11
 70
     1
102
RTVSPropertyOp12
 70
     1
102
RTVSPropertyOp13
 70
     1
102
RTVSPropertyOp14
 70
     1
102
RTVSPropertyOp15
 70
     1
102
RTVSPropertyOp16
 70
     1
102
RTVSPropertyOp17
 70
     1
102
RTVSPropertyOp18
 70
     1
102
RTVSPropertyOp19
 70
     1
102
RTVSPropertyOp20
 70
     1
102
RTVSPropertyOp21
 70
     1
102
RTVSPropertyOp22
 70
     1
102
RTVSPropertyOp23
 70
     1
102
RTVSPropertyOp24
 70
     1
102
RTVSPropertyOp25
 70
     1
102
RTVSPropertyOp26
 70
     1
102
RTVSPropertyOp27
 70
     1
102
RTVSPropertyOp28
 70
     1
102
RTVSPropertyOp29
 70
     1
102
RTVSPropertyOp30
 70
     1
102
RTVSPropertyOp31
 70
     1
102
RTVSPropertyOp32
 70
     1
102
RTVSPropertyOp33
 70
     1
102
RTVSPropertyOp34
 70
     1
102
RTVSPropertyOp35
 70
     1
102
RTVSPropertyOp36
 70
     1
102
RTVSPropertyOp37
 70
     1
102
RTVSPropertyOp38
 70
     1
102
RTVSPropertyOp39
 70
     1
102
RTVSPropertyOp40
 70
     1
102
RTVSPropertyOp41
 70
     1
102
RTVSPropertyOp42
 70
     1
102
RTVSPropertyOp43
 70
     1
102
RTVSPropertyOp44
 70
     1
102
RTVSPropertyOp45
 70
     1
102
RTVSPropertyOp46
 70
     1
102
RTVSPropertyOp47
 70
     1
102
RTVSPropertyOp48
 70
     1
102
RTVSPropertyOp49
 70
     1
102
RTVSPropertyOp50
 70
     1
102
RTVSPropertyOp51
 70
     0
102
RTVSPropertyOp52
 70
     0
102
RTVSPropertyOp53
 70
     1
102
RTVSPropertyOp54
 70
     1
102
RTVSPropertyOp55
 70
     1
102
RTVSPropertyOp56
 70
     1
102
RTVSPropertyOp57
 70
     1
102
RTVSPost2010Prop28
280
     0
102
RTVSPost2010PropOp28
 70
     1
102
RTVSPost2010Prop29
280
     1
102
RTVSPost2010PropOp29
 70
     1
102
RTVSPost2010Prop30
280
     1
102
RTVSPost2010PropOp30
 70
     1
102
RTVSPost2010Prop31
280
     0
102
RTVSPost2010PropOp31
 70
     1
102
RTVSPost2010Prop32
280
     0
102
RTVSPost2010PropOp32
 70
     1
102
RTVSPost2010Prop33
280
     0
102
RTVSPost2010PropOp33
 70
     1
102
RTVSPost2010Prop34
280
     0
102
RTVSPost2010PropOp34
 70
     1
102
RTVSPost2010Prop35
280
     0
102
RTVSPost2010PropOp35
 70
     1
102
RTVSPost2010Prop36
280
     0
102
RTVSPost2010PropOp36
 70
     1
102
RTVSPost2010Prop37
 90
       50
102
RTVSPost2010PropOp37
 70
     1
102
RTVSPost2010Prop38
140
0.0
102
RTVSPost2010PropOp38
 70
     1
102
RTVSPost2010Prop39
140
1.0
102
RTVSPost2010PropOp39
 70
     1
102
RTVSPost2010Prop40
 90
        0
102
RTVSPost2010PropOp40
 70
     1
102
RTVSPost2010Prop41ColorIndex
 90
       18
102
RTVSPost2010Prop41ColorRGB
 90
        0
102
RTVSPost2010PropOp41
 70
     1
102
RTVSPost2010Prop42
 90
       50
102
RTVSPost2010PropOp42
 70
     1
102
RTVSPost2010Prop43
 90
        3
102
RTVSPost2010PropOp43
 70
     1
102
RTVSPost2010Prop44ColorIndex
 90
        5
102
RTVSPost2010Prop44ColorRGB
 90
      255
102
RTVSPost2010PropOp44
 70
     1
102
RTVSPost2010Prop45
280
     0
102
RTVSPost2010PropOp45
 70
     1
102
RTVSPost2010Prop46
 90
       50
102
RTVSPost2010PropOp46
 70
     1
102
RTVSPost2010Prop47
 90
       50
102
RTVSPost2010PropOp47
 70
     1
102
RTVSPost2010Prop48
 90
       50
102
RTVSPost2010PropOp48
 70
     1
102
RTVSPost2010Prop49
280
     0
102
RTVSPost2010PropOp49
 70
     1
102
RTVSPost2010Prop50
 90
       50
102
RTVSPost2010PropOp50
 70
     1
102
RTVSPost2010Prop51ColorIndex
 90
      256
102
RTVSPost2010Prop51ColorRGB
 90
-16777216
102
RTVSPost2010PropOp51
 70
     0
102
RTVSPost2010Prop52
140
1.0
102
RTVSPost2010PropOp52
 70
     0
102
RTVSPost2010Prop53
 90
        2
102
RTVSPost2010PropOp53
 70
     1
102
RTVSPost2010Prop54
  1
strokes_ogs.tif
102
RTVSPost2010PropOp54
 70
     1
102
RTVSPost2010Prop55
280
     0
102
RTVSPost2010PropOp55
 70
     1
102
RTVSPost2010Prop56
140
1.0
102
RTVSPost2010PropOp56
 70
     1
102
RTVSPost2010Prop57
140
1.0
102
RTVSPost2010PropOp57
 70
     1
  0
XRECORD
  5
31823
102
{ACAD_REACTORS
330
31822
102
}
330
31822
100
AcDbXrecord
280
     1
102
RTVSPropertyOp0
 70
     1
102
RTVSPropertyOp1
 70
     1
102
RTVSPropertyOp2
 70
     1
102
RTVSPropertyOp3
 70
     1
102
RTVSPropertyOp4
 70
     1
102
RTVSPropertyOp5
 70
     1
102
RTVSPropertyOp6
 70
     1
102
RTVSPropertyOp7
 70
     1
102
RTVSPropertyOp8
 70
     1
102
RTVSPropertyOp9
 70
     1
102
RTVSPropertyOp10
 70
     1
102
RTVSPropertyOp11
 70
     1
102
RTVSPropertyOp12
 70
     1
102
RTVSPropertyOp13
 70
     1
102
RTVSPropertyOp14
 70
     1
102
RTVSPropertyOp15
 70
     1
102
RTVSPropertyOp16
 70
     1
102
RTVSPropertyOp17
 70
     1
102
RTVSPropertyOp18
 70
     1
102
RTVSPropertyOp19
 70
     1
102
RTVSPropertyOp20
 70
     1
102
RTVSPropertyOp21
 70
     1
102
RTVSPropertyOp22
 70
     1
102
RTVSPropertyOp23
 70
     1
102
RTVSPropertyOp24
 70
     1
102
RTVSPropertyOp25
 70
     1
102
RTVSPropertyOp26
 70
     1
102
RTVSPropertyOp27
 70
     1
102
RTVSPropertyOp28
 70
     1
102
RTVSPropertyOp29
 70
     1
102
RTVSPropertyOp30
 70
     1
102
RTVSPropertyOp31
 70
     1
102
RTVSPropertyOp32
 70
     1
102
RTVSPropertyOp33
 70
     1
102
RTVSPropertyOp34
 70
     1
102
RTVSPropertyOp35
 70
     1
102
RTVSPropertyOp36
 70
     1
102
RTVSPropertyOp37
 70
     1
102
RTVSPropertyOp38
 70
     1
102
RTVSPropertyOp39
 70
     1
102
RTVSPropertyOp40
 70
     1
102
RTVSPropertyOp41
 70
     1
102
RTVSPropertyOp42
 70
     1
102
RTVSPropertyOp43
 70
     1
102
RTVSPropertyOp44
 70
     1
102
RTVSPropertyOp45
 70
     1
102
RTVSPropertyOp46
 70
     1
102
RTVSPropertyOp47
 70
     1
102
RTVSPropertyOp48
 70
     1
102
RTVSPropertyOp49
 70
     1
102
RTVSPropertyOp50
 70
     1
102
RTVSPropertyOp51
 70
     0
102
RTVSPropertyOp52
 70
     0
102
RTVSPropertyOp53
 70
     1
102
RTVSPropertyOp54
 70
     1
102
RTVSPropertyOp55
 70
     1
102
RTVSPropertyOp56
 70
     1
102
RTVSPropertyOp57
 70
     1
102
RTVSPost2010Prop28
280
     0
102
RTVSPost2010PropOp28
 70
     1
102
RTVSPost2010Prop29
280
     1
102
RTVSPost2010PropOp29
 70
     1
102
RTVSPost2010Prop30
280
     1
102
RTVSPost2010PropOp30
 70
     1
102
RTVSPost2010Prop31
280
     0
102
RTVSPost2010PropOp31
 70
     1
102
RTVSPost2010Prop32
280
     0
102
RTVSPost2010PropOp32
 70
     1
102
RTVSPost2010Prop33
280
     0
102
RTVSPost2010PropOp33
 70
     1
102
RTVSPost2010Prop34
280
     0
102
RTVSPost2010PropOp34
 70
     1
102
RTVSPost2010Prop35
280
     0
102
RTVSPost2010PropOp35
 70
     1
102
RTVSPost2010Prop36
280
     0
102
RTVSPost2010PropOp36
 70
     1
102
RTVSPost2010Prop37
 90
       50
102
RTVSPost2010PropOp37
 70
     1
102
RTVSPost2010Prop38
140
0.0
102
RTVSPost2010PropOp38
 70
     1
102
RTVSPost2010Prop39
140
1.0
102
RTVSPost2010PropOp39
 70
     1
102
RTVSPost2010Prop40
 90
        0
102
RTVSPost2010PropOp40
 70
     1
102
RTVSPost2010Prop41ColorIndex
 90
       18
102
RTVSPost2010Prop41ColorRGB
 90
        0
102
RTVSPost2010PropOp41
 70
     1
102
RTVSPost2010Prop42
 90
       50
102
RTVSPost2010PropOp42
 70
     1
102
RTVSPost2010Prop43
 90
        3
102
RTVSPost2010PropOp43
 70
     1
102
RTVSPost2010Prop44ColorIndex
 90
        5
102
RTVSPost2010Prop44ColorRGB
 90
      255
102
RTVSPost2010PropOp44
 70
     1
102
RTVSPost2010Prop45
280
     0
102
RTVSPost2010PropOp45
 70
     1
102
RTVSPost2010Prop46
 90
       50
102
RTVSPost2010PropOp46
 70
     1
102
RTVSPost2010Prop47
 90
       50
102
RTVSPost2010PropOp47
 70
     1
102
RTVSPost2010Prop48
 90
       50
102
RTVSPost2010PropOp48
 70
     1
102
RTVSPost2010Prop49
280
     0
102
RTVSPost2010PropOp49
 70
     1
102
RTVSPost2010Prop50
 90
       50
102
RTVSPost2010PropOp50
 70
     1
102
RTVSPost2010Prop51ColorIndex
 90
      256
102
RTVSPost2010Prop51ColorRGB
 90
-16777216
102
RTVSPost2010PropOp51
 70
     0
102
RTVSPost2010Prop52
140
1.0
102
RTVSPost2010PropOp52
 70
     0
102
RTVSPost2010Prop53
 90
        2
102
RTVSPost2010PropOp53
 70
     1
102
RTVSPost2010Prop54
  1
strokes_ogs.tif
102
RTVSPost2010PropOp54
 70
     1
102
RTVSPost2010Prop55
280
     0
102
RTVSPost2010PropOp55
 70
     1
102
RTVSPost2010Prop56
140
1.0
102
RTVSPost2010PropOp56
 70
     1
102
RTVSPost2010Prop57
140
1.0
102
RTVSPost2010PropOp57
 70
     1
  0
XRECORD
  5
31825
102
{ACAD_REACTORS
330
31824
102
}
330
31824
100
AcDbXrecord
280
     1
102
RTVSPropertyOp0
 70
     1
102
RTVSPropertyOp1
 70
     1
102
RTVSPropertyOp2
 70
     1
102
RTVSPropertyOp3
 70
     1
102
RTVSPropertyOp4
 70
     1
102
RTVSPropertyOp5
 70
     1
102
RTVSPropertyOp6
 70
     1
102
RTVSPropertyOp7
 70
     1
102
RTVSPropertyOp8
 70
     1
102
RTVSPropertyOp9
 70
     1
102
RTVSPropertyOp10
 70
     1
102
RTVSPropertyOp11
 70
     1
102
RTVSPropertyOp12
 70
     1
102
RTVSPropertyOp13
 70
     1
102
RTVSPropertyOp14
 70
     1
102
RTVSPropertyOp15
 70
     1
102
RTVSPropertyOp16
 70
     1
102
RTVSPropertyOp17
 70
     1
102
RTVSPropertyOp18
 70
     1
102
RTVSPropertyOp19
 70
     1
102
RTVSPropertyOp20
 70
     1
102
RTVSPropertyOp21
 70
     1
102
RTVSPropertyOp22
 70
     1
102
RTVSPropertyOp23
 70
     1
102
RTVSPropertyOp24
 70
     1
102
RTVSPropertyOp25
 70
     1
102
RTVSPropertyOp26
 70
     1
102
RTVSPropertyOp27
 70
     1
102
RTVSPropertyOp28
 70
     1
102
RTVSPropertyOp29
 70
     1
102
RTVSPropertyOp30
 70
     1
102
RTVSPropertyOp31
 70
     1
102
RTVSPropertyOp32
 70
     1
102
RTVSPropertyOp33
 70
     1
102
RTVSPropertyOp34
 70
     1
102
RTVSPropertyOp35
 70
     1
102
RTVSPropertyOp36
 70
     1
102
RTVSPropertyOp37
 70
     1
102
RTVSPropertyOp38
 70
     1
102
RTVSPropertyOp39
 70
     1
102
RTVSPropertyOp40
 70
     1
102
RTVSPropertyOp41
 70
     1
102
RTVSPropertyOp42
 70
     1
102
RTVSPropertyOp43
 70
     1
102
RTVSPropertyOp44
 70
     1
102
RTVSPropertyOp45
 70
     1
102
RTVSPropertyOp46
 70
     1
102
RTVSPropertyOp47
 70
     1
102
RTVSPropertyOp48
 70
     1
102
RTVSPropertyOp49
 70
     1
102
RTVSPropertyOp50
 70
     1
102
RTVSPropertyOp51
 70
     0
102
RTVSPropertyOp52
 70
     0
102
RTVSPropertyOp53
 70
     1
102
RTVSPropertyOp54
 70
     1
102
RTVSPropertyOp55
 70
     1
102
RTVSPropertyOp56
 70
     1
102
RTVSPropertyOp57
 70
     1
102
RTVSPost2010Prop28
280
     0
102
RTVSPost2010PropOp28
 70
     1
102
RTVSPost2010Prop29
280
     1
102
RTVSPost2010PropOp29
 70
     1
102
RTVSPost2010Prop30
280
     1
102
RTVSPost2010PropOp30
 70
     1
102
RTVSPost2010Prop31
280
     0
102
RTVSPost2010PropOp31
 70
     1
102
RTVSPost2010Prop32
280
     0
102
RTVSPost2010PropOp32
 70
     1
102
RTVSPost2010Prop33
280
     0
102
RTVSPost2010PropOp33
 70
     1
102
RTVSPost2010Prop34
280
     0
102
RTVSPost2010PropOp34
 70
     1
102
RTVSPost2010Prop35
280
     0
102
RTVSPost2010PropOp35
 70
     1
102
RTVSPost2010Prop36
280
     0
102
RTVSPost2010PropOp36
 70
     1
102
RTVSPost2010Prop37
 90
       50
102
RTVSPost2010PropOp37
 70
     1
102
RTVSPost2010Prop38
140
0.0
102
RTVSPost2010PropOp38
 70
     1
102
RTVSPost2010Prop39
140
1.0
102
RTVSPost2010PropOp39
 70
     1
102
RTVSPost2010Prop40
 90
        0
102
RTVSPost2010PropOp40
 70
     1
102
RTVSPost2010Prop41ColorIndex
 90
       18
102
RTVSPost2010Prop41ColorRGB
 90
        0
102
RTVSPost2010PropOp41
 70
     1
102
RTVSPost2010Prop42
 90
       50
102
RTVSPost2010PropOp42
 70
     1
102
RTVSPost2010Prop43
 90
        3
102
RTVSPost2010PropOp43
 70
     1
102
RTVSPost2010Prop44ColorIndex
 90
        5
102
RTVSPost2010Prop44ColorRGB
 90
      255
102
RTVSPost2010PropOp44
 70
     1
102
RTVSPost2010Prop45
280
     0
102
RTVSPost2010PropOp45
 70
     1
102
RTVSPost2010Prop46
 90
       50
102
RTVSPost2010PropOp46
 70
     1
102
RTVSPost2010Prop47
 90
       50
102
RTVSPost2010PropOp47
 70
     1
102
RTVSPost2010Prop48
 90
       50
102
RTVSPost2010PropOp48
 70
     1
102
RTVSPost2010Prop49
280
     0
102
RTVSPost2010PropOp49
 70
     1
102
RTVSPost2010Prop50
 90
       50
102
RTVSPost2010PropOp50
 70
     1
102
RTVSPost2010Prop51ColorIndex
 90
      256
102
RTVSPost2010Prop51ColorRGB
 90
-16777216
102
RTVSPost2010PropOp51
 70
     0
102
RTVSPost2010Prop52
140
1.0
102
RTVSPost2010PropOp52
 70
     0
102
RTVSPost2010Prop53
 90
        2
102
RTVSPost2010PropOp53
 70
     1
102
RTVSPost2010Prop54
  1
strokes_ogs.tif
102
RTVSPost2010PropOp54
 70
     1
102
RTVSPost2010Prop55
280
     0
102
RTVSPost2010PropOp55
 70
     1
102
RTVSPost2010Prop56
140
1.0
102
RTVSPost2010PropOp56
 70
     1
102
RTVSPost2010Prop57
140
1.0
102
RTVSPost2010PropOp57
 70
     1
  0
XRECORD
  5
31827
102
{ACAD_REACTORS
330
31826
102
}
330
31826
100
AcDbXrecord
280
     1
102
RTVSPropertyOp0
 70
     1
102
RTVSPropertyOp1
 70
     1
102
RTVSPropertyOp2
 70
     1
102
RTVSPropertyOp3
 70
     1
102
RTVSPropertyOp4
 70
     1
102
RTVSPropertyOp5
 70
     1
102
RTVSPropertyOp6
 70
     1
102
RTVSPropertyOp7
 70
     1
102
RTVSPropertyOp8
 70
     1
102
RTVSPropertyOp9
 70
     1
102
RTVSPropertyOp10
 70
     1
102
RTVSPropertyOp11
 70
     1
102
RTVSPropertyOp12
 70
     1
102
RTVSPropertyOp13
 70
     1
102
RTVSPropertyOp14
 70
     1
102
RTVSPropertyOp15
 70
     1
102
RTVSPropertyOp16
 70
     1
102
RTVSPropertyOp17
 70
     1
102
RTVSPropertyOp18
 70
     1
102
RTVSPropertyOp19
 70
     1
102
RTVSPropertyOp20
 70
     1
102
RTVSPropertyOp21
 70
     1
102
RTVSPropertyOp22
 70
     1
102
RTVSPropertyOp23
 70
     1
102
RTVSPropertyOp24
 70
     1
102
RTVSPropertyOp25
 70
     1
102
RTVSPropertyOp26
 70
     1
102
RTVSPropertyOp27
 70
     1
102
RTVSPropertyOp28
 70
     1
102
RTVSPropertyOp29
 70
     1
102
RTVSPropertyOp30
 70
     1
102
RTVSPropertyOp31
 70
     1
102
RTVSPropertyOp32
 70
     1
102
RTVSPropertyOp33
 70
     1
102
RTVSPropertyOp34
 70
     1
102
RTVSPropertyOp35
 70
     1
102
RTVSPropertyOp36
 70
     1
102
RTVSPropertyOp37
 70
     1
102
RTVSPropertyOp38
 70
     1
102
RTVSPropertyOp39
 70
     1
102
RTVSPropertyOp40
 70
     1
102
RTVSPropertyOp41
 70
     1
102
RTVSPropertyOp42
 70
     1
102
RTVSPropertyOp43
 70
     1
102
RTVSPropertyOp44
 70
     1
102
RTVSPropertyOp45
 70
     1
102
RTVSPropertyOp46
 70
     1
102
RTVSPropertyOp47
 70
     1
102
RTVSPropertyOp48
 70
     1
102
RTVSPropertyOp49
 70
     1
102
RTVSPropertyOp50
 70
     1
102
RTVSPropertyOp51
 70
     0
102
RTVSPropertyOp52
 70
     0
102
RTVSPropertyOp53
 70
     1
102
RTVSPropertyOp54
 70
     1
102
RTVSPropertyOp55
 70
     1
102
RTVSPropertyOp56
 70
     1
102
RTVSPropertyOp57
 70
     1
102
RTVSPost2010Prop28
280
     0
102
RTVSPost2010PropOp28
 70
     1
102
RTVSPost2010Prop29
280
     1
102
RTVSPost2010PropOp29
 70
     1
102
RTVSPost2010Prop30
280
     1
102
RTVSPost2010PropOp30
 70
     1
102
RTVSPost2010Prop31
280
     0
102
RTVSPost2010PropOp31
 70
     1
102
RTVSPost2010Prop32
280
     0
102
RTVSPost2010PropOp32
 70
     1
102
RTVSPost2010Prop33
280
     0
102
RTVSPost2010PropOp33
 70
     1
102
RTVSPost2010Prop34
280
     0
102
RTVSPost2010PropOp34
 70
     1
102
RTVSPost2010Prop35
280
     0
102
RTVSPost2010PropOp35
 70
     1
102
RTVSPost2010Prop36
280
     0
102
RTVSPost2010PropOp36
 70
     1
102
RTVSPost2010Prop37
 90
       50
102
RTVSPost2010PropOp37
 70
     1
102
RTVSPost2010Prop38
140
0.0
102
RTVSPost2010PropOp38
 70
     1
102
RTVSPost2010Prop39
140
1.0
102
RTVSPost2010PropOp39
 70
     1
102
RTVSPost2010Prop40
 90
        0
102
RTVSPost2010PropOp40
 70
     1
102
RTVSPost2010Prop41ColorIndex
 90
       18
102
RTVSPost2010Prop41ColorRGB
 90
        0
102
RTVSPost2010PropOp41
 70
     1
102
RTVSPost2010Prop42
 90
       50
102
RTVSPost2010PropOp42
 70
     1
102
RTVSPost2010Prop43
 90
        3
102
RTVSPost2010PropOp43
 70
     1
102
RTVSPost2010Prop44ColorIndex
 90
        5
102
RTVSPost2010Prop44ColorRGB
 90
      255
102
RTVSPost2010PropOp44
 70
     1
102
RTVSPost2010Prop45
280
     0
102
RTVSPost2010PropOp45
 70
     1
102
RTVSPost2010Prop46
 90
       50
102
RTVSPost2010PropOp46
 70
     1
102
RTVSPost2010Prop47
 90
       50
102
RTVSPost2010PropOp47
 70
     1
102
RTVSPost2010Prop48
 90
       50
102
RTVSPost2010PropOp48
 70
     1
102
RTVSPost2010Prop49
280
     0
102
RTVSPost2010PropOp49
 70
     1
102
RTVSPost2010Prop50
 90
       50
102
RTVSPost2010PropOp50
 70
     1
102
RTVSPost2010Prop51ColorIndex
 90
      256
102
RTVSPost2010Prop51ColorRGB
 90
-16777216
102
RTVSPost2010PropOp51
 70
     0
102
RTVSPost2010Prop52
140
1.0
102
RTVSPost2010PropOp52
 70
     0
102
RTVSPost2010Prop53
 90
        2
102
RTVSPost2010PropOp53
 70
     1
102
RTVSPost2010Prop54
  1
strokes_ogs.tif
102
RTVSPost2010PropOp54
 70
     1
102
RTVSPost2010Prop55
280
     0
102
RTVSPost2010PropOp55
 70
     1
102
RTVSPost2010Prop56
140
1.0
102
RTVSPost2010PropOp56
 70
     1
102
RTVSPost2010Prop57
140
1.0
102
RTVSPost2010PropOp57
 70
     1
  0
XRECORD
  5
31829
102
{ACAD_REACTORS
330
31828
102
}
330
31828
100
AcDbXrecord
280
     1
102
RTVSPropertyOp0
 70
     1
102
RTVSPropertyOp1
 70
     1
102
RTVSPropertyOp2
 70
     1
102
RTVSPropertyOp3
 70
     1
102
RTVSPropertyOp4
 70
     1
102
RTVSPropertyOp5
 70
     1
102
RTVSPropertyOp6
 70
     1
102
RTVSPropertyOp7
 70
     1
102
RTVSPropertyOp8
 70
     1
102
RTVSPropertyOp9
 70
     1
102
RTVSPropertyOp10
 70
     1
102
RTVSPropertyOp11
 70
     1
102
RTVSPropertyOp12
 70
     1
102
RTVSPropertyOp13
 70
     1
102
RTVSPropertyOp14
 70
     1
102
RTVSPropertyOp15
 70
     1
102
RTVSPropertyOp16
 70
     1
102
RTVSPropertyOp17
 70
     1
102
RTVSPropertyOp18
 70
     1
102
RTVSPropertyOp19
 70
     1
102
RTVSPropertyOp20
 70
     1
102
RTVSPropertyOp21
 70
     1
102
RTVSPropertyOp22
 70
     1
102
RTVSPropertyOp23
 70
     1
102
RTVSPropertyOp24
 70
     1
102
RTVSPropertyOp25
 70
     1
102
RTVSPropertyOp26
 70
     1
102
RTVSPropertyOp27
 70
     1
102
RTVSPropertyOp28
 70
     1
102
RTVSPropertyOp29
 70
     1
102
RTVSPropertyOp30
 70
     1
102
RTVSPropertyOp31
 70
     1
102
RTVSPropertyOp32
 70
     1
102
RTVSPropertyOp33
 70
     1
102
RTVSPropertyOp34
 70
     1
102
RTVSPropertyOp35
 70
     1
102
RTVSPropertyOp36
 70
     1
102
RTVSPropertyOp37
 70
     1
102
RTVSPropertyOp38
 70
     1
102
RTVSPropertyOp39
 70
     1
102
RTVSPropertyOp40
 70
     1
102
RTVSPropertyOp41
 70
     1
102
RTVSPropertyOp42
 70
     1
102
RTVSPropertyOp43
 70
     1
102
RTVSPropertyOp44
 70
     1
102
RTVSPropertyOp45
 70
     1
102
RTVSPropertyOp46
 70
     1
102
RTVSPropertyOp47
 70
     1
102
RTVSPropertyOp48
 70
     1
102
RTVSPropertyOp49
 70
     1
102
RTVSPropertyOp50
 70
     1
102
RTVSPropertyOp51
 70
     0
102
RTVSPropertyOp52
 70
     0
102
RTVSPropertyOp53
 70
     1
102
RTVSPropertyOp54
 70
     1
102
RTVSPropertyOp55
 70
     1
102
RTVSPropertyOp56
 70
     1
102
RTVSPropertyOp57
 70
     1
102
RTVSPost2010Prop28
280
     0
102
RTVSPost2010PropOp28
 70
     1
102
RTVSPost2010Prop29
280
     1
102
RTVSPost2010PropOp29
 70
     1
102
RTVSPost2010Prop30
280
     1
102
RTVSPost2010PropOp30
 70
     1
102
RTVSPost2010Prop31
280
     0
102
RTVSPost2010PropOp31
 70
     1
102
RTVSPost2010Prop32
280
     0
102
RTVSPost2010PropOp32
 70
     1
102
RTVSPost2010Prop33
280
     0
102
RTVSPost2010PropOp33
 70
     1
102
RTVSPost2010Prop34
280
     0
102
RTVSPost2010PropOp34
 70
     1
102
RTVSPost2010Prop35
280
     0
102
RTVSPost2010PropOp35
 70
     1
102
RTVSPost2010Prop36
280
     0
102
RTVSPost2010PropOp36
 70
     1
102
RTVSPost2010Prop37
 90
       50
102
RTVSPost2010PropOp37
 70
     1
102
RTVSPost2010Prop38
140
0.0
102
RTVSPost2010PropOp38
 70
     1
102
RTVSPost2010Prop39
140
1.0
102
RTVSPost2010PropOp39
 70
     1
102
RTVSPost2010Prop40
 90
        0
102
RTVSPost2010PropOp40
 70
     1
102
RTVSPost2010Prop41ColorIndex
 90
       18
102
RTVSPost2010Prop41ColorRGB
 90
        0
102
RTVSPost2010PropOp41
 70
     1
102
RTVSPost2010Prop42
 90
       50
102
RTVSPost2010PropOp42
 70
     1
102
RTVSPost2010Prop43
 90
        3
102
RTVSPost2010PropOp43
 70
     1
102
RTVSPost2010Prop44ColorIndex
 90
        5
102
RTVSPost2010Prop44ColorRGB
 90
      255
102
RTVSPost2010PropOp44
 70
     1
102
RTVSPost2010Prop45
280
     0
102
RTVSPost2010PropOp45
 70
     1
102
RTVSPost2010Prop46
 90
       50
102
RTVSPost2010PropOp46
 70
     1
102
RTVSPost2010Prop47
 90
       50
102
RTVSPost2010PropOp47
 70
     1
102
RTVSPost2010Prop48
 90
       50
102
RTVSPost2010PropOp48
 70
     1
102
RTVSPost2010Prop49
280
     0
102
RTVSPost2010PropOp49
 70
     1
102
RTVSPost2010Prop50
 90
       50
102
RTVSPost2010PropOp50
 70
     1
102
RTVSPost2010Prop51ColorIndex
 90
      256
102
RTVSPost2010Prop51ColorRGB
 90
-16777216
102
RTVSPost2010PropOp51
 70
     0
102
RTVSPost2010Prop52
140
1.0
102
RTVSPost2010PropOp52
 70
     0
102
RTVSPost2010Prop53
 90
        2
102
RTVSPost2010PropOp53
 70
     1
102
RTVSPost2010Prop54
  1
strokes_ogs.tif
102
RTVSPost2010PropOp54
 70
     1
102
RTVSPost2010Prop55
280
     0
102
RTVSPost2010PropOp55
 70
     1
102
RTVSPost2010Prop56
140
1.0
102
RTVSPost2010PropOp56
 70
     1
102
RTVSPost2010Prop57
140
1.0
102
RTVSPost2010PropOp57
 70
     1
  0
XRECORD
  5
3182B
102
{ACAD_REACTORS
330
3182A
102
}
330
3182A
100
AcDbXrecord
280
     1
102
RTVSPropertyOp0
 70
     1
102
RTVSPropertyOp1
 70
     1
102
RTVSPropertyOp2
 70
     1
102
RTVSPropertyOp3
 70
     1
102
RTVSPropertyOp4
 70
     1
102
RTVSPropertyOp5
 70
     1
102
RTVSPropertyOp6
 70
     1
102
RTVSPropertyOp7
 70
     1
102
RTVSPropertyOp8
 70
     1
102
RTVSPropertyOp9
 70
     1
102
RTVSPropertyOp10
 70
     1
102
RTVSPropertyOp11
 70
     1
102
RTVSPropertyOp12
 70
     1
102
RTVSPropertyOp13
 70
     1
102
RTVSPropertyOp14
 70
     1
102
RTVSPropertyOp15
 70
     1
102
RTVSPropertyOp16
 70
     1
102
RTVSPropertyOp17
 70
     1
102
RTVSPropertyOp18
 70
     1
102
RTVSPropertyOp19
 70
     1
102
RTVSPropertyOp20
 70
     1
102
RTVSPropertyOp21
 70
     1
102
RTVSPropertyOp22
 70
     1
102
RTVSPropertyOp23
 70
     1
102
RTVSPropertyOp24
 70
     1
102
RTVSPropertyOp25
 70
     1
102
RTVSPropertyOp26
 70
     1
102
RTVSPropertyOp27
 70
     1
102
RTVSPropertyOp28
 70
     1
102
RTVSPropertyOp29
 70
     1
102
RTVSPropertyOp30
 70
     1
102
RTVSPropertyOp31
 70
     1
102
RTVSPropertyOp32
 70
     1
102
RTVSPropertyOp33
 70
     1
102
RTVSPropertyOp34
 70
     1
102
RTVSPropertyOp35
 70
     1
102
RTVSPropertyOp36
 70
     1
102
RTVSPropertyOp37
 70
     1
102
RTVSPropertyOp38
 70
     1
102
RTVSPropertyOp39
 70
     1
102
RTVSPropertyOp40
 70
     1
102
RTVSPropertyOp41
 70
     1
102
RTVSPropertyOp42
 70
     1
102
RTVSPropertyOp43
 70
     1
102
RTVSPropertyOp44
 70
     1
102
RTVSPropertyOp45
 70
     1
102
RTVSPropertyOp46
 70
     1
102
RTVSPropertyOp47
 70
     1
102
RTVSPropertyOp48
 70
     1
102
RTVSPropertyOp49
 70
     1
102
RTVSPropertyOp50
 70
     1
102
RTVSPropertyOp51
 70
     0
102
RTVSPropertyOp52
 70
     0
102
RTVSPropertyOp53
 70
     1
102
RTVSPropertyOp54
 70
     1
102
RTVSPropertyOp55
 70
     1
102
RTVSPropertyOp56
 70
     1
102
RTVSPropertyOp57
 70
     1
102
RTVSPost2010Prop28
280
     0
102
RTVSPost2010PropOp28
 70
     1
102
RTVSPost2010Prop29
280
     1
102
RTVSPost2010PropOp29
 70
     1
102
RTVSPost2010Prop30
280
     1
102
RTVSPost2010PropOp30
 70
     1
102
RTVSPost2010Prop31
280
     0
102
RTVSPost2010PropOp31
 70
     1
102
RTVSPost2010Prop32
280
     0
102
RTVSPost2010PropOp32
 70
     1
102
RTVSPost2010Prop33
280
     0
102
RTVSPost2010PropOp33
 70
     1
102
RTVSPost2010Prop34
280
     0
102
RTVSPost2010PropOp34
 70
     1
102
RTVSPost2010Prop35
280
     0
102
RTVSPost2010PropOp35
 70
     1
102
RTVSPost2010Prop36
280
     0
102
RTVSPost2010PropOp36
 70
     1
102
RTVSPost2010Prop37
 90
       50
102
RTVSPost2010PropOp37
 70
     1
102
RTVSPost2010Prop38
140
0.0
102
RTVSPost2010PropOp38
 70
     1
102
RTVSPost2010Prop39
140
1.0
102
RTVSPost2010PropOp39
 70
     1
102
RTVSPost2010Prop40
 90
        0
102
RTVSPost2010PropOp40
 70
     1
102
RTVSPost2010Prop41ColorIndex
 90
       18
102
RTVSPost2010Prop41ColorRGB
 90
        0
102
RTVSPost2010PropOp41
 70
     1
102
RTVSPost2010Prop42
 90
       50
102
RTVSPost2010PropOp42
 70
     1
102
RTVSPost2010Prop43
 90
        3
102
RTVSPost2010PropOp43
 70
     1
102
RTVSPost2010Prop44ColorIndex
 90
        5
102
RTVSPost2010Prop44ColorRGB
 90
      255
102
RTVSPost2010PropOp44
 70
     1
102
RTVSPost2010Prop45
280
     0
102
RTVSPost2010PropOp45
 70
     1
102
RTVSPost2010Prop46
 90
       50
102
RTVSPost2010PropOp46
 70
     1
102
RTVSPost2010Prop47
 90
       50
102
RTVSPost2010PropOp47
 70
     1
102
RTVSPost2010Prop48
 90
       50
102
RTVSPost2010PropOp48
 70
     1
102
RTVSPost2010Prop49
280
     0
102
RTVSPost2010PropOp49
 70
     1
102
RTVSPost2010Prop50
 90
       50
102
RTVSPost2010PropOp50
 70
     1
102
RTVSPost2010Prop51ColorIndex
 90
      256
102
RTVSPost2010Prop51ColorRGB
 90
-16777216
102
RTVSPost2010PropOp51
 70
     0
102
RTVSPost2010Prop52
140
1.0
102
RTVSPost2010PropOp52
 70
     0
102
RTVSPost2010Prop53
 90
        2
102
RTVSPost2010PropOp53
 70
     1
102
RTVSPost2010Prop54
  1
strokes_ogs.tif
102
RTVSPost2010PropOp54
 70
     1
102
RTVSPost2010Prop55
280
     0
102
RTVSPost2010PropOp55
 70
     1
102
RTVSPost2010Prop56
140
1.0
102
RTVSPost2010PropOp56
 70
     1
102
RTVSPost2010Prop57
140
1.0
102
RTVSPost2010PropOp57
 70
     1
  0
ENDSEC
  0
EOF
