  0
SECTION
  2
HEADER
  9
$ACADVER
  1
AC1015
  9
$ACADMAINTVER
 70
    20
  9
$DWGCODEPAGE
  3
ANSI_936
  9
$INSBASE
 10
0.0
 20
0.0
 30
0.0
  9
$EXTMIN
 10
357.5832358351961
 20
-119.6473083155235
 30
0.0
  9
$EXTMAX
 10
1394.756808285523
 20
177.3526916844765
 30
0.0
  9
$LIMMIN
 10
0.0
 20
0.0
  9
$LIMMAX
 10
22.0
 20
17.0
  9
$ORTHOMODE
 70
     0
  9
$REGENMODE
 70
     1
  9
$FILLMODE
 70
     1
  9
$QTEXTMODE
 70
     0
  9
$MIRRTEXT
 70
     0
  9
$LTSCALE
 40
1.209999999999999
  9
$ATTMODE
 70
     1
  9
$TEXTSIZE
 40
0.2
  9
$TRACEWID
 40
0.05
  9
$TEXTSTYLE
  7
STANDARD
  9
$CLAYER
  8
0
  9
$CELTYPE
  6
BYLAYER
  9
$CECOLOR
 62
   256
  9
$CELTSCALE
 40
1.0
  9
$DISPSILH
 70
     0
  9
$DIMSCALE
 40
1.0
  9
$DIMASZ
 40
4.799999999999999
  9
$DIMEXO
 40
0.0
  9
$DIMDLI
 40
0.38
  9
$DIMRND
 40
0.0
  9
$DIMDLE
 40
0.0
  9
$DIMEXE
 40
2.6
  9
$DIMTP
 40
0.0
  9
$DIMTM
 40
0.0
  9
$DIMTXT
 40
10.0
  9
$DIMCEN
 40
0.09
  9
$DIMTSZ
 40
0.0
  9
$DIMTOL
 70
     0
  9
$DIMLIM
 70
     0
  9
$DIMTIH
 70
     1
  9
$DIMTOH
 70
     1
  9
$DIMSE1
 70
     0
  9
$DIMSE2
 70
     0
  9
$DIMTAD
 70
     0
  9
$DIMZIN
 70
     4
  9
$DIMBLK
  1

  9
$DIMASO
 70
     1
  9
$DIMSHO
 70
     1
  9
$DIMPOST
  1

  9
$DIMAPOST
  1

  9
$DIMALT
 70
     0
  9
$DIMALTD
 70
     1
  9
$DIMALTF
 40
25.4
  9
$DIMLFAC
 40
1.0
  9
$DIMTOFL
 70
     0
  9
$DIMTVP
 40
0.0
  9
$DIMTIX
 70
     0
  9
$DIMSOXD
 70
     0
  9
$DIMSAH
 70
     0
  9
$DIMBLK1
  1
_FILLED
  9
$DIMBLK2
  1
_FILLED
  9
$DIMSTYLE
  2
DIMSTYLE_1
  9
$DIMCLRD
 70
     0
  9
$DIMCLRE
 70
     0
  9
$DIMCLRT
 70
     0
  9
$DIMTFAC
 40
1.0
  9
$DIMGAP
 40
4.799999999999999
  9
$DIMJUST
 70
     0
  9
$DIMSD1
 70
     0
  9
$DIMSD2
 70
     0
  9
$DIMTOLJ
 70
     1
  9
$DIMTZIN
 70
     4
  9
$DIMALTZ
 70
     0
  9
$DIMALTTZ
 70
     0
  9
$DIMUPT
 70
     0
  9
$DIMDEC
 70
     0
  9
$DIMTDEC
 70
     2
  9
$DIMALTU
 70
     2
  9
$DIMALTTD
 70
     2
  9
$DIMTXSTY
  7
STANDARD
  9
$DIMAUNIT
 70
     0
  9
$DIMADEC
 70
     2
  9
$DIMALTRND
 40
0.0
  9
$DIMAZIN
 70
     1
  9
$DIMDSEP
 70
    46
  9
$DIMATFIT
 70
     3
  9
$DIMFRAC
 70
     0
  9
$DIMLDRBLK
  1

  9
$DIMLUNIT
 70
     2
  9
$DIMLWD
 70
    -2
  9
$DIMLWE
 70
    -2
  9
$DIMTMOVE
 70
     0
  9
$LUNITS
 70
     2
  9
$LUPREC
 70
     4
  9
$SKETCHINC
 40
0.1
  9
$FILLETRAD
 40
0.0
  9
$AUNITS
 70
     0
  9
$AUPREC
 70
     0
  9
$MENU
  1
.
  9
$ELEVATION
 40
0.0
  9
$PELEVATION
 40
0.0
  9
$THICKNESS
 40
0.0
  9
$LIMCHECK
 70
     0
  9
$CHAMFERA
 40
0.0
  9
$CHAMFERB
 40
0.0
  9
$CHAMFERC
 40
0.0
  9
$CHAMFERD
 40
0.0
  9
$SKPOLY
 70
     0
  9
$TDCREATE
 40
2459635.603738426
  9
$TDUCREATE
 40
2459635.270405093
  9
$TDUPDATE
 40
2459731.752504062
  9
$TDUUPDATE
 40
2459731.419170729
  9
$TDINDWG
 40
0.020219039
  9
$TDUSRTIMER
 40
0.020219039
  9
$USRTIMER
 70
     1
  9
$ANGBASE
 50
0.0
  9
$ANGDIR
 70
     0
  9
$PDMODE
 70
     3
  9
$PDSIZE
 40
0.3125
  9
$PLINEWID
 40
0.0
  9
$SPLFRAME
 70
     0
  9
$SPLINETYPE
 70
     6
  9
$SPLINESEGS
 70
     8
  9
$HANDSEED
  5
3624
  9
$SURFTAB1
 70
     6
  9
$SURFTAB2
 70
     6
  9
$SURFTYPE
 70
     6
  9
$SURFU
 70
     6
  9
$SURFV
 70
     6
  9
$UCSBASE
  2

  9
$UCSNAME
  2

  9
$UCSORG
 10
0.0
 20
0.0
 30
0.0
  9
$UCSXDIR
 10
1.0
 20
0.0
 30
0.0
  9
$UCSYDIR
 10
0.0
 20
1.0
 30
0.0
  9
$UCSORTHOREF
  2

  9
$UCSORTHOVIEW
 70
     0
  9
$UCSORGTOP
 10
0.0
 20
0.0
 30
0.0
  9
$UCSORGBOTTOM
 10
0.0
 20
0.0
 30
0.0
  9
$UCSORGLEFT
 10
0.0
 20
0.0
 30
0.0
  9
$UCSORGRIGHT
 10
0.0
 20
0.0
 30
0.0
  9
$UCSORGFRONT
 10
0.0
 20
0.0
 30
0.0
  9
$UCSORGBACK
 10
0.0
 20
0.0
 30
0.0
  9
$PUCSBASE
  2

  9
$PUCSNAME
  2

  9
$PUCSORG
 10
0.0
 20
0.0
 30
0.0
  9
$PUCSXDIR
 10
1.0
 20
0.0
 30
0.0
  9
$PUCSYDIR
 10
0.0
 20
1.0
 30
0.0
  9
$PUCSORTHOREF
  2

  9
$PUCSORTHOVIEW
 70
     0
  9
$PUCSORGTOP
 10
0.0
 20
0.0
 30
0.0
  9
$PUCSORGBOTTOM
 10
0.0
 20
0.0
 30
0.0
  9
$PUCSORGLEFT
 10
0.0
 20
0.0
 30
0.0
  9
$PUCSORGRIGHT
 10
0.0
 20
0.0
 30
0.0
  9
$PUCSORGFRONT
 10
0.0
 20
0.0
 30
0.0
  9
$PUCSORGBACK
 10
0.0
 20
0.0
 30
0.0
  9
$USERI1
 70
     0
  9
$USERI2
 70
     0
  9
$USERI3
 70
     0
  9
$USERI4
 70
     0
  9
$USERI5
 70
     0
  9
$USERR1
 40
0.0
  9
$USERR2
 40
0.0
  9
$USERR3
 40
0.0
  9
$USERR4
 40
0.0
  9
$USERR5
 40
0.0
  9
$WORLDVIEW
 70
     1
  9
$SHADEDGE
 70
     3
  9
$SHADEDIF
 70
    70
  9
$TILEMODE
 70
     1
  9
$MAXACTVP
 70
    64
  9
$PINSBASE
 10
0.0
 20
0.0
 30
0.0
  9
$PLIMCHECK
 70
     0
  9
$PEXTMIN
 10
1.000000000000000E+20
 20
1.000000000000000E+20
 30
1.000000000000000E+20
  9
$PEXTMAX
 10
-1.000000000000000E+20
 20
-1.000000000000000E+20
 30
-1.000000000000000E+20
  9
$PLIMMIN
 10
0.0
 20
0.0
  9
$PLIMMAX
 10
12.0
 20
9.0
  9
$UNITMODE
 70
     0
  9
$VISRETAIN
 70
     1
  9
$PLINEGEN
 70
     0
  9
$PSLTSCALE
 70
     1
  9
$TREEDEPTH
 70
  3020
  9
$CMLSTYLE
  2
Standard
  9
$CMLJUST
 70
     0
  9
$CMLSCALE
 40
1.0
  9
$PROXYGRAPHICS
 70
     1
  9
$MEASUREMENT
 70
     0
  9
$CELWEIGHT
370
    -1
  9
$ENDCAPS
280
     0
  9
$JOINSTYLE
280
     0
  9
$LWDISPLAY
290
     0
  9
$INSUNITS
 70
     1
  9
$HYPERLINKBASE
  1

  9
$STYLESHEET
  1

  9
$XEDIT
290
     1
  9
$CEPSNTYPE
380
     0
  9
$PSTYLEMODE
290
     1
  9
$FINGERPRINTGUID
  2
{6F925418-A0AF-2C47-8952-4CB5C64F08B9}
  9
$VERSIONGUID
  2
{C85AF52D-B151-C649-A615-E5D90226997B}
  9
$EXTNAMES
290
     1
  9
$PSVPSCALE
 40
0.0
  9
$OLESTARTUP
290
     0
  0
ENDSEC
  0
SECTION
  2
CLASSES
  0
CLASS
  1
ACDBDICTIONARYWDFLT
  2
AcDbDictionaryWithDefault
  3
ObjectDBX Classes
 90
        0
280
     0
281
     0
  0
CLASS
  1
ACDBPLACEHOLDER
  2
AcDbPlaceHolder
  3
ObjectDBX Classes
 90
    32768
280
     0
281
     0
  0
CLASS
  1
LAYOUT
  2
AcDbLayout
  3
ObjectDBX Classes
 90
    32768
280
     0
281
     0
  0
CLASS
  1
MATERIAL
  2
AcDbMaterial
  3
ObjectDBX Classes
 90
     1153
280
     0
281
     0
  0
CLASS
  1
VISUALSTYLE
  2
AcDbVisualStyle
  3
ObjectDBX Classes
 90
     4095
280
     0
281
     0
  0
CLASS
  1
TABLESTYLE
  2
AcDbTableStyle
  3
ObjectDBX Classes
 90
     4095
280
     0
281
     0
  0
CLASS
  1
SCALE
  2
AcDbScale
  3
ObjectDBX Classes
 90
     1153
280
     0
281
     0
  0
CLASS
  1
MLEADERSTYLE
  2
AcDbMLeaderStyle
  3
ACDB_MLEADERSTYLE_CLASS
 90
     4095
280
     0
281
     0
  0
CLASS
  1
ACDBSECTIONVIEWSTYLE
  2
AcDbSectionViewStyle
  3
ObjectDBX Classes
 90
     1025
280
     0
281
     0
  0
CLASS
  1
ACDBDETAILVIEWSTYLE
  2
AcDbDetailViewStyle
  3
ObjectDBX Classes
 90
     1025
280
     0
281
     0
  0
CLASS
  1
DICTIONARYVAR
  2
AcDbDictionaryVar
  3
ObjectDBX Classes
 90
        0
280
     0
281
     0
  0
CLASS
  1
SORTENTSTABLE
  2
AcDbSortentsTable
  3
ObjectDBX Classes
 90
        0
280
     0
281
     0
  0
CLASS
  1
RASTERVARIABLES
  2
AcDbRasterVariables
  3
ISM
 90
        0
280
     0
281
     0
  0
CLASS
  1
CELLSTYLEMAP
  2
AcDbCellStyleMap
  3
ObjectDBX Classes
 90
     1152
280
     0
281
     0
  0
CLASS
  1
ACDBPLACEHOLDER
  2
AcDbPlaceHolder
  3
ObjectDBX Classes
 90
        0
280
     0
281
     0
  0
CLASS
  1
LAYOUT
  2
AcDbLayout
  3
ObjectDBX Classes
 90
        0
280
     0
281
     0
  0
ENDSEC
  0
SECTION
  2
TABLES
  0
TABLE
  2
VPORT
  5
8
102
{ACAD_XDICTIONARY
360
339E
102
}
330
0
100
AcDbSymbolTable
 70
     1
  0
VPORT
  5
1F4
330
8
100
AcDbSymbolTableRecord
100
AcDbViewportTableRecord
  2
*ACTIVE
 70
     0
 10
0.0
 20
0.0
 11
1.0
 21
1.0
 12
1149.001580587085
 22
-50.59314156423545
 13
0.0
 23
0.0
 14
1.0
 24
1.0
 15
0.0
 25
0.0
 16
0.0
 26
0.0
 36
1.0
 17
0.0
 27
0.0
 37
0.0
 40
628.8624730865127
 41
2.601398601398601
 42
50.0
 43
0.0
 44
0.0
 50
0.0
 51
0.0
 71
     0
 72
   100
 73
     1
 74
     1
 75
     0
 76
     0
 77
     0
 78
     0
281
     0
 65
     1
110
0.0
120
0.0
130
0.0
111
1.0
121
0.0
131
0.0
112
0.0
122
1.0
132
0.0
 79
     0
146
0.0
  0
ENDTAB
  0
TABLE
  2
LTYPE
  5
5
330
0
100
AcDbSymbolTable
 70
     6
  0
LTYPE
  5
14
330
5
100
AcDbSymbolTableRecord
100
AcDbLinetypeTableRecord
  2
BYBLOCK
 70
     0
  3

 72
    65
 73
     0
 40
0.0
  0
LTYPE
  5
15
330
5
100
AcDbSymbolTableRecord
100
AcDbLinetypeTableRecord
  2
BYLAYER
 70
     0
  3

 72
    65
 73
     0
 40
0.0
  0
LTYPE
  5
16
330
5
100
AcDbSymbolTableRecord
100
AcDbLinetypeTableRecord
  2
CONTINUOUS
 70
     0
  3
Solid line
 72
    65
 73
     0
 40
0.0
  0
LTYPE
  5
1F5
330
5
100
AcDbSymbolTableRecord
100
AcDbLinetypeTableRecord
  2
CENTER
 70
     0
  3
____ _ ____ _ ____ _ ____ _ ____ _ ____ _ ____
 72
    65
 73
     4
 40
0.6
 49
0.375
 74
     0
 49
-0.075
 74
     0
 49
0.075
 74
     0
 49
-0.075
 74
     0
  0
LTYPE
  5
1F6
330
5
100
AcDbSymbolTableRecord
100
AcDbLinetypeTableRecord
  2
HIDDEN
 70
     0
  3
- - - - - - - - - - - - - - - - - - - -
 72
    65
 73
     2
 40
0.2
 49
0.1
 74
     0
 49
-0.1
 74
     0
  0
LTYPE
  5
1F7
330
5
100
AcDbSymbolTableRecord
100
AcDbLinetypeTableRecord
  2
PHANTOM
 70
     0
  3
_____ _ _ _____ _ _ _____ _ _ _____
 72
    65
 73
     6
 40
0.8
 49
0.45
 74
     0
 49
-0.05
 74
     0
 49
0.1
 74
     0
 49
-0.05
 74
     0
 49
0.1
 74
     0
 49
-0.05
 74
     0
  0
LTYPE
  5
1F8
330
5
100
AcDbSymbolTableRecord
100
AcDbLinetypeTableRecord
  2
DOT
 70
     0
  3
. . . . . . . . . . . . . . . . . . . .
 72
    65
 73
     2
 40
0.2
 49
0.1
 74
     0
 49
-0.1
 74
     0
  0
LTYPE
  5
1F9
330
5
100
AcDbSymbolTableRecord
100
AcDbLinetypeTableRecord
  2
DASHED
 70
     0
  3
- - - - - - - - - - - - - - - - - - - -
 72
    65
 73
     2
 40
0.2
 49
0.1
 74
     0
 49
-0.1
 74
     0
  0
ENDTAB
  0
TABLE
  2
LAYER
  5
2
330
0
100
AcDbSymbolTable
 70
    29
  0
LAYER
  5
10
102
{ACAD_XDICTIONARY
360
3364
102
}
330
2
100
AcDbSymbolTableRecord
100
AcDbLayerTableRecord
  2
0
 70
     0
 62
     7
  6
CONTINUOUS
370
    -3
390
F
1071
 33554687
  0
LAYER
  5
1FA
102
{ACAD_XDICTIONARY
360
3366
102
}
330
2
100
AcDbSymbolTableRecord
100
AcDbLayerTableRecord
  2
DEFAULT_1
 70
     0
 62
     7
  6
CENTER
370
    -3
390
F
1071
 33554687
  0
LAYER
  5
1FB
102
{ACAD_XDICTIONARY
360
3368
102
}
330
2
100
AcDbSymbolTableRecord
100
AcDbLayerTableRecord
  2
DEFAULT_2
 70
     0
 62
     8
  6
HIDDEN
370
    -3
390
F
1071
 33554687
  0
LAYER
  5
1FC
102
{ACAD_XDICTIONARY
360
336A
102
}
330
2
100
AcDbSymbolTableRecord
100
AcDbLayerTableRecord
  2
DEFAULT_3
 70
     0
 62
     7
  6
PHANTOM
370
    -3
390
F
1071
 33554687
  0
LAYER
  5
1FD
102
{ACAD_XDICTIONARY
360
336C
102
}
330
2
100
AcDbSymbolTableRecord
100
AcDbLayerTableRecord
  2
01_ALL_DTM_PLN
 70
     0
 62
     7
  6
CONTINUOUS
370
    -3
390
F
1071
 33554687
  0
LAYER
  5
1FE
102
{ACAD_XDICTIONARY
360
336E
102
}
330
2
100
AcDbSymbolTableRecord
100
AcDbLayerTableRecord
  2
01__ASM_ALL_DTM_PLN
 70
     0
 62
     7
  6
CONTINUOUS
370
    -3
390
F
1071
 33554687
  0
LAYER
  5
1FF
102
{ACAD_XDICTIONARY
360
3370
102
}
330
2
100
AcDbSymbolTableRecord
100
AcDbLayerTableRecord
  2
01__ASM_DEF_DTM_PLN
 70
     0
 62
     7
  6
CONTINUOUS
370
    -3
390
F
1071
 33554687
  0
LAYER
  5
200
102
{ACAD_XDICTIONARY
360
3372
102
}
330
2
100
AcDbSymbolTableRecord
100
AcDbLayerTableRecord
  2
01___PRT_ALL_DTM_PLN
 70
     0
 62
     7
  6
CONTINUOUS
370
    -3
390
F
1071
 33554687
  0
LAYER
  5
201
102
{ACAD_XDICTIONARY
360
3374
102
}
330
2
100
AcDbSymbolTableRecord
100
AcDbLayerTableRecord
  2
01___PRT_DEF_DTM_PLN
 70
     0
 62
     7
  6
CONTINUOUS
370
    -3
390
F
1071
 33554687
  0
LAYER
  5
202
102
{ACAD_XDICTIONARY
360
3376
102
}
330
2
100
AcDbSymbolTableRecord
100
AcDbLayerTableRecord
  2
02_ALL_AXES
 70
     0
 62
     7
  6
CONTINUOUS
370
    -3
390
F
1071
 33554687
  0
LAYER
  5
203
102
{ACAD_XDICTIONARY
360
3378
102
}
330
2
100
AcDbSymbolTableRecord
100
AcDbLayerTableRecord
  2
02__ASM_ALL_AXES
 70
     0
 62
     7
  6
CONTINUOUS
370
    -3
390
F
1071
 33554687
  0
LAYER
  5
204
102
{ACAD_XDICTIONARY
360
337A
102
}
330
2
100
AcDbSymbolTableRecord
100
AcDbLayerTableRecord
  2
02___PRT_ALL_AXES
 70
     0
 62
     7
  6
CONTINUOUS
370
    -3
390
F
1071
 33554687
  0
LAYER
  5
205
102
{ACAD_XDICTIONARY
360
337C
102
}
330
2
100
AcDbSymbolTableRecord
100
AcDbLayerTableRecord
  2
03_ALL_CURVES
 70
     0
 62
     7
  6
CONTINUOUS
370
    -3
390
F
1071
 33554687
  0
LAYER
  5
206
102
{ACAD_XDICTIONARY
360
337E
102
}
330
2
100
AcDbSymbolTableRecord
100
AcDbLayerTableRecord
  2
03__ASM_ALL_CURVES
 70
     0
 62
     7
  6
CONTINUOUS
370
    -3
390
F
1071
 33554687
  0
LAYER
  5
207
102
{ACAD_XDICTIONARY
360
3380
102
}
330
2
100
AcDbSymbolTableRecord
100
AcDbLayerTableRecord
  2
03___PRT_ALL_CURVES
 70
     0
 62
     7
  6
CONTINUOUS
370
    -3
390
F
1071
 33554687
  0
LAYER
  5
208
102
{ACAD_XDICTIONARY
360
3382
102
}
330
2
100
AcDbSymbolTableRecord
100
AcDbLayerTableRecord
  2
04_ALL_DTM_PNT
 70
     0
 62
     7
  6
CONTINUOUS
370
    -3
390
F
1071
 33554687
  0
LAYER
  5
209
102
{ACAD_XDICTIONARY
360
3384
102
}
330
2
100
AcDbSymbolTableRecord
100
AcDbLayerTableRecord
  2
04__ASM_ALL_DTM_PNT
 70
     0
 62
     7
  6
CONTINUOUS
370
    -3
390
F
1071
 33554687
  0
LAYER
  5
20A
102
{ACAD_XDICTIONARY
360
3386
102
}
330
2
100
AcDbSymbolTableRecord
100
AcDbLayerTableRecord
  2
04___PRT_ALL_DTM_PNT
 70
     0
 62
     7
  6
CONTINUOUS
370
    -3
390
F
1071
 33554687
  0
LAYER
  5
20B
102
{ACAD_XDICTIONARY
360
3388
102
}
330
2
100
AcDbSymbolTableRecord
100
AcDbLayerTableRecord
  2
05_ALL_DTM_CSYS
 70
     0
 62
     7
  6
CONTINUOUS
370
    -3
390
F
1071
 33554687
  0
LAYER
  5
20C
102
{ACAD_XDICTIONARY
360
338A
102
}
330
2
100
AcDbSymbolTableRecord
100
AcDbLayerTableRecord
  2
05__ASM_ALL_DTM_CSYS
 70
     0
 62
     7
  6
CONTINUOUS
370
    -3
390
F
1071
 33554687
  0
LAYER
  5
20D
102
{ACAD_XDICTIONARY
360
338C
102
}
330
2
100
AcDbSymbolTableRecord
100
AcDbLayerTableRecord
  2
05__ASM_DEF_DTM_CSYS
 70
     0
 62
     7
  6
CONTINUOUS
370
    -3
390
F
1071
 33554687
  0
LAYER
  5
20E
102
{ACAD_XDICTIONARY
360
338E
102
}
330
2
100
AcDbSymbolTableRecord
100
AcDbLayerTableRecord
  2
05___PRT_ALL_DTM_CSYS
 70
     0
 62
     7
  6
CONTINUOUS
370
    -3
390
F
1071
 33554687
  0
LAYER
  5
20F
102
{ACAD_XDICTIONARY
360
3390
102
}
330
2
100
AcDbSymbolTableRecord
100
AcDbLayerTableRecord
  2
05___PRT_DEF_DTM_CSYS
 70
     0
 62
     7
  6
CONTINUOUS
370
    -3
390
F
1071
 33554687
  0
LAYER
  5
210
102
{ACAD_XDICTIONARY
360
3392
102
}
330
2
100
AcDbSymbolTableRecord
100
AcDbLayerTableRecord
  2
06_ALL_SURFS
 70
     0
 62
     7
  6
CONTINUOUS
370
    -3
390
F
1071
 33554687
  0
LAYER
  5
211
102
{ACAD_XDICTIONARY
360
3394
102
}
330
2
100
AcDbSymbolTableRecord
100
AcDbLayerTableRecord
  2
06__ASM_ALL_SURFS
 70
     0
 62
     7
  6
CONTINUOUS
370
    -3
390
F
1071
 33554687
  0
LAYER
  5
212
102
{ACAD_XDICTIONARY
360
3396
102
}
330
2
100
AcDbSymbolTableRecord
100
AcDbLayerTableRecord
  2
06___PRT_ALL_SURFS
 70
     0
 62
     7
  6
CONTINUOUS
370
    -3
390
F
1071
 33554687
  0
LAYER
  5
213
102
{ACAD_XDICTIONARY
360
3398
102
}
330
2
100
AcDbSymbolTableRecord
100
AcDbLayerTableRecord
  2
07__ASM_ALL_SKELETONS
 70
     0
 62
     7
  6
CONTINUOUS
370
    -3
390
F
1071
 33554687
  0
LAYER
  5
214
102
{ACAD_XDICTIONARY
360
339A
102
}
330
2
100
AcDbSymbolTableRecord
100
AcDbLayerTableRecord
  2
3_ALL_SYMBOLS
 70
     0
 62
     7
  6
CONTINUOUS
370
    -3
390
F
1071
 33554687
  0
LAYER
  5
1768
102
{ACAD_XDICTIONARY
360
339C
102
}
330
2
100
AcDbSymbolTableRecord
100
AcDbLayerTableRecord
  2
Defpoints
 70
     0
 62
     7
  6
CONTINUOUS
290
     0
370
    -3
390
F
1071
 33554687
  0
ENDTAB
  0
TABLE
  2
STYLE
  5
3
330
0
100
AcDbSymbolTable
 70
     3
  0
STYLE
  5
11
330
3
100
AcDbSymbolTableRecord
100
AcDbTextStyleTableRecord
  2
STANDARD
 70
     0
 40
0.0
 41
1.0
 50
0.0
 71
     0
 42
0.2
  3
arial.ttf
  4

1001
ACAD
1000
Arial
1071
      290
  0
STYLE
  5
215
330
3
100
AcDbSymbolTableRecord
100
AcDbTextStyleTableRecord
  2
TEXTSTYLE_1
 70
     0
 40
0.0
 41
0.8
 50
0.0
 71
     0
 42
0.2
  3
gdt
  4

  0
STYLE
  5
216
330
3
100
AcDbSymbolTableRecord
100
AcDbTextStyleTableRecord
  2
TEXTSTYLE_2
 70
     0
 40
0.0
 41
1.0
 50
0.0
 71
     0
 42
0.2
  3
symbol_iso.ttf
  4

  0
ENDTAB
  0
TABLE
  2
VIEW
  5
6
330
0
100
AcDbSymbolTable
 70
     0
  0
ENDTAB
  0
TABLE
  2
UCS
  5
7
330
0
100
AcDbSymbolTable
 70
     0
  0
ENDTAB
  0
TABLE
  2
APPID
  5
9
330
0
100
AcDbSymbolTable
 70
     4
  0
APPID
  5
217
330
9
100
AcDbSymbolTableRecord
100
AcDbRegAppTableRecord
  2
ACAD
 70
     0
  0
APPID
  5
17C2
330
9
100
AcDbSymbolTableRecord
100
AcDbRegAppTableRecord
  2
AcadAnnotative
 70
     0
  0
APPID
  5
17C3
330
9
100
AcDbSymbolTableRecord
100
AcDbRegAppTableRecord
  2
ACAD_DSTYLE_DIMBREAK
 70
     0
  0
APPID
  5
33A6
330
9
100
AcDbSymbolTableRecord
100
AcDbRegAppTableRecord
  2
ACAD_MLEADERVER
 70
     0
  0
ENDTAB
  0
TABLE
  2
DIMSTYLE
  5
A
330
0
100
AcDbSymbolTable
 70
     3
100
AcDbDimStyleTable
 71
     0
  0
DIMSTYLE
105
21F
330
A
100
AcDbSymbolTableRecord
100
AcDbDimStyleTableRecord
  2
STANDARD
 70
     0
 41
0.1875
 44
0.125
 47
0.01
 48
0.01
 78
     4
 79
     1
140
0.15625
171
     1
179
     2
271
     2
272
     2
284
     4
340
11
341
21A
342
21A
343
21A
344
21A
  0
DIMSTYLE
105
220
102
{ACAD_REACTORS
330
32D9
330
3309
330
343F
330
344D
330
3492
330
3493
330
3523
330
3531
330
3576
330
3577
102
}
330
A
100
AcDbSymbolTableRecord
100
AcDbDimStyleTableRecord
  2
DIMSTYLE_1
 70
     0
 41
4.799999999999999
 42
0.0
 44
2.6
 78
     4
 79
     1
140
10.0
147
4.799999999999999
171
     1
179
     2
271
     0
272
     2
284
     4
340
11
343
21A
344
21A
1001
AcadAnnotative
1000
AnnotativeData
1002
{
1070
     1
1070
     0
1002
}
1001
ACAD_DSTYLE_DIMBREAK
1070
   391
1040
0.0
  0
DIMSTYLE
105
221
330
A
100
AcDbSymbolTableRecord
100
AcDbDimStyleTableRecord
  2
DIMSTYLE_2
 70
     0
 41
0.1875
 44
0.125
 78
     4
 79
     1
140
0.15625
147
0.078125
171
     1
179
     2
271
     0
272
     2
284
     4
340
11
341
21A
342
21A
343
21A
344
21A
  0
ENDTAB
  0
TABLE
  2
BLOCK_RECORD
  5
1
330
0
100
AcDbSymbolTable
 70
    13
  0
BLOCK_RECORD
  5
218
102
{ACAD_XDICTIONARY
360
1766
102
}
330
1
100
AcDbSymbolTableRecord
100
AcDbBlockTableRecord
  2
*Model_Space
340
16F7
  0
BLOCK_RECORD
  5
219
330
1
100
AcDbSymbolTableRecord
100
AcDbBlockTableRecord
  2
*Paper_Space
340
16F8
  0
BLOCK_RECORD
  5
21A
330
1
100
AcDbSymbolTableRecord
100
AcDbBlockTableRecord
  2
_FILLED
340
0
  0
BLOCK_RECORD
  5
32DA
330
1
100
AcDbSymbolTableRecord
100
AcDbBlockTableRecord
  2
*D1
340
0
  0
BLOCK_RECORD
  5
330A
330
1
100
AcDbSymbolTableRecord
100
AcDbBlockTableRecord
  2
*D2
340
0
  0
BLOCK_RECORD
  5
3440
330
1
100
AcDbSymbolTableRecord
100
AcDbBlockTableRecord
  2
*D4
340
0
  0
BLOCK_RECORD
  5
344E
330
1
100
AcDbSymbolTableRecord
100
AcDbBlockTableRecord
  2
*D5
340
0
  0
BLOCK_RECORD
  5
3494
330
1
100
AcDbSymbolTableRecord
100
AcDbBlockTableRecord
  2
*D6
340
0
  0
BLOCK_RECORD
  5
34A1
330
1
100
AcDbSymbolTableRecord
100
AcDbBlockTableRecord
  2
*D7
340
0
  0
BLOCK_RECORD
  5
3524
330
1
100
AcDbSymbolTableRecord
100
AcDbBlockTableRecord
  2
*D9
340
0
  0
BLOCK_RECORD
  5
3532
330
1
100
AcDbSymbolTableRecord
100
AcDbBlockTableRecord
  2
*D10
340
0
  0
BLOCK_RECORD
  5
3578
330
1
100
AcDbSymbolTableRecord
100
AcDbBlockTableRecord
  2
*D11
340
0
  0
BLOCK_RECORD
  5
3585
330
1
100
AcDbSymbolTableRecord
100
AcDbBlockTableRecord
  2
*D12
340
0
  0
ENDTAB
  0
ENDSEC
  0
SECTION
  2
BLOCKS
  0
BLOCK
  5
20
330
218
100
AcDbEntity
  8
0
100
AcDbBlockBegin
  2
*Model_Space
 70
     0
 10
0.0
 20
0.0
 30
0.0
  3
*Model_Space
  1

  0
ENDBLK
  5
21
330
218
100
AcDbEntity
  8
0
100
AcDbBlockEnd
  0
BLOCK
  5
1C
330
219
100
AcDbEntity
 67
     1
  8
0
100
AcDbBlockBegin
  2
*Paper_Space
 70
     0
 10
0.0
 20
0.0
 30
0.0
  3
*Paper_Space
  1

  0
ENDBLK
  5
1D
330
219
100
AcDbEntity
 67
     1
  8
0
100
AcDbBlockEnd
  0
BLOCK
  5
222
330
21A
100
AcDbEntity
  8
0
100
AcDbBlockBegin
  2
_FILLED
 70
     0
 10
0.0
 20
0.0
 30
0.0
  3
_FILLED
  1

  0
SOLID
  5
223
330
21A
100
AcDbEntity
  8
0
  6
ByBlock
 62
     0
100
AcDbTrace
 10
0.0
 20
0.0
 30
0.0
 11
-1.0
 21
0.1666666667
 31
0.0
 12
-1.0
 22
-0.1666666667
 32
0.0
 13
-1.0
 23
-0.1666666667
 33
0.0
  0
ENDBLK
  5
224
330
21A
100
AcDbEntity
  8
0
  6
ByBlock
 62
     0
100
AcDbBlockEnd
  0
BLOCK
  5
32E5
330
32DA
100
AcDbEntity
  8
0
100
AcDbBlockBegin
  2
*D1
 70
     1
 10
0.0
 20
0.0
 30
0.0
  3
*D1
  1

  0
LINE
  5
35CE
330
32DA
100
AcDbEntity
  8
0
 62
     0
370
    -2
100
AcDbLine
 10
664.6830820383581
 20
-81.30345679685339
 30
0.0
 11
664.6830820383581
 21
-89.44924923602327
 31
0.0
  0
LINE
  5
35CF
330
32DA
100
AcDbEntity
  8
0
 62
     0
370
    -2
100
AcDbLine
 10
764.6830543774581
 20
-81.30345679685339
 30
0.0
 11
764.6830543774581
 21
-89.44924923602327
 31
0.0
  0
LINE
  5
35D0
330
32DA
100
AcDbEntity
  8
0
 62
     0
370
    -2
100
AcDbLine
 10
669.4830820383581
 20
-86.84924923602327
 30
0.0
 11
693.4130818504729
 21
-86.84924923602327
 31
0.0
  0
LINE
  5
35D1
330
32DA
100
AcDbEntity
  8
0
 62
     0
370
    -2
100
AcDbLine
 10
759.8830543774582
 20
-86.84924923602327
 30
0.0
 11
735.9530545653433
 21
-86.84924923602327
 31
0.0
  0
SOLID
  5
35D2
330
32DA
100
AcDbEntity
  8
0
 62
     0
100
AcDbTrace
 10
669.4830820383581
 20
-86.04924923602327
 30
0.0
 11
669.4830820383581
 21
-87.64924923602327
 31
0.0
 12
664.6830820383581
 22
-86.84924923602327
 32
0.0
 13
664.6830820383581
 23
-86.84924923602327
 33
0.0
  0
SOLID
  5
35D3
330
32DA
100
AcDbEntity
  8
0
 62
     0
100
AcDbTrace
 10
759.8830543774582
 20
-87.64924923602327
 30
0.0
 11
759.8830543774582
 21
-86.04924923602327
 31
0.0
 12
764.6830543774581
 22
-86.84924923602327
 32
0.0
 13
764.6830543774581
 23
-86.84924923602327
 33
0.0
  0
MTEXT
  5
35D4
330
32DA
100
AcDbEntity
  8
0
 62
     0
100
AcDbMText
 10
714.6830682079081
 20
-86.84924923602327
 30
0.0
 40
10.0
 41
0.0
 71
     5
 72
     1
  1
\A1;\A1;%%C100
 73
     1
 44
1.0
1001
ACAD
1000
MTEXTBEGIN
1070
    73
1070
     1
1070
    44
1040
1.0
1070
    74
1070
     0
1000
MTEXTEND
  0
POINT
  5
35D5
330
32DA
100
AcDbEntity
  8
Defpoints
 62
     0
100
AcDbPoint
 10
664.6830820383581
 20
-81.30345679685339
 30
0.0
  0
POINT
  5
35D6
330
32DA
100
AcDbEntity
  8
Defpoints
 62
     0
100
AcDbPoint
 10
764.6830543774581
 20
-81.30345679685339
 30
0.0
  0
POINT
  5
35D7
330
32DA
100
AcDbEntity
  8
Defpoints
 62
     0
100
AcDbPoint
 10
764.6830543774581
 20
-86.84924923602327
 30
0.0
  0
ENDBLK
  5
32E6
330
32DA
100
AcDbEntity
  8
0
100
AcDbBlockEnd
  0
BLOCK
  5
3315
330
330A
100
AcDbEntity
  8
0
100
AcDbBlockBegin
  2
*D2
 70
     1
 10
0.0
 20
0.0
 30
0.0
  3
*D2
  1

  0
LINE
  5
35D8
330
330A
100
AcDbEntity
  8
0
 62
     0
370
    -2
100
AcDbLine
 10
619.4100450175065
 20
101.2848075325212
 30
0.0
 11
608.071183019991
 21
101.2848075325212
 31
0.0
  0
LINE
  5
35D9
330
330A
100
AcDbEntity
  8
0
 62
     0
370
    -2
100
AcDbLine
 10
619.4100450175065
 20
-54.04924898127973
 30
0.0
 11
608.071183019991
 21
-54.04924898127973
 31
0.0
  0
LINE
  5
35DA
330
330A
100
AcDbEntity
  8
0
 62
     0
370
    -2
100
AcDbLine
 10
610.6711830199911
 20
96.48480753252126
 30
0.0
 11
610.6711830199911
 21
33.52350915283768
 31
0.0
  0
LINE
  5
35DB
330
330A
100
AcDbEntity
  8
0
 62
     0
370
    -2
100
AcDbLine
 10
610.6711830199911
 20
-49.24924898127972
 30
0.0
 11
610.6711830199911
 21
13.71204939840385
 31
0.0
  0
SOLID
  5
35DC
330
330A
100
AcDbEntity
  8
0
 62
     0
100
AcDbTrace
 10
611.471183019991
 20
96.48480753252126
 30
0.0
 11
609.8711830199911
 21
96.48480753252126
 31
0.0
 12
610.6711830199911
 22
101.2848075325212
 32
0.0
 13
610.6711830199911
 23
101.2848075325212
 33
0.0
  0
SOLID
  5
35DD
330
330A
100
AcDbEntity
  8
0
 62
     0
100
AcDbTrace
 10
609.8711830199911
 20
-49.24924898127972
 30
0.0
 11
611.471183019991
 21
-49.24924898127972
 31
0.0
 12
610.6711830199911
 22
-54.04924898127973
 32
0.0
 13
610.6711830199911
 23
-54.04924898127973
 33
0.0
  0
MTEXT
  5
35DE
330
330A
100
AcDbEntity
  8
0
 62
     0
100
AcDbMText
 10
610.6711830199911
 20
23.61777927562076
 30
0.0
 40
10.0
 41
0.0
 71
     5
 72
     1
  1
\A1;155
 73
     1
 44
1.0
1001
ACAD
1000
MTEXTBEGIN
1070
    73
1070
     1
1070
    44
1040
1.0
1070
    74
1070
     0
1000
MTEXTEND
  0
POINT
  5
35DF
330
330A
100
AcDbEntity
  8
Defpoints
 62
     0
100
AcDbPoint
 10
619.4100450175065
 20
101.2848075325212
 30
0.0
  0
POINT
  5
35E0
330
330A
100
AcDbEntity
  8
Defpoints
 62
     0
100
AcDbPoint
 10
619.4100450175065
 20
-54.04924898127973
 30
0.0
  0
POINT
  5
35E1
330
330A
100
AcDbEntity
  8
Defpoints
 62
     0
100
AcDbPoint
 10
610.6711830199911
 20
-54.04924898127973
 30
0.0
  0
ENDBLK
  5
3316
330
330A
100
AcDbEntity
  8
0
100
AcDbBlockEnd
  0
BLOCK
  5
3441
330
3440
100
AcDbEntity
  8
0
100
AcDbBlockBegin
  2
*D4
 70
     1
 10
0.0
 20
0.0
 30
0.0
  3
*D4
  1

  0
LINE
  5
3442
330
3440
100
AcDbEntity
  8
0
 62
     0
370
    -2
100
AcDbLine
 10
1012.299661638492
 20
-85.82459077589838
 30
0.0
 11
1012.299661638492
 21
-92.24140086638575
 31
0.0
  0
LINE
  5
3443
330
3440
100
AcDbEntity
  8
0
 62
     0
370
    -2
100
AcDbLine
 10
1137.299661638492
 20
-85.82459077589838
 30
0.0
 11
1137.299661638492
 21
-92.24140086638575
 31
0.0
  0
LINE
  5
3444
330
3440
100
AcDbEntity
  8
0
 62
     0
370
    -2
100
AcDbLine
 10
1017.099661638491
 20
-89.64140086638575
 30
0.0
 11
1053.475105021848
 21
-89.64140086638575
 31
0.0
  0
LINE
  5
3445
330
3440
100
AcDbEntity
  8
0
 62
     0
370
    -2
100
AcDbLine
 10
1132.499661638491
 20
-89.64140086638575
 30
0.0
 11
1096.124218255135
 21
-89.64140086638575
 31
0.0
  0
SOLID
  5
3446
330
3440
100
AcDbEntity
  8
0
 62
     0
100
AcDbTrace
 10
1017.099661638491
 20
-88.84140086638575
 30
0.0
 11
1017.099661638491
 21
-90.44140086638575
 31
0.0
 12
1012.299661638492
 22
-89.64140086638575
 32
0.0
 13
1012.299661638492
 23
-89.64140086638575
 33
0.0
  0
SOLID
  5
3447
330
3440
100
AcDbEntity
  8
0
 62
     0
100
AcDbTrace
 10
1132.499661638491
 20
-90.44140086638575
 30
0.0
 11
1132.499661638491
 21
-88.84140086638575
 31
0.0
 12
1137.299661638492
 22
-89.64140086638575
 32
0.0
 13
1137.299661638492
 23
-89.64140086638575
 33
0.0
  0
MTEXT
  5
3448
330
3440
100
AcDbEntity
  8
0
 62
     0
100
AcDbMText
 10
1074.799661638492
 20
-89.64140086638575
 30
0.0
 40
10.0
 41
0.0
 71
     5
 72
     1
  1
\A1;\A1;%%C125
 73
     1
 44
1.0
1001
ACAD
1000
MTEXTBEGIN
1070
    73
1070
     1
1070
    44
1040
1.0
1070
    74
1070
     0
1000
MTEXTEND
  0
POINT
  5
3449
330
3440
100
AcDbEntity
  8
Defpoints
 62
     0
100
AcDbPoint
 10
1012.299661638492
 20
-85.82459077589838
 30
0.0
  0
POINT
  5
344A
330
3440
100
AcDbEntity
  8
Defpoints
 62
     0
100
AcDbPoint
 10
1137.299661638492
 20
-85.82459077589838
 30
0.0
  0
POINT
  5
344B
330
3440
100
AcDbEntity
  8
Defpoints
 62
     0
100
AcDbPoint
 10
1137.299661638492
 20
-89.64140086638575
 30
0.0
  0
ENDBLK
  5
344C
330
3440
100
AcDbEntity
  8
0
100
AcDbBlockEnd
  0
BLOCK
  5
344F
330
344E
100
AcDbEntity
  8
0
100
AcDbBlockBegin
  2
*D5
 70
     1
 10
0.0
 20
0.0
 30
0.0
  3
*D5
  1

  0
LINE
  5
3450
330
344E
100
AcDbEntity
  8
0
 62
     0
370
    -2
100
AcDbLine
 10
965.1454047842671
 20
131.0231685216181
 30
0.0
 11
953.0144159359435
 21
131.0231685216181
 31
0.0
  0
LINE
  5
3451
330
344E
100
AcDbEntity
  8
0
 62
     0
370
    -2
100
AcDbLine
 10
965.1454047842671
 20
-53.97683147838188
 30
0.0
 11
953.0144159359435
 21
-53.97683147838188
 31
0.0
  0
LINE
  5
3452
330
344E
100
AcDbEntity
  8
0
 62
     0
370
    -2
100
AcDbLine
 10
955.6144159359435
 20
126.2231685216181
 30
0.0
 11
955.6144159359435
 21
48.42889839883503
 31
0.0
  0
LINE
  5
3453
330
344E
100
AcDbEntity
  8
0
 62
     0
370
    -2
100
AcDbLine
 10
955.6144159359435
 20
-49.17683147838189
 30
0.0
 11
955.6144159359435
 21
28.6174386444012
 31
0.0
  0
SOLID
  5
3454
330
344E
100
AcDbEntity
  8
0
 62
     0
100
AcDbTrace
 10
956.4144159359434
 20
126.2231685216181
 30
0.0
 11
954.8144159359436
 21
126.2231685216181
 31
0.0
 12
955.6144159359435
 22
131.0231685216181
 32
0.0
 13
955.6144159359435
 23
131.0231685216181
 33
0.0
  0
SOLID
  5
3455
330
344E
100
AcDbEntity
  8
0
 62
     0
100
AcDbTrace
 10
954.8144159359436
 20
-49.17683147838189
 30
0.0
 11
956.4144159359434
 21
-49.17683147838189
 31
0.0
 12
955.6144159359435
 22
-53.97683147838188
 32
0.0
 13
955.6144159359435
 23
-53.97683147838188
 33
0.0
  0
MTEXT
  5
3456
330
344E
100
AcDbEntity
  8
0
 62
     0
100
AcDbMText
 10
955.6144159359435
 20
38.52316852161812
 30
0.0
 40
10.0
 41
0.0
 71
     5
 72
     1
  1
\A1;185
 73
     1
 44
1.0
1001
ACAD
1000
MTEXTBEGIN
1070
    73
1070
     1
1070
    44
1040
1.0
1070
    74
1070
     0
1000
MTEXTEND
  0
POINT
  5
3457
330
344E
100
AcDbEntity
  8
Defpoints
 62
     0
100
AcDbPoint
 10
965.1454047842671
 20
131.0231685216181
 30
0.0
  0
POINT
  5
3458
330
344E
100
AcDbEntity
  8
Defpoints
 62
     0
100
AcDbPoint
 10
965.1454047842671
 20
-53.97683147838188
 30
0.0
  0
POINT
  5
3459
330
344E
100
AcDbEntity
  8
Defpoints
 62
     0
100
AcDbPoint
 10
955.6144159359435
 20
-53.97683147838188
 30
0.0
  0
ENDBLK
  5
345A
330
344E
100
AcDbEntity
  8
0
100
AcDbBlockEnd
  0
BLOCK
  5
349F
330
3494
100
AcDbEntity
  8
0
100
AcDbBlockBegin
  2
*D6
 70
     1
 10
0.0
 20
0.0
 30
0.0
  3
*D6
  1

  0
LINE
  5
35BA
330
3494
100
AcDbEntity
  8
0
 62
     0
370
    -2
100
AcDbLine
 10
930.8068006594657
 20
-85.56295176499528
 30
0.0
 11
930.8068006594657
 21
-91.97976185548263
 31
0.0
  0
LINE
  5
35BB
330
3494
100
AcDbEntity
  8
0
 62
     0
370
    -2
100
AcDbLine
 10
1055.806800659466
 20
-85.56295176499528
 30
0.0
 11
1055.806800659466
 21
-91.97976185548263
 31
0.0
  0
LINE
  5
35BC
330
3494
100
AcDbEntity
  8
0
 62
     0
370
    -2
100
AcDbLine
 10
935.6068006594657
 20
-89.37976185548263
 30
0.0
 11
971.982244042822
 21
-89.37976185548263
 31
0.0
  0
LINE
  5
35BD
330
3494
100
AcDbEntity
  8
0
 62
     0
370
    -2
100
AcDbLine
 10
1051.006800659466
 20
-89.37976185548263
 30
0.0
 11
1014.631357276109
 21
-89.37976185548263
 31
0.0
  0
SOLID
  5
35BE
330
3494
100
AcDbEntity
  8
0
 62
     0
100
AcDbTrace
 10
935.6068006594657
 20
-88.57976185548265
 30
0.0
 11
935.6068006594657
 21
-90.17976185548263
 31
0.0
 12
930.8068006594657
 22
-89.37976185548263
 32
0.0
 13
930.8068006594657
 23
-89.37976185548263
 33
0.0
  0
SOLID
  5
35BF
330
3494
100
AcDbEntity
  8
0
 62
     0
100
AcDbTrace
 10
1051.006800659466
 20
-90.17976185548263
 30
0.0
 11
1051.006800659466
 21
-88.57976185548265
 31
0.0
 12
1055.806800659466
 22
-89.37976185548263
 32
0.0
 13
1055.806800659466
 23
-89.37976185548263
 33
0.0
  0
MTEXT
  5
35C0
330
3494
100
AcDbEntity
  8
0
 62
     0
100
AcDbMText
 10
993.3068006594657
 20
-89.37976185548263
 30
0.0
 40
10.0
 41
0.0
 71
     5
 72
     1
  1
\A1;\A1;%%C125
 73
     1
 44
1.0
1001
ACAD
1000
MTEXTBEGIN
1070
    73
1070
     1
1070
    44
1040
1.0
1070
    74
1070
     0
1000
MTEXTEND
  0
POINT
  5
35C1
330
3494
100
AcDbEntity
  8
Defpoints
 62
     0
100
AcDbPoint
 10
930.8068006594657
 20
-85.56295176499528
 30
0.0
  0
POINT
  5
35C2
330
3494
100
AcDbEntity
  8
Defpoints
 62
     0
100
AcDbPoint
 10
1055.806800659466
 20
-85.56295176499528
 30
0.0
  0
POINT
  5
35C3
330
3494
100
AcDbEntity
  8
Defpoints
 62
     0
100
AcDbPoint
 10
1055.806800659466
 20
-89.37976185548263
 30
0.0
  0
ENDBLK
  5
34A0
330
3494
100
AcDbEntity
  8
0
100
AcDbBlockEnd
  0
BLOCK
  5
34AC
330
34A1
100
AcDbEntity
  8
0
100
AcDbBlockBegin
  2
*D7
 70
     1
 10
0.0
 20
0.0
 30
0.0
  3
*D7
  1

  0
LINE
  5
35C4
330
34A1
100
AcDbEntity
  8
0
 62
     0
370
    -2
100
AcDbLine
 10
883.6525438052413
 20
131.2848075325212
 30
0.0
 11
871.5215549569176
 21
131.2848075325212
 31
0.0
  0
LINE
  5
35C5
330
34A1
100
AcDbEntity
  8
0
 62
     0
370
    -2
100
AcDbLine
 10
883.6525438052413
 20
-53.71519246747877
 30
0.0
 11
871.5215549569176
 21
-53.71519246747877
 31
0.0
  0
LINE
  5
35C6
330
34A1
100
AcDbEntity
  8
0
 62
     0
370
    -2
100
AcDbLine
 10
874.1215549569176
 20
126.4848075325212
 30
0.0
 11
874.1215549569176
 21
48.69053740973814
 31
0.0
  0
LINE
  5
35C7
330
34A1
100
AcDbEntity
  8
0
 62
     0
370
    -2
100
AcDbLine
 10
874.1215549569176
 20
-48.91519246747877
 30
0.0
 11
874.1215549569176
 21
28.87907765530431
 31
0.0
  0
SOLID
  5
35C8
330
34A1
100
AcDbEntity
  8
0
 62
     0
100
AcDbTrace
 10
874.9215549569175
 20
126.4848075325212
 30
0.0
 11
873.3215549569177
 21
126.4848075325212
 31
0.0
 12
874.1215549569176
 22
131.2848075325212
 32
0.0
 13
874.1215549569176
 23
131.2848075325212
 33
0.0
  0
SOLID
  5
35C9
330
34A1
100
AcDbEntity
  8
0
 62
     0
100
AcDbTrace
 10
873.3215549569177
 20
-48.91519246747877
 30
0.0
 11
874.9215549569175
 21
-48.91519246747877
 31
0.0
 12
874.1215549569176
 22
-53.71519246747877
 32
0.0
 13
874.1215549569176
 23
-53.71519246747877
 33
0.0
  0
MTEXT
  5
35CA
330
34A1
100
AcDbEntity
  8
0
 62
     0
100
AcDbMText
 10
874.1215549569176
 20
38.78480753252123
 30
0.0
 40
10.0
 41
0.0
 71
     5
 72
     1
  1
\A1;185
 73
     1
 44
1.0
1001
ACAD
1000
MTEXTBEGIN
1070
    73
1070
     1
1070
    44
1040
1.0
1070
    74
1070
     0
1000
MTEXTEND
  0
POINT
  5
35CB
330
34A1
100
AcDbEntity
  8
Defpoints
 62
     0
100
AcDbPoint
 10
883.6525438052413
 20
131.2848075325212
 30
0.0
  0
POINT
  5
35CC
330
34A1
100
AcDbEntity
  8
Defpoints
 62
     0
100
AcDbPoint
 10
883.6525438052413
 20
-53.71519246747877
 30
0.0
  0
POINT
  5
35CD
330
34A1
100
AcDbEntity
  8
Defpoints
 62
     0
100
AcDbPoint
 10
874.1215549569176
 20
-53.71519246747877
 30
0.0
  0
ENDBLK
  5
34AD
330
34A1
100
AcDbEntity
  8
0
100
AcDbBlockEnd
  0
BLOCK
  5
3525
330
3524
100
AcDbEntity
  8
0
100
AcDbBlockBegin
  2
*D9
 70
     1
 10
0.0
 20
0.0
 30
0.0
  3
*D9
  1

  0
LINE
  5
3526
330
3524
100
AcDbEntity
  8
0
 62
     0
370
    -2
100
AcDbLine
 10
1466.042283401896
 20
-101.2198395932076
 30
0.0
 11
1466.042283401896
 21
-96.30578911583475
 31
0.0
  0
LINE
  5
3527
330
3524
100
AcDbEntity
  8
0
 62
     0
370
    -2
100
AcDbLine
 10
1626.042283401896
 20
-101.2198395932076
 30
0.0
 11
1626.042283401896
 21
-96.30578911583475
 31
0.0
  0
LINE
  5
3528
330
3524
100
AcDbEntity
  8
0
 62
     0
370
    -2
100
AcDbLine
 10
1470.842283401896
 20
-98.90578911583475
 30
0.0
 11
1524.772297044461
 21
-98.90578911583475
 31
0.0
  0
LINE
  5
3529
330
3524
100
AcDbEntity
  8
0
 62
     0
370
    -2
100
AcDbLine
 10
1621.242283401896
 20
-98.90578911583475
 30
0.0
 11
1567.312269759331
 21
-98.90578911583475
 31
0.0
  0
SOLID
  5
352A
330
3524
100
AcDbEntity
  8
0
 62
     0
100
AcDbTrace
 10
1470.842283401896
 20
-98.10578911583474
 30
0.0
 11
1470.842283401896
 21
-99.70578911583473
 31
0.0
 12
1466.042283401896
 22
-98.90578911583475
 32
0.0
 13
1466.042283401896
 23
-98.90578911583475
 33
0.0
  0
SOLID
  5
352B
330
3524
100
AcDbEntity
  8
0
 62
     0
100
AcDbTrace
 10
1621.242283401896
 20
-99.70578911583473
 30
0.0
 11
1621.242283401896
 21
-98.10578911583474
 31
0.0
 12
1626.042283401896
 22
-98.90578911583475
 32
0.0
 13
1626.042283401896
 23
-98.90578911583475
 33
0.0
  0
MTEXT
  5
352C
330
3524
100
AcDbEntity
  8
0
 62
     0
100
AcDbMText
 10
1546.042283401896
 20
-98.90578911583475
 30
0.0
 40
10.0
 41
0.0
 71
     5
 72
     1
  1
\A1;\A1;%%C160
 73
     1
 44
1.0
1001
ACAD
1000
MTEXTBEGIN
1070
    73
1070
     1
1070
    44
1040
1.0
1070
    74
1070
     0
1000
MTEXTEND
  0
POINT
  5
352D
330
3524
100
AcDbEntity
  8
Defpoints
 62
     0
100
AcDbPoint
 10
1466.042283401896
 20
-101.2198395932076
 30
0.0
  0
POINT
  5
352E
330
3524
100
AcDbEntity
  8
Defpoints
 62
     0
100
AcDbPoint
 10
1626.042283401896
 20
-101.2198395932076
 30
0.0
  0
POINT
  5
352F
330
3524
100
AcDbEntity
  8
Defpoints
 62
     0
100
AcDbPoint
 10
1626.042283401896
 20
-98.90578911583475
 30
0.0
  0
ENDBLK
  5
3530
330
3524
100
AcDbEntity
  8
0
100
AcDbBlockEnd
  0
BLOCK
  5
3533
330
3532
100
AcDbEntity
  8
0
100
AcDbBlockBegin
  2
*D10
 70
     1
 10
0.0
 20
0.0
 30
0.0
  3
*D10
  1

  0
LINE
  5
3534
330
3532
100
AcDbEntity
  8
0
 62
     0
370
    -2
100
AcDbLine
 10
1420.547265911033
 20
138.1852407351589
 30
0.0
 11
1409.824851591024
 21
138.1852407351589
 31
0.0
  0
LINE
  5
3535
330
3532
100
AcDbEntity
  8
0
 62
     0
370
    -2
100
AcDbLine
 10
1420.547265911033
 20
-66.81475926484106
 30
0.0
 11
1409.824851591024
 21
-66.81475926484106
 31
0.0
  0
LINE
  5
3536
330
3532
100
AcDbEntity
  8
0
 62
     0
370
    -2
100
AcDbLine
 10
1412.424851591023
 20
133.3852407351589
 30
0.0
 11
1412.424851591023
 21
45.59097061237586
 31
0.0
  0
LINE
  5
3537
330
3532
100
AcDbEntity
  8
0
 62
     0
370
    -2
100
AcDbLine
 10
1412.424851591023
 20
-62.01475926484106
 30
0.0
 11
1412.424851591023
 21
25.77951085794202
 31
0.0
  0
SOLID
  5
3538
330
3532
100
AcDbEntity
  8
0
 62
     0
100
AcDbTrace
 10
1413.224851591023
 20
133.3852407351589
 30
0.0
 11
1411.624851591023
 21
133.3852407351589
 31
0.0
 12
1412.424851591023
 22
138.1852407351589
 32
0.0
 13
1412.424851591023
 23
138.1852407351589
 33
0.0
  0
SOLID
  5
3539
330
3532
100
AcDbEntity
  8
0
 62
     0
100
AcDbTrace
 10
1411.624851591023
 20
-62.01475926484106
 30
0.0
 11
1413.224851591023
 21
-62.01475926484106
 31
0.0
 12
1412.424851591023
 22
-66.81475926484106
 32
0.0
 13
1412.424851591023
 23
-66.81475926484106
 33
0.0
  0
MTEXT
  5
353A
330
3532
100
AcDbEntity
  8
0
 62
     0
100
AcDbMText
 10
1412.424851591023
 20
35.68524073515894
 30
0.0
 40
10.0
 41
0.0
 71
     5
 72
     1
  1
\A1;205
 73
     1
 44
1.0
1001
ACAD
1000
MTEXTBEGIN
1070
    73
1070
     1
1070
    44
1040
1.0
1070
    74
1070
     0
1000
MTEXTEND
  0
POINT
  5
353B
330
3532
100
AcDbEntity
  8
Defpoints
 62
     0
100
AcDbPoint
 10
1420.547265911033
 20
138.1852407351589
 30
0.0
  0
POINT
  5
353C
330
3532
100
AcDbEntity
  8
Defpoints
 62
     0
100
AcDbPoint
 10
1420.547265911033
 20
-66.81475926484106
 30
0.0
  0
POINT
  5
353D
330
3532
100
AcDbEntity
  8
Defpoints
 62
     0
100
AcDbPoint
 10
1412.424851591023
 20
-66.81475926484106
 30
0.0
  0
ENDBLK
  5
353E
330
3532
100
AcDbEntity
  8
0
100
AcDbBlockEnd
  0
BLOCK
  5
3583
330
3578
100
AcDbEntity
  8
0
100
AcDbBlockBegin
  2
*D11
 70
     1
 10
0.0
 20
0.0
 30
0.0
  3
*D11
  1

  0
LINE
  5
3592
330
3578
100
AcDbEntity
  8
0
 62
     0
370
    -2
100
AcDbLine
 10
1234.756808285523
 20
-88.12027279584539
 30
0.0
 11
1234.756808285523
 21
-83.20622231847245
 31
0.0
  0
LINE
  5
3593
330
3578
100
AcDbEntity
  8
0
 62
     0
370
    -2
100
AcDbLine
 10
1394.756808285523
 20
-88.12027279584539
 30
0.0
 11
1394.756808285523
 21
-83.20622231847245
 31
0.0
  0
LINE
  5
3594
330
3578
100
AcDbEntity
  8
0
 62
     0
370
    -2
100
AcDbLine
 10
1239.556808285523
 20
-85.80622231847245
 30
0.0
 11
1293.486821928088
 21
-85.80622231847245
 31
0.0
  0
LINE
  5
3595
330
3578
100
AcDbEntity
  8
0
 62
     0
370
    -2
100
AcDbLine
 10
1389.956808285523
 20
-85.80622231847245
 30
0.0
 11
1336.026794642958
 21
-85.80622231847245
 31
0.0
  0
SOLID
  5
3596
330
3578
100
AcDbEntity
  8
0
 62
     0
100
AcDbTrace
 10
1239.556808285523
 20
-85.00622231847245
 30
0.0
 11
1239.556808285523
 21
-86.60622231847245
 31
0.0
 12
1234.756808285523
 22
-85.80622231847245
 32
0.0
 13
1234.756808285523
 23
-85.80622231847245
 33
0.0
  0
SOLID
  5
3597
330
3578
100
AcDbEntity
  8
0
 62
     0
100
AcDbTrace
 10
1389.956808285523
 20
-86.60622231847245
 30
0.0
 11
1389.956808285523
 21
-85.00622231847245
 31
0.0
 12
1394.756808285523
 22
-85.80622231847245
 32
0.0
 13
1394.756808285523
 23
-85.80622231847245
 33
0.0
  0
MTEXT
  5
3598
330
3578
100
AcDbEntity
  8
0
 62
     0
100
AcDbMText
 10
1314.756808285523
 20
-85.80622231847245
 30
0.0
 40
10.0
 41
0.0
 71
     5
 72
     1
  1
\A1;\A1;%%C160
 73
     1
 44
1.0
1001
ACAD
1000
MTEXTBEGIN
1070
    73
1070
     1
1070
    44
1040
1.0
1070
    74
1070
     0
1000
MTEXTEND
  0
POINT
  5
3599
330
3578
100
AcDbEntity
  8
Defpoints
 62
     0
100
AcDbPoint
 10
1234.756808285523
 20
-88.12027279584539
 30
0.0
  0
POINT
  5
359A
330
3578
100
AcDbEntity
  8
Defpoints
 62
     0
100
AcDbPoint
 10
1394.756808285523
 20
-88.12027279584539
 30
0.0
  0
POINT
  5
359B
330
3578
100
AcDbEntity
  8
Defpoints
 62
     0
100
AcDbPoint
 10
1394.756808285523
 20
-85.80622231847245
 30
0.0
  0
ENDBLK
  5
3584
330
3578
100
AcDbEntity
  8
0
100
AcDbBlockEnd
  0
BLOCK
  5
3590
330
3585
100
AcDbEntity
  8
0
100
AcDbBlockBegin
  2
*D12
 70
     1
 10
0.0
 20
0.0
 30
0.0
  3
*D12
  1

  0
LINE
  5
359C
330
3585
100
AcDbEntity
  8
0
 62
     0
370
    -2
100
AcDbLine
 10
1189.26179079466
 20
151.2848075325212
 30
0.0
 11
1178.53937647465
 21
151.2848075325212
 31
0.0
  0
LINE
  5
359D
330
3585
100
AcDbEntity
  8
0
 62
     0
370
    -2
100
AcDbLine
 10
1189.26179079466
 20
-53.71519246747877
 30
0.0
 11
1178.53937647465
 21
-53.71519246747877
 31
0.0
  0
LINE
  5
359E
330
3585
100
AcDbEntity
  8
0
 62
     0
370
    -2
100
AcDbLine
 10
1181.13937647465
 20
146.4848075325212
 30
0.0
 11
1181.13937647465
 21
58.69053740973814
 31
0.0
  0
LINE
  5
359F
330
3585
100
AcDbEntity
  8
0
 62
     0
370
    -2
100
AcDbLine
 10
1181.13937647465
 20
-48.91519246747877
 30
0.0
 11
1181.13937647465
 21
38.87907765530432
 31
0.0
  0
SOLID
  5
35A0
330
3585
100
AcDbEntity
  8
0
 62
     0
100
AcDbTrace
 10
1181.93937647465
 20
146.4848075325212
 30
0.0
 11
1180.33937647465
 21
146.4848075325212
 31
0.0
 12
1181.13937647465
 22
151.2848075325212
 32
0.0
 13
1181.13937647465
 23
151.2848075325212
 33
0.0
  0
SOLID
  5
35A1
330
3585
100
AcDbEntity
  8
0
 62
     0
100
AcDbTrace
 10
1180.33937647465
 20
-48.91519246747877
 30
0.0
 11
1181.93937647465
 21
-48.91519246747877
 31
0.0
 12
1181.13937647465
 22
-53.71519246747877
 32
0.0
 13
1181.13937647465
 23
-53.71519246747877
 33
0.0
  0
MTEXT
  5
35A2
330
3585
100
AcDbEntity
  8
0
 62
     0
100
AcDbMText
 10
1181.13937647465
 20
48.78480753252123
 30
0.0
 40
10.0
 41
0.0
 71
     5
 72
     1
  1
\A1;205
 73
     1
 44
1.0
1001
ACAD
1000
MTEXTBEGIN
1070
    73
1070
     1
1070
    44
1040
1.0
1070
    74
1070
     0
1000
MTEXTEND
  0
POINT
  5
35A3
330
3585
100
AcDbEntity
  8
Defpoints
 62
     0
100
AcDbPoint
 10
1189.26179079466
 20
151.2848075325212
 30
0.0
  0
POINT
  5
35A4
330
3585
100
AcDbEntity
  8
Defpoints
 62
     0
100
AcDbPoint
 10
1189.26179079466
 20
-53.71519246747877
 30
0.0
  0
POINT
  5
35A5
330
3585
100
AcDbEntity
  8
Defpoints
 62
     0
100
AcDbPoint
 10
1181.13937647465
 20
-53.71519246747877
 30
0.0
  0
ENDBLK
  5
3591
330
3585
100
AcDbEntity
  8
0
100
AcDbBlockEnd
  0
ENDSEC
  0
SECTION
  2
ENTITIES
  0
LINE
  5
329B
330
218
100
AcDbEntity
  8
0
  6
Continuous
 62
     7
100
AcDbLine
 10
664.6830820383581
 20
-53.71519246747875
 30
0.0
 11
764.6830267165581
 21
-53.71519246747875
 31
0.0
  0
LINE
  5
329C
330
218
100
AcDbEntity
  8
0
  6
Continuous
 62
     7
100
AcDbLine
 10
664.6830543774581
 20
84.28480753252125
 30
0.0
 11
664.6830543774581
 21
76.28480753252126
 31
0.0
  0
LINE
  5
329D
330
218
100
AcDbEntity
  8
0
  6
Continuous
 62
     7
100
AcDbLine
 10
664.6830543774581
 20
-53.71519246747875
 30
0.0
 11
664.6830543774581
 21
75.28480753252125
 31
0.0
  0
LINE
  5
329E
330
218
100
AcDbEntity
  8
0
  6
Continuous
 62
     7
100
AcDbLine
 10
665.1830543774581
 20
76.28480753252126
 30
0.0
 11
665.1830543774581
 21
75.28480753252125
 31
0.0
  0
LINE
  5
329F
330
218
100
AcDbEntity
  8
0
  6
Continuous
 62
     7
100
AcDbLine
 10
666.1830543774581
 20
100.2848075325212
 30
0.0
 11
665.9037733385581
 21
84.28480753252125
 31
0.0
  0
LINE
  5
32A0
330
218
100
AcDbEntity
  8
0
  6
Continuous
 62
     7
100
AcDbLine
 10
670.1830543774581
 20
100.2848075325212
 30
0.0
 11
670.1830543774581
 21
101.2848075325212
 31
0.0
  0
LINE
  5
32A1
330
218
100
AcDbEntity
  8
0
  6
Continuous
 62
     7
100
AcDbLine
 10
752.9870725195581
 20
100.2848075325212
 30
0.0
 11
752.9870725195581
 21
101.2848075325212
 31
0.0
  0
LINE
  5
32A2
330
218
100
AcDbEntity
  8
0
  6
Continuous
 62
     7
100
AcDbLine
 10
753.1263080668581
 20
100.2848075325212
 30
0.0
 11
753.1263080668581
 21
101.2848075325212
 31
0.0
  0
LINE
  5
32A3
330
218
100
AcDbEntity
  8
0
  6
Continuous
 62
     7
100
AcDbLine
 10
757.2566102167582
 20
100.4911726639212
 30
0.0
 11
757.2566102167582
 21
101.2848075325212
 31
0.0
  0
LINE
  5
32A4
330
218
100
AcDbEntity
  8
0
  6
Continuous
 62
     7
100
AcDbLine
 10
760.8130702347581
 20
84.28480753252125
 30
0.0
 11
760.763065780958
 21
86.55532769992124
 31
0.0
  0
LINE
  5
32A5
330
218
100
AcDbEntity
  8
0
  6
Continuous
 62
     7
100
AcDbLine
 10
763.1830543774581
 20
100.2848075325212
 30
0.0
 11
763.462335416358
 21
84.28480753252125
 31
0.0
  0
LINE
  5
32A6
330
218
100
AcDbEntity
  8
0
  6
Continuous
 62
     7
100
AcDbLine
 10
760.2132875242581
 20
84.28480753252125
 30
0.0
 11
760.1900916453582
 21
86.55532769992124
 31
0.0
  0
LINE
  5
32A7
330
218
100
AcDbEntity
  8
0
  6
Continuous
 62
     7
100
AcDbLine
 10
758.5851953252581
 20
101.2848075325212
 30
0.0
 11
758.5851953252581
 21
100.2848075325212
 31
0.0
  0
LINE
  5
32A8
330
218
100
AcDbEntity
  8
0
  6
Continuous
 62
     7
100
AcDbLine
 10
759.1830543774581
 20
100.2848075325212
 30
0.0
 11
759.1830543774581
 21
101.2848075325212
 31
0.0
  0
LINE
  5
32A9
330
218
100
AcDbEntity
  8
0
  6
Continuous
 62
     7
100
AcDbLine
 10
761.1633698669582
 20
75.58682843972127
 30
0.0
 11
761.1633698669582
 21
75.28480753252125
 31
0.0
  0
LINE
  5
32AA
330
218
100
AcDbEntity
  8
0
  6
Continuous
 62
     7
100
AcDbLine
 10
761.232116601758
 20
75.28480753252125
 30
0.0
 11
761.232116601758
 21
75.58682843972127
 31
0.0
  0
LINE
  5
32AB
330
218
100
AcDbEntity
  8
0
  6
Continuous
 62
     7
100
AcDbLine
 10
761.4590903155581
 20
84.28480753252125
 30
0.0
 11
761.4590903155581
 21
80.51173975242122
 31
0.0
  0
LINE
  5
32AC
330
218
100
AcDbEntity
  8
0
  6
Continuous
 62
     7
100
AcDbLine
 10
761.8695144875581
 20
80.51173975242122
 30
0.0
 11
761.8695144875581
 21
84.28480753252125
 31
0.0
  0
LINE
  5
32AD
330
218
100
AcDbEntity
  8
0
  6
Continuous
 62
     7
100
AcDbLine
 10
764.1830543774581
 20
76.28480753252126
 30
0.0
 11
764.1830543774581
 21
75.28480753252125
 31
0.0
  0
LINE
  5
32AE
330
218
100
AcDbEntity
  8
0
  6
Continuous
 62
     7
100
AcDbLine
 10
764.6830543774581
 20
84.28480753252125
 30
0.0
 11
764.6830543774581
 21
76.28480753252126
 31
0.0
  0
LINE
  5
32AF
330
218
100
AcDbEntity
  8
0
  6
Continuous
 62
     7
100
AcDbLine
 10
764.6830543774581
 20
-53.71519246747875
 30
0.0
 11
764.6830543774581
 21
75.28480753252125
 31
0.0
  0
LINE
  5
32B0
330
218
100
AcDbEntity
  8
0
  6
Continuous
 62
     7
100
AcDbLine
 10
764.6830267165581
 20
75.28480753252125
 30
0.0
 11
664.6830820383581
 21
75.28480753252125
 31
0.0
  0
LINE
  5
32B1
330
218
100
AcDbEntity
  8
0
  6
Continuous
 62
     7
100
AcDbLine
 10
664.6830543774581
 20
76.28480753252126
 30
0.0
 11
761.0460093788581
 21
76.28480753252126
 31
0.0
  0
LINE
  5
32B2
330
218
100
AcDbEntity
  8
0
  6
Continuous
 62
     7
100
AcDbLine
 10
761.7626426453581
 20
76.28480753252126
 30
0.0
 11
764.6830543774581
 21
76.28480753252126
 31
0.0
  0
LINE
  5
32B3
330
218
100
AcDbEntity
  8
0
  6
Continuous
 62
     7
100
AcDbLine
 10
764.6830543774581
 20
84.28480753252125
 30
0.0
 11
664.6830543774581
 21
84.28480753252125
 31
0.0
  0
LINE
  5
32B4
330
218
100
AcDbEntity
  8
0
  6
Continuous
 62
     7
100
AcDbLine
 10
763.1830543774581
 20
100.2848075325212
 30
0.0
 11
666.1830543774581
 21
100.2848075325212
 31
0.0
  0
LINE
  5
32B5
330
218
100
AcDbEntity
  8
0
  6
Continuous
 62
     7
100
AcDbLine
 10
759.1829283163581
 20
101.2848075325212
 30
0.0
 11
670.1831804385581
 21
101.2848075325212
 31
0.0
  0
ARC
  5
32B6
330
218
100
AcDbEntity
  8
0
  6
Continuous
 62
     7
100
AcDbCircle
 10
777.7514146721581
 20
106.2510225773212
 30
0.0
 40
26.0100825595
100
AcDbArc
 50
228.1326013199991
 51
229.2208756183013
  0
ARC
  5
32B7
330
218
100
AcDbEntity
  8
0
  6
Continuous
 62
     7
100
AcDbCircle
 10
776.1212017278581
 20
78.15227200882126
 30
0.0
 40
23.5565494415
100
AcDbArc
 50
131.3504035010999
 51
132.6502385754996
  0
ARC
  5
32B8
330
218
100
AcDbEntity
  8
0
  6
Continuous
 62
     7
100
AcDbCircle
 10
774.2108407743581
 20
102.3213162923212
 30
0.0
 40
20.7206580166
100
AcDbArc
 50
225.9591344799003
 51
228.1710754646006
  0
ARC
  5
32B9
330
218
100
AcDbEntity
  8
0
  6
Continuous
 62
     7
100
AcDbCircle
 10
778.3007240976582
 20
86.22974662342125
 30
0.0
 40
20.5844790104
100
AcDbArc
 50
152.1820435171003
 51
153.8496585352001
  0
ARC
  5
32BA
330
218
100
AcDbEntity
  8
0
  6
Continuous
 62
     7
100
AcDbCircle
 10
773.3800712091581
 20
81.12575528052124
 30
0.0
 40
19.5123688663
100
AcDbArc
 50
132.6457965177991
 51
134.172034341399
  0
ARC
  5
32BB
330
218
100
AcDbEntity
  8
0
  6
Continuous
 62
     7
100
AcDbCircle
 10
775.9289183977581
 20
87.39653163882124
 30
0.0
 40
17.9412149656
100
AcDbArc
 50
153.8561492318994
 51
154.8066824355011
  0
ARC
  5
32BC
330
218
100
AcDbEntity
  8
0
  6
Continuous
 62
     7
100
AcDbCircle
 10
771.9463026048581
 20
99.95725443942124
 30
0.0
 40
17.4470310732
100
AcDbArc
 50
225.3931479510992
 51
225.9079772091003
  0
ARC
  5
32BD
330
218
100
AcDbEntity
  8
0
  6
Continuous
 62
     7
100
AcDbCircle
 10
775.4560125292581
 20
94.94828131962123
 30
0.0
 40
17.4176012322
100
AcDbArc
 50
205.1863616120998
 51
205.5812174324002
  0
ARC
  5
32BE
330
218
100
AcDbEntity
  8
0
  6
Continuous
 62
     7
100
AcDbCircle
 10
771.8682189273581
 20
82.69187773242123
 30
0.0
 40
17.3355861603
100
AcDbArc
 50
134.1949072945987
 51
134.6076746704989
  0
ARC
  5
32BF
330
218
100
AcDbEntity
  8
0
  6
Continuous
 62
     7
100
AcDbCircle
 10
764.0252686264581
 20
77.43887980382126
 30
0.0
 40
3.1949755041
100
AcDbArc
 50
198.3643629226
 51
201.1748166033002
  0
ARC
  5
32C0
330
218
100
AcDbEntity
  8
0
  6
Continuous
 62
     7
100
AcDbCircle
 10
751.1196238670581
 20
98.41351360782125
 30
0.0
 40
2.909501725299999
100
AcDbArc
 50
40.07571885430094
 51
46.34634493100001
  0
ARC
  5
32C1
330
218
100
AcDbEntity
  8
0
  6
Continuous
 62
     7
100
AcDbCircle
 10
763.0497307288582
 20
77.24608029942124
 30
0.0
 40
2.6540529561
100
AcDbArc
 50
201.2347832035994
 51
204.4211228109006
  0
SPLINE
  5
32C2
330
218
100
AcDbEntity
  8
0
  6
Continuous
 62
     7
100
AcDbSpline
210
0.0
220
0.0
230
1.0
 70
     8
 71
     3
 72
    11
 73
     7
 74
     0
 42
0.000000001
 43
0.0000000001
 40
0.0
 40
0.0
 40
0.0
 40
0.0
 40
0.2539891044
 40
0.5047545727000001
 40
0.7531380433
 40
1.0
 40
1.0
 40
1.0
 40
1.0
 10
757.4501992248581
 20
100.2866497368212
 30
0.0
 10
757.3196017497581
 20
100.4418266213212
 30
0.0
 10
757.0270059353581
 20
100.7241345649212
 30
0.0
 10
756.5116394500582
 20
101.0428838848212
 30
0.0
 10
755.9445518401581
 20
101.2401472235212
 30
0.0
 10
755.5477029942582
 20
101.2848075325212
 30
0.0
 10
755.3505752197581
 20
101.2848075325212
 30
0.0
  0
SPLINE
  5
32C3
330
218
100
AcDbEntity
  8
0
  6
Continuous
 62
     7
100
AcDbSpline
210
0.0
220
0.0
230
1.0
 70
     8
 71
     3
 72
    15
 73
    11
 74
     0
 42
0.000000001
 43
0.0000000001
 40
0.0
 40
0.0
 40
0.0
 40
0.0
 40
0.097943932
 40
0.2179272232
 40
0.353147807
 40
0.4962640910000001
 40
0.6398405304
 40
0.7764771145
 40
0.8988473939
 40
1.0
 40
1.0
 40
1.0
 40
1.0
 10
759.5776538016581
 20
95.33189481872122
 30
0.0
 10
759.4240165369582
 20
95.09861211312125
 30
0.0
 10
759.1606116991581
 20
94.52909058152128
 30
0.0
 10
758.8877397573582
 20
93.55743166532125
 30
0.0
 10
758.7191210395582
 20
92.43111617712122
 30
0.0
 10
758.6715281643582
 20
91.22660033942123
 30
0.0
 10
758.7505733238581
 20
90.01970380412123
 30
0.0
 10
758.9482411639582
 20
88.88593257532125
 30
0.0
 10
759.246264237858
 20
87.90081306042125
 30
0.0
 10
759.5229837727581
 20
87.32063312842123
 30
0.0
 10
759.681673453258
 20
87.07972066092125
 30
0.0
  0
SPLINE
  5
32C4
330
218
100
AcDbEntity
  8
0
  6
Continuous
 62
     7
100
AcDbSpline
210
0.0
220
0.0
230
1.0
 70
     8
 71
     3
 72
    10
 73
     6
 74
     0
 42
0.000000001
 43
0.0000000001
 40
0.0
 40
0.0
 40
0.0
 40
0.0
 40
0.3259070739999999
 40
0.5986482927000001
 40
1.0
 40
1.0
 40
1.0
 40
1.0
 10
760.6331324330581
 20
76.14878828232125
 30
0.0
 10
760.6689920218581
 20
76.07008810632127
 30
0.0
 10
760.7434170285581
 20
75.92821755442122
 30
0.0
 10
760.897831144458
 20
75.71554141272125
 30
0.0
 10
761.0575858816581
 20
75.59920311902127
 30
0.0
 10
761.1633698669582
 20
75.58682843972127
 30
0.0
  0
SPLINE
  5
32C5
330
218
100
AcDbEntity
  8
0
  6
Continuous
 62
     7
100
AcDbSpline
210
0.0
220
0.0
230
1.0
 70
     8
 71
     3
 72
    12
 73
     8
 74
     0
 42
0.000000001
 43
0.0000000001
 40
0.0
 40
0.0
 40
0.0
 40
0.0
 40
0.0744624421
 40
0.1658519154
 40
0.3983726461999999
 40
0.6845995528000001
 40
1.0
 40
1.0
 40
1.0
 40
1.0
 10
761.4590903155581
 20
80.51173975242122
 30
0.0
 10
761.4064122954581
 20
80.47487742362125
 30
0.0
 10
761.3035342068581
 20
80.37237777452125
 30
0.0
 10
761.1142486053581
 20
80.08369347192124
 30
0.0
 10
760.9272550387581
 20
79.58540755992124
 30
0.0
 10
760.7863192155581
 20
78.87756647632125
 30
0.0
 10
760.7538675169581
 20
78.35714038012122
 30
0.0
 10
760.7538675169581
 20
78.08480753252124
 30
0.0
  0
SPLINE
  5
32C6
330
218
100
AcDbEntity
  8
0
  6
Continuous
 62
     7
100
AcDbSpline
210
0.0
220
0.0
230
1.0
 70
     8
 71
     3
 72
     9
 73
     5
 74
     0
 42
0.000000001
 43
0.0000000001
 40
0.0
 40
0.0
 40
0.0
 40
0.0
 40
0.5286866545000001
 40
1.0
 40
1.0
 40
1.0
 40
1.0
 10
760.7538675169581
 20
78.08480753252124
 30
0.0
 10
760.7538675169581
 20
77.78966633822125
 30
0.0
 10
760.7916849324582
 20
77.23090878362126
 30
0.0
 10
760.9100221705581
 20
76.68195795322126
 30
0.0
 10
760.9930063337582
 20
76.43227468772124
 30
0.0
  0
LINE
  5
32C7
330
218
100
AcDbEntity
  8
0
  6
Continuous
 62
     7
100
AcDbLine
 10
760.0494467471581
 20
100.2848075325212
 30
0.0
 11
760.095095214258
 21
95.83577874342125
 31
0.0
  0
SPLINE
  5
32C8
330
218
100
AcDbEntity
  8
0
  6
Continuous
 62
     7
100
AcDbSpline
210
0.0
220
0.0
230
1.0
 70
     8
 71
     3
 72
     9
 73
     5
 74
     0
 42
0.000000001
 43
0.0000000001
 40
0.0
 40
0.0
 40
0.0
 40
0.0
 40
0.2459532982
 40
1.0
 40
1.0
 40
1.0
 40
1.0
 10
760.1900916453582
 20
86.55532769992124
 30
0.0
 10
760.1520946036581
 20
86.62601711602125
 30
0.0
 10
759.9990026564581
 20
86.91417175172123
 30
0.0
 10
759.8520219898581
 20
87.20560530722124
 30
0.0
 10
759.7457869282581
 20
87.42753373392124
 30
0.0
  0
SPLINE
  5
32C9
330
218
100
AcDbEntity
  8
0
  6
Continuous
 62
     7
100
AcDbSpline
210
0.0
220
0.0
230
1.0
 70
     8
 71
     3
 72
     9
 73
     5
 74
     0
 42
0.000000001
 43
0.0000000001
 40
0.0
 40
0.0
 40
0.0
 40
0.0
 40
0.5525905514
 40
1.0
 40
1.0
 40
1.0
 40
1.0
 10
759.681673453258
 20
87.07972066092125
 30
0.0
 10
759.7561679879581
 20
86.96662784922123
 30
0.0
 10
759.9047904107581
 20
86.77053150592124
 30
0.0
 10
760.0945761257581
 20
86.60917122252124
 30
0.0
 10
760.1900916453582
 20
86.55532769992124
 30
0.0
  0
SPLINE
  5
32CA
330
218
100
AcDbEntity
  8
0
  6
Continuous
 62
     7
100
AcDbSpline
210
0.0
220
0.0
230
1.0
 70
     8
 71
     3
 72
    19
 73
    15
 74
     0
 42
0.000000001
 43
0.0000000001
 40
0.0
 40
0.0
 40
0.0
 40
0.0
 40
0.0332488269
 40
0.0755905012
 40
0.1279205429
 40
0.189571026
 40
0.3346530204
 40
0.4963515294
 40
0.6585331096
 40
0.8051800462999999
 40
0.8680423592
 40
0.9218023062
 40
0.9656174058999999
 40
1.0
 40
1.0
 40
1.0
 40
1.0
 10
760.5582774796581
 20
95.83577874342125
 30
0.0
 10
760.6554550327581
 20
95.78801161642124
 30
0.0
 10
760.8457828297581
 20
95.61999714932126
 30
0.0
 10
761.0661480461581
 20
95.26384647232124
 30
0.0
 10
761.2581998827582
 20
94.79040267432125
 30
0.0
 10
761.4846118528581
 20
93.97653138252124
 30
0.0
 10
761.665710590258
 20
92.78677471882124
 30
0.0
 10
761.7574528727581
 20
91.26090335052124
 30
0.0
 10
761.7277957270581
 20
89.72742621162124
 30
0.0
 10
761.5967768615582
 20
88.52071863262123
 30
0.0
 10
761.4078572067581
 20
87.68342501612124
 30
0.0
 10
761.238558326158
 20
87.18731786412124
 30
0.0
 10
761.0369451111581
 20
86.80578719912125
 30
0.0
 10
760.8577274944581
 20
86.61514085362126
 30
0.0
 10
760.763065780958
 20
86.55532769992124
 30
0.0
  0
LINE
  5
32CB
330
218
100
AcDbEntity
  8
0
  6
Continuous
 62
     7
100
AcDbLine
 10
760.5582774796581
 20
95.83577874342125
 30
0.0
 11
760.4598709191581
 21
100.2848075325212
 31
0.0
  0
SPLINE
  5
32CC
330
218
100
AcDbEntity
  8
0
  6
Continuous
 62
     7
100
AcDbSpline
210
0.0
220
0.0
230
1.0
 70
     8
 71
     3
 72
     9
 73
     5
 74
     0
 42
0.000000001
 43
0.0000000001
 40
0.0
 40
0.0
 40
0.0
 40
0.0
 40
0.4441603964
 40
1.0
 40
1.0
 40
1.0
 40
1.0
 10
760.095095214258
 20
95.83577874342125
 30
0.0
 10
759.9971629521582
 20
95.79048866022125
 30
0.0
 10
759.8007339924581
 20
95.63830035752124
 30
0.0
 10
759.6519216755581
 20
95.44466310172124
 30
0.0
 10
759.5776538016581
 20
95.33189481872122
 30
0.0
  0
SPLINE
  5
32CD
330
218
100
AcDbEntity
  8
0
  6
Continuous
 62
     7
100
AcDbSpline
210
0.0
220
0.0
230
1.0
 70
     8
 71
     3
 72
    12
 73
     8
 74
     0
 42
0.000000001
 43
0.0000000001
 40
0.0
 40
0.0
 40
0.0
 40
0.0
 40
0.0742524195
 40
0.1652548924
 40
0.39734119
 40
0.6838332001000001
 40
1.0
 40
1.0
 40
1.0
 40
1.0
 10
759.0393129968581
 20
88.62407243732125
 30
0.0
 10
759.0946784149581
 20
88.66631322082122
 30
0.0
 10
759.2012886983581
 20
88.78181603982126
 30
0.0
 10
759.393284378858
 20
89.10269860532123
 30
0.0
 10
759.5769077655581
 20
89.64983051932126
 30
0.0
 10
759.7116560090581
 20
90.42222020012122
 30
0.0
 10
759.7421783174581
 20
90.98828396992121
 30
0.0
 10
759.7421783174581
 20
91.28480753252125
 30
0.0
  0
SPLINE
  5
32CE
330
218
100
AcDbEntity
  8
0
  6
Continuous
 62
     7
100
AcDbSpline
210
0.0
220
0.0
230
1.0
 70
     8
 71
     3
 72
    15
 73
    11
 74
     0
 42
0.000000001
 43
0.0000000001
 40
0.0
 40
0.0
 40
0.0
 40
0.0
 40
0.1747652715
 40
0.3437550475
 40
0.5011229240999999
 40
0.6420943773
 40
0.7627568879000001
 40
0.860999329
 40
0.9378297768999999
 40
1.0
 40
1.0
 40
1.0
 40
1.0
 10
760.7249213483582
 20
91.28480753252125
 30
0.0
 10
760.7249213483582
 20
91.05605736572124
 30
0.0
 10
760.7099765748581
 20
90.60596452322124
 30
0.0
 10
760.6434992522581
 20
89.95289247972127
 30
0.0
 10
760.535531547358
 20
89.35010019332123
 30
0.0
 10
760.3906002678582
 20
88.82026700932124
 30
0.0
 10
760.2142635840581
 20
88.38182543692125
 30
0.0
 10
760.0118598638581
 20
88.04930392732122
 30
0.0
 10
759.7859780699581
 20
87.82806157122124
 30
0.0
 10
759.6034993099581
 20
87.76806551482124
 30
0.0
 10
759.5221247394581
 20
87.76806551482124
 30
0.0
  0
SPLINE
  5
32CF
330
218
100
AcDbEntity
  8
0
  6
Continuous
 62
     7
100
AcDbSpline
210
0.0
220
0.0
230
1.0
 70
     8
 71
     3
 72
     9
 73
     5
 74
     0
 42
0.000000001
 43
0.0000000001
 40
0.0
 40
0.0
 40
0.0
 40
0.0
 40
0.241305093
 40
1.0
 40
1.0
 40
1.0
 40
1.0
 10
759.5221247394581
 20
87.76806551482124
 30
0.0
 10
759.5036707959581
 20
87.76806551482124
 30
0.0
 10
759.4271832423581
 20
87.77322740252126
 30
0.0
 10
759.352966915558
 20
87.79983388992121
 30
0.0
 10
759.3019903609581
 20
87.82754489002124
 30
0.0
  0
SPLINE
  5
32D0
330
218
100
AcDbEntity
  8
0
  6
Continuous
 62
     7
100
AcDbSpline
210
0.0
220
0.0
230
1.0
 70
     8
 71
     3
 72
    15
 73
    11
 74
     0
 42
0.000000001
 43
0.0000000001
 40
0.0
 40
0.0
 40
0.0
 40
0.0
 40
0.0621702231
 40
0.139000671
 40
0.2372431121
 40
0.3579056227000001
 40
0.4988770759000001
 40
0.6562449525
 40
0.8252347284999999
 40
1.0
 40
1.0
 40
1.0
 40
1.0
 10
759.5221247394581
 20
94.80154955022124
 30
0.0
 10
759.6034993099581
 20
94.80154955022124
 30
0.0
 10
759.7859780699581
 20
94.74155349392123
 30
0.0
 10
760.0118598638581
 20
94.52031113782124
 30
0.0
 10
760.2142635840581
 20
94.18778962822125
 30
0.0
 10
760.3906002678582
 20
93.74934805572124
 30
0.0
 10
760.535531547358
 20
93.21951487172123
 30
0.0
 10
760.6434992522581
 20
92.61672258542125
 30
0.0
 10
760.7099765748581
 20
91.96365054192122
 30
0.0
 10
760.7249213483582
 20
91.51355769942123
 30
0.0
 10
760.7249213483582
 20
91.28480753252125
 30
0.0
  0
SPLINE
  5
32D1
330
218
100
AcDbEntity
  8
0
  6
Continuous
 62
     7
100
AcDbSpline
210
0.0
220
0.0
230
1.0
 70
     8
 71
     3
 72
    13
 73
     9
 74
     0
 42
0.000000001
 43
0.0000000001
 40
0.0
 40
0.0
 40
0.0
 40
0.0
 40
0.3194341911
 40
0.6074505512
 40
0.7313653156000001
 40
0.8385059756
 40
0.9277578803
 40
1.0
 40
1.0
 40
1.0
 40
1.0
 10
759.7421783174581
 20
91.28480753252125
 30
0.0
 10
759.7421783174581
 20
91.58827659372125
 30
0.0
 10
759.7100828270582
 20
92.16575111752124
 30
0.0
 10
759.5882982718582
 20
92.85258233302124
 30
0.0
 10
759.4393865592581
 20
93.32340741272124
 30
0.0
 10
759.3157926601581
 20
93.60248061312125
 30
0.0
 10
759.1783399135581
 20
93.81869368692122
 30
0.0
 10
759.0673215118581
 20
93.92839177852124
 30
0.0
 10
759.0101398895581
 20
93.96634629202125
 30
0.0
  0
SPLINE
  5
32D2
330
218
100
AcDbEntity
  8
0
  6
Continuous
 62
     7
100
AcDbSpline
210
0.0
220
0.0
230
1.0
 70
     8
 71
     3
 72
     9
 73
     5
 74
     0
 42
0.000000001
 43
0.0000000001
 40
0.0
 40
0.0
 40
0.0
 40
0.0
 40
0.4615366001
 40
1.0
 40
1.0
 40
1.0
 40
1.0
 10
762.2327749211581
 20
76.28480753252126
 30
0.0
 10
762.3183342607582
 20
76.55134958872122
 30
0.0
 10
762.429965970058
 20
77.15164941792124
 30
0.0
 10
762.4639682335581
 20
77.75821120222125
 30
0.0
 10
762.4639682335581
 20
78.08480753252124
 30
0.0
  0
SPLINE
  5
32D3
330
218
100
AcDbEntity
  8
0
  6
Continuous
 62
     7
100
AcDbSpline
210
0.0
220
0.0
230
1.0
 70
     8
 71
     3
 72
    13
 73
     9
 74
     0
 42
0.000000001
 43
0.0000000001
 40
0.0
 40
0.0
 40
0.0
 40
0.0
 40
0.3195833353
 40
0.6075672907000001
 40
0.7314136806999999
 40
0.8384870776000001
 40
0.9277632190999998
 40
1.0
 40
1.0
 40
1.0
 40
1.0
 10
762.4639682335581
 20
78.08480753252124
 30
0.0
 10
762.4639682335581
 20
78.35689746382127
 30
0.0
 10
762.4395421158582
 20
78.87439252662125
 30
0.0
 10
762.3456141385581
 20
79.49199329882126
 30
0.0
 10
762.2272888671581
 20
79.91818607782125
 30
0.0
 10
762.1271305118581
 20
80.17254982282123
 30
0.0
 10
762.0130103387581
 20
80.37168634402126
 30
0.0
 10
761.9187751893581
 20
80.47491808002124
 30
0.0
 10
761.8695144875581
 20
80.51173975242122
 30
0.0
  0
SPLINE
  5
32D4
330
218
100
AcDbEntity
  8
0
  6
Continuous
 62
     7
100
AcDbSpline
210
0.0
220
0.0
230
1.0
 70
     8
 71
     3
 72
     8
 73
     4
 74
     0
 42
0.000000001
 43
0.0000000001
 40
0.0
 40
0.0
 40
0.0
 40
0.0
 40
1.0
 40
1.0
 40
1.0
 40
1.0
 10
761.232116601758
 20
75.58682843972127
 30
0.0
 10
761.2554890909581
 20
75.58959324322123
 30
0.0
 10
761.2786496360581
 20
75.59530620262123
 30
0.0
 10
761.3007528650581
 20
75.60339104362125
 30
0.0
  0
SPLINE
  5
32D5
330
218
100
AcDbEntity
  8
0
  6
Continuous
 62
     7
100
AcDbSpline
210
0.0
220
0.0
230
1.0
 70
     8
 71
     3
 72
    10
 73
     6
 74
     0
 42
0.000000001
 43
0.0000000001
 40
0.0
 40
0.0
 40
0.0
 40
0.0
 40
0.4021325581000001
 40
0.6757823131000001
 40
1.0
 40
1.0
 40
1.0
 40
1.0
 10
761.3007528650581
 20
75.60339104362125
 30
0.0
 10
761.4067677815581
 20
75.64216880532123
 30
0.0
 10
761.5464032408581
 20
75.79361667682125
 30
0.0
 10
761.6758719437581
 20
76.03973549382127
 30
0.0
 10
761.7348527299581
 20
76.19814149322124
 30
0.0
 10
761.7626426453581
 20
76.28480753252126
 30
0.0
  0
SPLINE
  5
32D6
330
218
100
AcDbEntity
  8
0
  6
Continuous
 62
     7
100
AcDbSpline
210
0.0
220
0.0
230
1.0
 70
     8
 71
     3
 72
     9
 73
     5
 74
     0
 42
0.000000001
 43
0.0000000001
 40
0.0
 40
0.0
 40
0.0
 40
0.0
 40
0.2688656202
 40
1.0
 40
1.0
 40
1.0
 40
1.0
 10
759.2610570877581
 20
94.71766781592126
 30
0.0
 10
759.2818284023581
 20
94.73115118632126
 30
0.0
 10
759.3616562839581
 20
94.77696809442122
 30
0.0
 10
759.4547836275581
 20
94.80154955022124
 30
0.0
 10
759.5221247394581
 20
94.80154955022124
 30
0.0
  0
ELLIPSE
  5
32D7
330
218
100
AcDbEntity
  8
0
  6
Continuous
 62
     7
100
AcDbEllipse
 10
761.1038698442581
 20
78.08480753252124
 30
0.0
 11
3.190186013499999
 21
0.0
 31
0.0
210
0.0
220
0.0
230
1.0
 40
0.7836533636000001
 41
1.328430475799995
 42
1.459214890199989
  0
ELLIPSE
  5
32D8
330
218
100
AcDbEntity
  8
0
  6
Continuous
 62
     7
100
AcDbEllipse
 10
761.1038698442581
 20
78.08480753252124
 30
0.0
 11
3.190186013499999
 21
0.0
 31
0.0
210
0.0
220
0.0
230
1.0
 40
0.7836533636000001
 41
-1.552144274699996
 42
-1.530585090000018
  0
DIMENSION
  5
32D9
330
218
100
AcDbEntity
  8
0
100
AcDbDimension
  2
*D1
 10
764.6830543774581
 20
-86.84924923602327
 30
0.0
 11
714.6830682079081
 21
-86.84924923602327
 31
0.0
 70
    32
  1
\A1;%%C<>
 71
     5
 42
99.99997233909994
  3
DIMSTYLE_1
100
AcDbAlignedDimension
 13
664.6830820383581
 23
-81.30345679685339
 33
0.0
 14
764.6830543774581
 24
-81.30345679685339
 34
0.0
 50
0.0
100
AcDbRotatedDimension
1001
ACAD
1000
DSTYLE
1002
{
1070
   340
1005
11
1002
}
  0
DIMENSION
  5
3309
330
218
100
AcDbEntity
  8
0
100
AcDbDimension
  2
*D2
 10
610.6711830199911
 20
-54.04924898127973
 30
0.0
 11
610.6711830199911
 21
23.61777927562076
 31
0.0
 70
    32
 71
     5
 42
155.334056513801
  3
DIMSTYLE_1
100
AcDbAlignedDimension
 13
619.4100450175065
 23
101.2848075325212
 33
0.0
 14
619.4100450175065
 24
-54.04924898127973
 34
0.0
 50
90.0
100
AcDbRotatedDimension
  0
LINE
  5
345C
330
218
100
AcDbEntity
  8
0
  6
Continuous
 62
     7
100
AcDbLine
 10
930.8068006594657
 20
-53.71519246747877
 30
0.0
 11
1055.806800659466
 21
-53.71519246747877
 31
0.0
  0
LINE
  5
345D
330
218
100
AcDbEntity
  8
0
  6
Continuous
 62
     7
100
AcDbLine
 10
930.8068006594657
 20
111.2848075325212
 30
0.0
 11
930.8068006594657
 21
103.2848075325212
 31
0.0
  0
LINE
  5
345E
330
218
100
AcDbEntity
  8
0
  6
Continuous
 62
     7
100
AcDbLine
 10
930.8068006594657
 20
-53.71519246747877
 30
0.0
 11
930.8068006594657
 21
102.2848075325212
 31
0.0
  0
LINE
  5
345F
330
218
100
AcDbEntity
  8
0
  6
Continuous
 62
     7
100
AcDbLine
 10
931.3068006594658
 20
103.2848075325212
 30
0.0
 11
931.3068006594658
 21
102.2848075325212
 31
0.0
  0
LINE
  5
3460
330
218
100
AcDbEntity
  8
0
  6
Continuous
 62
     7
100
AcDbLine
 10
932.3068006594658
 20
130.2848075325212
 30
0.0
 11
932.3068006594658
 21
111.2848075325212
 31
0.0
  0
LINE
  5
3461
330
218
100
AcDbEntity
  8
0
  6
Continuous
 62
     7
100
AcDbLine
 10
936.3068006594657
 20
130.2848075325212
 30
0.0
 11
936.3068006594657
 21
131.2848075325212
 31
0.0
  0
LINE
  5
3462
330
218
100
AcDbEntity
  8
0
  6
Continuous
 62
     7
100
AcDbLine
 10
1042.785711770966
 20
130.2848075325212
 30
0.0
 11
1042.785711770966
 21
131.2848075325212
 31
0.0
  0
LINE
  5
3463
330
218
100
AcDbEntity
  8
0
  6
Continuous
 62
     7
100
AcDbLine
 10
1042.917660698866
 20
130.2848075325212
 30
0.0
 11
1042.917660698866
 21
131.2848075325212
 31
0.0
  0
LINE
  5
3464
330
218
100
AcDbEntity
  8
0
  6
Continuous
 62
     7
100
AcDbLine
 10
1048.074023278765
 20
130.4733285767212
 30
0.0
 11
1048.074023278765
 21
131.2848075325212
 31
0.0
  0
LINE
  5
3465
330
218
100
AcDbEntity
  8
0
  6
Continuous
 62
     7
100
AcDbLine
 10
1049.400137042866
 20
131.2848075325212
 30
0.0
 11
1049.400137042866
 21
130.2848075325212
 31
0.0
  0
LINE
  5
3466
330
218
100
AcDbEntity
  8
0
  6
Continuous
 62
     7
100
AcDbLine
 10
1050.306800659466
 20
130.2848075325212
 30
0.0
 11
1050.306800659466
 21
131.2848075325212
 31
0.0
  0
LINE
  5
3467
330
218
100
AcDbEntity
  8
0
  6
Continuous
 62
     7
100
AcDbLine
 10
1050.367202656966
 20
130.2848075325212
 30
0.0
 11
1050.367202656966
 21
126.2282375158212
 31
0.0
  0
LINE
  5
3468
330
218
100
AcDbEntity
  8
0
  6
Continuous
 62
     7
100
AcDbLine
 10
1050.367202656966
 20
116.3413775492212
 30
0.0
 11
1050.367202656966
 21
111.2848075325212
 31
0.0
  0
LINE
  5
3469
330
218
100
AcDbEntity
  8
0
  6
Continuous
 62
     7
100
AcDbLine
 10
1050.880232871965
 20
111.2848075325212
 30
0.0
 11
1050.880232871965
 21
116.3413775492212
 31
0.0
  0
LINE
  5
346A
330
218
100
AcDbEntity
  8
0
  6
Continuous
 62
     7
100
AcDbLine
 10
1050.880232871965
 20
126.2282375158212
 30
0.0
 11
1050.880232871965
 21
130.2848075325212
 31
0.0
  0
LINE
  5
346B
330
218
100
AcDbEntity
  8
0
  6
Continuous
 62
     7
100
AcDbLine
 10
1051.524602614565
 20
103.2848075325212
 30
0.0
 11
1051.524602614565
 21
102.2848075325212
 31
0.0
  0
LINE
  5
346C
330
218
100
AcDbEntity
  8
0
  6
Continuous
 62
     7
100
AcDbLine
 10
1051.610643884165
 20
102.2848075325212
 30
0.0
 11
1051.610643884165
 21
103.2848075325212
 31
0.0
  0
LINE
  5
346D
330
218
100
AcDbEntity
  8
0
  6
Continuous
 62
     7
100
AcDbLine
 10
1051.776845582065
 20
111.2848075325212
 30
0.0
 11
1051.776845582065
 21
110.4696555360212
 31
0.0
  0
LINE
  5
346E
330
218
100
AcDbEntity
  8
0
  6
Continuous
 62
     7
100
AcDbLine
 10
1051.776845582065
 20
105.6999595289212
 30
0.0
 11
1051.776845582065
 21
103.2848075325212
 31
0.0
  0
LINE
  5
346F
330
218
100
AcDbEntity
  8
0
  6
Continuous
 62
     7
100
AcDbLine
 10
1052.289875797066
 20
103.2848075325212
 30
0.0
 11
1052.289875797066
 21
105.6999595289212
 31
0.0
  0
LINE
  5
3470
330
218
100
AcDbEntity
  8
0
  6
Continuous
 62
     7
100
AcDbLine
 10
1052.289875797066
 20
110.4696555360212
 30
0.0
 11
1052.289875797066
 21
111.2848075325212
 31
0.0
  0
LINE
  5
3471
330
218
100
AcDbEntity
  8
0
  6
Continuous
 62
     7
100
AcDbLine
 10
1054.306800659466
 20
130.2848075325212
 30
0.0
 11
1054.306800659466
 21
111.2848075325212
 31
0.0
  0
LINE
  5
3472
330
218
100
AcDbEntity
  8
0
  6
Continuous
 62
     7
100
AcDbLine
 10
1055.306800659466
 20
103.2848075325212
 30
0.0
 11
1055.306800659466
 21
102.2848075325212
 31
0.0
  0
LINE
  5
3473
330
218
100
AcDbEntity
  8
0
  6
Continuous
 62
     7
100
AcDbLine
 10
1055.806800659466
 20
111.2848075325212
 30
0.0
 11
1055.806800659466
 21
103.2848075325212
 31
0.0
  0
LINE
  5
3474
330
218
100
AcDbEntity
  8
0
  6
Continuous
 62
     7
100
AcDbLine
 10
1055.806800659466
 20
102.2848075325212
 30
0.0
 11
1055.806800659466
 21
-53.71519246747877
 31
0.0
  0
LINE
  5
3475
330
218
100
AcDbEntity
  8
0
  6
Continuous
 62
     7
100
AcDbLine
 10
1055.806800659466
 20
102.2848075325212
 30
0.0
 11
930.8068006594657
 21
102.2848075325212
 31
0.0
  0
LINE
  5
3476
330
218
100
AcDbEntity
  8
0
  6
Continuous
 62
     7
100
AcDbLine
 10
930.8068006594657
 20
103.2848075325212
 30
0.0
 11
1055.806800659466
 21
103.2848075325212
 31
0.0
  0
LINE
  5
3477
330
218
100
AcDbEntity
  8
0
  6
Continuous
 62
     7
100
AcDbLine
 10
1055.806800659466
 20
111.2848075325212
 30
0.0
 11
930.8068006594657
 21
111.2848075325212
 31
0.0
  0
LINE
  5
3478
330
218
100
AcDbEntity
  8
0
  6
Continuous
 62
     7
100
AcDbLine
 10
1054.306800659466
 20
130.2848075325212
 30
0.0
 11
932.3068006594658
 21
130.2848075325212
 31
0.0
  0
LINE
  5
3479
330
218
100
AcDbEntity
  8
0
  6
Continuous
 62
     7
100
AcDbLine
 10
1050.306510789966
 20
131.2848075325212
 30
0.0
 11
936.3070905289658
 21
131.2848075325212
 31
0.0
  0
ARC
  5
347A
330
218
100
AcDbEntity
  8
0
  6
Continuous
 62
     7
100
AcDbCircle
 10
1074.874835272966
 20
125.3310714797212
 30
0.0
 40
26.1043799659
100
AcDbArc
 50
198.1142902338996
 51
200.1436436310013
  0
ARC
  5
347B
330
218
100
AcDbEntity
  8
0
  6
Continuous
 62
     7
100
AcDbCircle
 10
1073.795260204366
 20
117.6129913238212
 30
0.0
 40
24.9618979125
100
AcDbArc
 50
159.8099103984998
 51
161.9321557365
  0
ARC
  5
347C
330
218
100
AcDbEntity
  8
0
  6
Continuous
 62
     7
100
AcDbCircle
 10
1067.147578968566
 20
132.4046831052212
 30
0.0
 40
22.8616782939
100
AcDbArc
 50
223.2903839404016
 51
224.6384079496982
  0
ARC
  5
347D
330
218
100
AcDbEntity
  8
0
  6
Continuous
 62
     7
100
AcDbCircle
 10
1067.139582417766
 20
110.1727049372212
 30
0.0
 40
22.850526778
100
AcDbArc
 50
135.3613721107995
 51
136.7172239015957
  0
ARC
  5
347E
330
218
100
AcDbEntity
  8
0
  6
Continuous
 62
     7
100
AcDbCircle
 10
1064.157438965366
 20
129.5959000380212
 30
0.0
 40
18.7592207535
100
AcDbArc
 50
221.2996562277987
 51
223.308247070202
  0
ARC
  5
347F
330
218
100
AcDbEntity
  8
0
  6
Continuous
 62
     7
100
AcDbCircle
 10
1064.151113201465
 20
112.9793974722212
 30
0.0
 40
18.7507180114
100
AcDbArc
 50
136.6998671212964
 51
138.7006311678981
  0
ARC
  5
3480
330
218
100
AcDbEntity
  8
0
  6
Continuous
 62
     7
100
AcDbCircle
 10
1040.891574158166
 20
128.4125763598212
 30
0.0
 40
2.9109305973
100
AcDbArc
 50
40.07616491530238
 51
45.8400242394982
  0
SPLINE
  5
3481
330
218
100
AcDbEntity
  8
0
  6
Continuous
 62
     7
100
AcDbSpline
210
0.0
220
0.0
230
1.0
 70
     8
 71
     3
 72
     9
 73
     5
 74
     0
 42
0.000000001
 43
0.0000000001
 40
0.0
 40
0.0
 40
0.0
 40
0.0
 40
0.5048704309000001
 40
1.0
 40
1.0
 40
1.0
 40
1.0
 10
1048.249288720666
 20
130.2866497367212
 30
0.0
 10
1047.991229449166
 20
130.5932776693212
 30
0.0
 10
1047.346234470365
 20
131.1020081757212
 30
0.0
 10
1046.542700734666
 20
131.2848075325212
 30
0.0
 10
1046.149664715566
 20
131.2848075325212
 30
0.0
  0
SPLINE
  5
3482
330
218
100
AcDbEntity
  8
0
  6
Continuous
 62
     7
100
AcDbSpline
210
0.0
220
0.0
230
1.0
 70
     8
 71
     3
 72
    13
 73
     9
 74
     0
 42
0.000000001
 43
0.0000000001
 40
0.0
 40
0.0
 40
0.0
 40
0.0
 40
0.1056719847
 40
0.2279169402
 40
0.4999764910000001
 40
0.7720650289000001
 40
0.8943230398
 40
1.0
 40
1.0
 40
1.0
 40
1.0
 10
1049.613746886166
 20
125.3219160498212
 30
0.0
 10
1049.484472161966
 20
125.0606492463212
 30
0.0
 10
1049.260292562166
 20
124.4700786891212
 30
0.0
 10
1048.933556229566
 20
123.1279294000212
 30
0.0
 10
1048.777628156265
 20
121.2849336966212
 30
0.0
 10
1048.933502881266
 20
119.4418839677212
 30
0.0
 10
1049.260315312266
 20
118.0996234793212
 30
0.0
 10
1049.484468510466
 20
117.5089891302212
 30
0.0
 10
1049.613750274366
 20
117.2477104963212
 30
0.0
  0
SPLINE
  5
3483
330
218
100
AcDbEntity
  8
0
  6
Continuous
 62
     7
100
AcDbSpline
210
0.0
220
0.0
230
1.0
 70
     8
 71
     3
 72
    12
 73
     8
 74
     0
 42
0.000000001
 43
0.0000000001
 40
0.0
 40
0.0
 40
0.0
 40
0.0
 40
0.3094660458
 40
0.5927128440000001
 40
0.8273207401
 40
0.9217305451999999
 40
1.0
 40
1.0
 40
1.0
 40
1.0
 10
1051.135535660366
 20
108.0848075325212
 30
0.0
 10
1051.135535660366
 20
107.8249020087212
 30
0.0
 10
1051.164530782465
 20
107.3263636881212
 30
0.0
 10
1051.291110986666
 20
106.6417796699212
 30
0.0
 10
1051.460560301766
 20
106.1518649395212
 30
0.0
 10
1051.633179872466
 20
105.8554685439212
 30
0.0
 10
1051.727745453566
 20
105.7436657149212
 30
0.0
 10
1051.776845582065
 20
105.6999595289212
 30
0.0
  0
SPLINE
  5
3484
330
218
100
AcDbEntity
  8
0
  6
Continuous
 62
     7
100
AcDbSpline
210
0.0
220
0.0
230
1.0
 70
     8
 71
     3
 72
    12
 73
     8
 74
     0
 42
0.000000001
 43
0.0000000001
 40
0.0
 40
0.0
 40
0.0
 40
0.0
 40
0.078302358
 40
0.1727275774
 40
0.4072903657
 40
0.6905269949
 40
1.0
 40
1.0
 40
1.0
 40
1.0
 10
1051.776845582065
 20
110.4696555360212
 30
0.0
 10
1051.727725576866
 20
110.4259316569212
 30
0.0
 10
1051.633259550966
 20
110.3139876703212
 30
0.0
 10
1051.460606660566
 20
110.0176372842212
 30
0.0
 10
1051.291162913066
 20
109.5277538088212
 30
0.0
 10
1051.164405797366
 20
108.8432565902212
 30
0.0
 10
1051.135535660366
 20
108.3447148574212
 30
0.0
 10
1051.135535660366
 20
108.0848075325212
 30
0.0
  0
SPLINE
  5
3485
330
218
100
AcDbEntity
  8
0
  6
Continuous
 62
     7
100
AcDbSpline
210
0.0
220
0.0
230
1.0
 70
     8
 71
     3
 72
     9
 73
     5
 74
     0
 42
0.000000001
 43
0.0000000001
 40
0.0
 40
0.0
 40
0.0
 40
0.0
 40
0.2693012893
 40
1.0
 40
1.0
 40
1.0
 40
1.0
 10
1049.216984839466
 20
124.2521632635212
 30
0.0
 10
1049.235169612966
 20
124.2641320828212
 30
0.0
 10
1049.304983678066
 20
124.3047673333212
 30
0.0
 10
1049.386722330865
 20
124.3266737684212
 30
0.0
 10
1049.445791513366
 20
124.3266737684212
 30
0.0
  0
SPLINE
  5
3486
330
218
100
AcDbEntity
  8
0
  6
Continuous
 62
     7
100
AcDbSpline
210
0.0
220
0.0
230
1.0
 70
     8
 71
     3
 72
    15
 73
    11
 74
     0
 42
0.000000001
 43
0.0000000001
 40
0.0
 40
0.0
 40
0.0
 40
0.0
 40
0.0621702231
 40
0.139000671
 40
0.2372431121
 40
0.3579056227000001
 40
0.4988770759000001
 40
0.6562449525
 40
0.8252347284999999
 40
1.0
 40
1.0
 40
1.0
 40
1.0
 10
1049.445791513366
 20
124.3266737684212
 30
0.0
 10
1049.516177841766
 20
124.3266737684212
 30
0.0
 10
1049.674015970366
 20
124.2747791520212
 30
0.0
 10
1049.869396296466
 20
124.0834117871212
 30
0.0
 10
1050.044468860566
 20
123.7957916126212
 30
0.0
 10
1050.196994295266
 20
123.4165540658212
 30
0.0
 10
1050.322355087466
 20
122.9582657793212
 30
0.0
 10
1050.415743602966
 20
122.4368702678212
 30
0.0
 10
1050.473244301566
 20
121.8719844193212
 30
0.0
 10
1050.486171039366
 20
121.4826689069212
 30
0.0
 10
1050.486171039366
 20
121.2848075325212
 30
0.0
  0
SPLINE
  5
3487
330
218
100
AcDbEntity
  8
0
  6
Continuous
 62
     7
100
AcDbSpline
210
0.0
220
0.0
230
1.0
 70
     8
 71
     3
 72
    14
 73
    10
 74
     0
 42
0.000000001
 43
0.0000000001
 40
0.0
 40
0.0
 40
0.0
 40
0.0
 40
0.0621831783
 40
0.1390296363
 40
0.2372925494
 40
0.3579802039
 40
0.498981033
 40
0.6563817023
 40
1.0
 40
1.0
 40
1.0
 40
1.0
 10
1049.171526965166
 20
118.5348075325212
 30
0.0
 10
1049.235159744566
 20
118.5348075325212
 30
0.0
 10
1049.377853390366
 20
118.5817229050212
 30
0.0
 10
1049.554486774966
 20
118.7547284432212
 30
0.0
 10
1049.712762500466
 20
119.0147524869212
 30
0.0
 10
1049.850646484165
 20
119.3575975291212
 30
0.0
 10
1049.964010201266
 20
119.7719354885212
 30
0.0
 10
1050.079785701166
 20
120.4192345500212
 30
0.0
 10
1050.112082359365
 20
120.9331788777212
 30
0.0
 10
1050.112082359365
 20
121.2848075325212
 30
0.0
  0
SPLINE
  5
3488
330
218
100
AcDbEntity
  8
0
  6
Continuous
 62
     7
100
AcDbSpline
210
0.0
220
0.0
230
1.0
 70
     8
 71
     3
 72
     9
 73
     5
 74
     0
 42
0.000000001
 43
0.0000000001
 40
0.0
 40
0.0
 40
0.0
 40
0.0
 40
0.4264062997999999
 40
1.0
 40
1.0
 40
1.0
 40
1.0
 10
1050.367202656966
 20
126.2282375158212
 30
0.0
 10
1050.214612141066
 20
126.1543777227212
 30
0.0
 10
1049.916112383965
 20
125.8702234404212
 30
0.0
 10
1049.714879805566
 20
125.5263077030212
 30
0.0
 10
1049.613746886166
 20
125.3219160498212
 30
0.0
  0
SPLINE
  5
3489
330
218
100
AcDbEntity
  8
0
  6
Continuous
 62
     7
100
AcDbSpline
210
0.0
220
0.0
230
1.0
 70
     8
 71
     3
 72
    15
 73
    11
 74
     0
 42
0.000000001
 43
0.0000000001
 40
0.0
 40
0.0
 40
0.0
 40
0.0
 40
0.1747652715
 40
0.3437550475
 40
0.5011229240999999
 40
0.6420943773
 40
0.7627568879000001
 40
0.860999329
 40
0.9378297768999999
 40
1.0
 40
1.0
 40
1.0
 40
1.0
 10
1050.486171039366
 20
121.2848075325212
 30
0.0
 10
1050.486171039366
 20
121.0869461581212
 30
0.0
 10
1050.473244301566
 20
120.6976306457212
 30
0.0
 10
1050.415743602966
 20
120.1327447971212
 30
0.0
 10
1050.322355087466
 20
119.6113492856212
 30
0.0
 10
1050.196994295266
 20
119.1530609992212
 30
0.0
 10
1050.044468860566
 20
118.7738234523212
 30
0.0
 10
1049.869396296466
 20
118.4862032779212
 30
0.0
 10
1049.674015970366
 20
118.2948359129212
 30
0.0
 10
1049.516177841766
 20
118.2429412965212
 30
0.0
 10
1049.445791513366
 20
118.2429412965212
 30
0.0
  0
SPLINE
  5
348A
330
218
100
AcDbEntity
  8
0
  6
Continuous
 62
     7
100
AcDbSpline
210
0.0
220
0.0
230
1.0
 70
     8
 71
     3
 72
    14
 73
    10
 74
     0
 42
0.000000001
 43
0.0000000001
 40
0.0
 40
0.0
 40
0.0
 40
0.0
 40
0.3436182977
 40
0.5010189670000001
 40
0.6420197961000001
 40
0.7627074506
 40
0.8609703637
 40
0.9378168217
 40
1.0
 40
1.0
 40
1.0
 40
1.0
 10
1050.112082359365
 20
121.2848075325212
 30
0.0
 10
1050.112082359365
 20
121.6364361873212
 30
0.0
 10
1050.079785701166
 20
122.1503805150212
 30
0.0
 10
1049.964010201266
 20
122.7976795765212
 30
0.0
 10
1049.850646484165
 20
123.2120175358212
 30
0.0
 10
1049.712762500466
 20
123.5548625781212
 30
0.0
 10
1049.554486774966
 20
123.8148866217212
 30
0.0
 10
1049.377853390366
 20
123.9878921599212
 30
0.0
 10
1049.235159744566
 20
124.0348075325212
 30
0.0
 10
1049.171526965166
 20
124.0348075325212
 30
0.0
  0
SPLINE
  5
348B
330
218
100
AcDbEntity
  8
0
  6
Continuous
 62
     7
100
AcDbSpline
210
0.0
220
0.0
230
1.0
 70
     8
 71
     3
 72
    12
 73
     8
 74
     0
 42
0.000000001
 43
0.0000000001
 40
0.0
 40
0.0
 40
0.0
 40
0.0
 40
0.3126696096
 40
0.5973376406000001
 40
0.8306350845
 40
0.9235106518
 40
1.0
 40
1.0
 40
1.0
 40
1.0
 10
1052.845636376966
 20
108.0848075325212
 30
0.0
 10
1052.845636376966
 20
108.3445555940212
 30
0.0
 10
1052.822790178866
 20
108.8413623419212
 30
0.0
 10
1052.719976181066
 20
109.5244756182212
 30
0.0
 10
1052.576964557966
 20
110.0153847784212
 30
0.0
 10
1052.422959571766
 20
110.3133694006212
 30
0.0
 10
1052.335924982266
 20
110.4258698840212
 30
0.0
 10
1052.289875797066
 20
110.4696555360212
 30
0.0
  0
SPLINE
  5
348C
330
218
100
AcDbEntity
  8
0
  6
Continuous
 62
     7
100
AcDbSpline
210
0.0
220
0.0
230
1.0
 70
     8
 71
     3
 72
    12
 73
     8
 74
     0
 42
0.000000001
 43
0.0000000001
 40
0.0
 40
0.0
 40
0.0
 40
0.0
 40
0.0764608846
 40
0.1693094898
 40
0.4026469961
 40
0.6873429477
 40
1.0
 40
1.0
 40
1.0
 40
1.0
 10
1052.289875797066
 20
105.6999595289212
 30
0.0
 10
1052.335908433466
 20
105.7437294456212
 30
0.0
 10
1052.423000196566
 20
105.8561220706212
 30
0.0
 10
1052.577048809566
 20
106.1540912316212
 30
0.0
 10
1052.719984113466
 20
106.6450692664212
 30
0.0
 10
1052.822682120166
 20
107.3282470944212
 30
0.0
 10
1052.845636376966
 20
107.8250665896212
 30
0.0
 10
1052.845636376966
 20
108.0848075325212
 30
0.0
  0
SPLINE
  5
348D
330
218
100
AcDbEntity
  8
0
  6
Continuous
 62
     7
100
AcDbSpline
210
0.0
220
0.0
230
1.0
 70
     8
 71
     3
 72
     9
 73
     5
 74
     0
 42
0.000000001
 43
0.0000000001
 40
0.0
 40
0.0
 40
0.0
 40
0.0
 40
0.2377746692
 40
1.0
 40
1.0
 40
1.0
 40
1.0
 10
1049.445791513366
 20
118.2429412965212
 30
0.0
 10
1049.426432928666
 20
118.2429412965212
 30
0.0
 10
1049.344960414466
 20
118.2496205774212
 30
0.0
 10
1049.267401798966
 20
118.2840636167212
 30
0.0
 10
1049.215660487066
 20
118.3183261162212
 30
0.0
  0
SPLINE
  5
348E
330
218
100
AcDbEntity
  8
0
  6
Continuous
 62
     7
100
AcDbSpline
210
0.0
220
0.0
230
1.0
 70
     8
 71
     3
 72
     9
 73
     5
 74
     0
 42
0.000000001
 43
0.0000000001
 40
0.0
 40
0.0
 40
0.0
 40
0.0
 40
0.5735907456
 40
1.0
 40
1.0
 40
1.0
 40
1.0
 10
1049.613750274366
 20
117.2477104963212
 30
0.0
 10
1049.714883603266
 20
117.0433198909212
 30
0.0
 10
1049.916133546766
 20
116.6994190658212
 30
0.0
 10
1050.214610804566
 20
116.4152379891212
 30
0.0
 10
1050.367202656966
 20
116.3413775492212
 30
0.0
  0
SPLINE
  5
348F
330
218
100
AcDbEntity
  8
0
  6
Continuous
 62
     7
100
AcDbSpline
210
0.0
220
0.0
230
1.0
 70
     8
 71
     3
 72
    19
 73
    15
 74
     0
 42
0.000000001
 43
0.0000000001
 40
0.0
 40
0.0
 40
0.0
 40
0.0
 40
0.0336137002
 40
0.0765283676
 40
0.1295031024
 40
0.1917829958
 40
0.3378309231
 40
0.4999654601
 40
0.6621167839000001
 40
0.8081873541
 40
0.8704742832999999
 40
0.9234569127
 40
0.9663814412999998
 40
1.0
 40
1.0
 40
1.0
 40
1.0
 10
1050.880232871965
 20
116.3413775492212
 30
0.0
 10
1050.984121523065
 20
116.3951801631212
 30
0.0
 10
1051.186117224266
 20
116.5811854570212
 30
0.0
 10
1051.418063311865
 20
116.9702959445212
 30
0.0
 10
1051.618064131866
 20
117.4852959374212
 30
0.0
 10
1051.849740187566
 20
118.3659460870212
 30
0.0
 10
1052.025765462666
 20
119.6472806903212
 30
0.0
 10
1052.094663372566
 20
121.2844979554212
 30
0.0
 10
1052.025848245466
 20
122.9218028214212
 30
0.0
 10
1051.849769869066
 20
124.2032920202212
 30
0.0
 10
1051.618135462666
 20
125.0840845480212
 30
0.0
 10
1051.418138891166
 20
125.5991855454212
 30
0.0
 10
1051.186137463266
 20
125.9883464788212
 30
0.0
 10
1050.984136539366
 20
126.1744271251213
 30
0.0
 10
1050.880232871965
 20
126.2282375158212
 30
0.0
  0
ELLIPSE
  5
3490
330
218
100
AcDbEntity
  8
0
  6
Continuous
 62
     7
100
AcDbEllipse
 10
1051.473773886166
 20
108.0848075325212
 30
0.0
 11
2.7203397031
 21
0.0
 31
0.0
210
0.0
220
0.0
230
1.0
 40
0.919002872
 41
1.266103672800001
 42
1.459147368299968
  0
ELLIPSE
  5
3491
330
218
100
AcDbEntity
  8
0
  6
Continuous
 62
     7
100
AcDbEllipse
 10
1051.473773886166
 20
108.0848075325212
 30
0.0
 11
2.7203397031
 21
0.0
 31
0.0
210
0.0
220
0.0
230
1.0
 40
0.919002872
 41
-1.459147368299968
 42
-1.2661036728
  0
DIMENSION
  5
3492
330
218
100
AcDbEntity
  8
0
100
AcDbDimension
  2
*D6
 10
1055.806800659466
 20
-89.37976185548263
 30
0.0
 11
993.3068006594657
 21
-89.37976185548263
 31
0.0
 70
    32
  1
\A1;%%C<>
 71
     5
 42
125.0
  3
DIMSTYLE_1
100
AcDbAlignedDimension
 13
930.8068006594657
 23
-85.56295176499528
 33
0.0
 14
1055.806800659466
 24
-85.56295176499528
 34
0.0
 50
0.0
100
AcDbRotatedDimension
1001
ACAD
1000
DSTYLE
1002
{
1070
   340
1005
11
1002
}
  0
DIMENSION
  5
3493
330
218
100
AcDbEntity
  8
0
100
AcDbDimension
  2
*D7
 10
874.1215549569176
 20
-53.71519246747877
 30
0.0
 11
874.1215549569176
 21
38.78480753252123
 31
0.0
 70
    32
 71
     5
 42
185.0
  3
DIMSTYLE_1
100
AcDbAlignedDimension
 13
883.6525438052413
 23
131.2848075325212
 33
0.0
 14
883.6525438052413
 24
-53.71519246747877
 34
0.0
 50
90.0
100
AcDbRotatedDimension
  0
LINE
  5
3540
330
218
100
AcDbEntity
  8
0
  6
Continuous
 62
     7
100
AcDbLine
 10
1234.756808285523
 20
-53.71519246747877
 30
0.0
 11
1394.756808285523
 21
-53.71519246747877
 31
0.0
  0
LINE
  5
3541
330
218
100
AcDbEntity
  8
0
  6
Continuous
 62
     7
100
AcDbLine
 10
1234.756808285523
 20
127.2848075325212
 30
0.0
 11
1234.756808285523
 21
119.2848075325212
 31
0.0
  0
LINE
  5
3542
330
218
100
AcDbEntity
  8
0
  6
Continuous
 62
     7
100
AcDbLine
 10
1234.756808285523
 20
-53.71519246747877
 30
0.0
 11
1234.756808285523
 21
118.2848075325212
 31
0.0
  0
LINE
  5
3543
330
218
100
AcDbEntity
  8
0
  6
Continuous
 62
     7
100
AcDbLine
 10
1235.256808285523
 20
119.2848075325212
 30
0.0
 11
1235.256808285523
 21
118.2848075325212
 31
0.0
  0
LINE
  5
3544
330
218
100
AcDbEntity
  8
0
  6
Continuous
 62
     7
100
AcDbLine
 10
1236.956808285523
 20
150.2848075325212
 30
0.0
 11
1236.956808285523
 21
127.2848075325212
 31
0.0
  0
LINE
  5
3545
330
218
100
AcDbEntity
  8
0
  6
Continuous
 62
     7
100
AcDbLine
 10
1241.256808285523
 20
150.2848075325212
 30
0.0
 11
1241.256808285523
 21
151.2848075325212
 31
0.0
  0
LINE
  5
3546
330
218
100
AcDbEntity
  8
0
  6
Continuous
 62
     7
100
AcDbLine
 10
1379.696681651823
 20
150.2848075325212
 30
0.0
 11
1379.696681651823
 21
151.2848075325212
 31
0.0
  0
LINE
  5
3547
330
218
100
AcDbEntity
  8
0
  6
Continuous
 62
     7
100
AcDbLine
 10
1379.813145959723
 20
150.2848075325212
 30
0.0
 11
1379.813145959723
 21
151.2848075325212
 31
0.0
  0
LINE
  5
3548
330
218
100
AcDbEntity
  8
0
  6
Continuous
 62
     7
100
AcDbLine
 10
1394.756808285523
 20
118.2848075325212
 30
0.0
 11
1234.756808285523
 21
118.2848075325212
 31
0.0
  0
LINE
  5
3549
330
218
100
AcDbEntity
  8
0
  6
Continuous
 62
     7
100
AcDbLine
 10
1234.756808285523
 20
119.2848075325212
 30
0.0
 11
1394.756808285523
 21
119.2848075325212
 31
0.0
  0
LINE
  5
354A
330
218
100
AcDbEntity
  8
0
  6
Continuous
 62
     7
100
AcDbLine
 10
1385.311528682923
 20
150.4185916582212
 30
0.0
 11
1385.311528682923
 21
151.2848075325212
 31
0.0
  0
LINE
  5
354B
330
218
100
AcDbEntity
  8
0
  6
Continuous
 62
     7
100
AcDbLine
 10
1386.631434902623
 20
151.2848075325212
 30
0.0
 11
1386.631434902623
 21
150.2848075325212
 31
0.0
  0
LINE
  5
354C
330
218
100
AcDbEntity
  8
0
  6
Continuous
 62
     7
100
AcDbLine
 10
1387.604981971223
 20
150.2848075325212
 30
0.0
 11
1387.604981971223
 21
144.6288200461212
 31
0.0
  0
LINE
  5
354D
330
218
100
AcDbEntity
  8
0
  6
Continuous
 62
     7
100
AcDbLine
 10
1387.604981971223
 20
133.9407950189212
 30
0.0
 11
1387.604981971223
 21
128.4696555360212
 31
0.0
  0
LINE
  5
354E
330
218
100
AcDbEntity
  8
0
  6
Continuous
 62
     7
100
AcDbLine
 10
1388.118012186223
 20
128.4696555360212
 30
0.0
 11
1388.118012186223
 21
133.9407950189212
 31
0.0
  0
LINE
  5
354F
330
218
100
AcDbEntity
  8
0
  6
Continuous
 62
     7
100
AcDbLine
 10
1388.118012186223
 20
144.6288200461212
 30
0.0
 11
1388.118012186223
 21
150.2848075325212
 31
0.0
  0
LINE
  5
3550
330
218
100
AcDbEntity
  8
0
  6
Continuous
 62
     7
100
AcDbLine
 10
1388.256808285523
 20
150.2848075325212
 30
0.0
 11
1388.256808285523
 21
151.2848075325212
 31
0.0
  0
LINE
  5
3551
330
218
100
AcDbEntity
  8
0
  6
Continuous
 62
     7
100
AcDbLine
 10
1389.419316560123
 20
119.2848075325212
 30
0.0
 11
1389.419316560123
 21
118.2848075325212
 31
0.0
  0
LINE
  5
3552
330
218
100
AcDbEntity
  8
0
  6
Continuous
 62
     7
100
AcDbLine
 10
1389.505240214923
 20
118.2848075325212
 30
0.0
 11
1389.505240214923
 21
119.2848075325212
 31
0.0
  0
LINE
  5
3553
330
218
100
AcDbEntity
  8
0
  6
Continuous
 62
     7
100
AcDbLine
 10
1389.672399161523
 20
123.6999595289212
 30
0.0
 11
1389.672399161523
 21
119.2848075325212
 31
0.0
  0
LINE
  5
3554
330
218
100
AcDbEntity
  8
0
  6
Continuous
 62
     7
100
AcDbLine
 10
1390.185429376423
 20
119.2848075325212
 30
0.0
 11
1390.185429376523
 21
123.6999595289212
 31
0.0
  0
LINE
  5
3555
330
218
100
AcDbEntity
  8
0
  6
Continuous
 62
     7
100
AcDbLine
 10
1392.556808285523
 20
150.2848075325212
 30
0.0
 11
1392.556808285523
 21
127.2848075325212
 31
0.0
  0
LINE
  5
3556
330
218
100
AcDbEntity
  8
0
  6
Continuous
 62
     7
100
AcDbLine
 10
1394.756808285523
 20
127.2848075325212
 30
0.0
 11
1234.756808285523
 21
127.2848075325212
 31
0.0
  0
LINE
  5
3557
330
218
100
AcDbEntity
  8
0
  6
Continuous
 62
     7
100
AcDbLine
 10
1394.256808285523
 20
119.2848075325212
 30
0.0
 11
1394.256808285523
 21
118.2848075325212
 31
0.0
  0
LINE
  5
3558
330
218
100
AcDbEntity
  8
0
  6
Continuous
 62
     7
100
AcDbLine
 10
1394.756808285523
 20
127.2848075325212
 30
0.0
 11
1394.756808285523
 21
119.2848075325212
 31
0.0
  0
LINE
  5
3559
330
218
100
AcDbEntity
  8
0
  6
Continuous
 62
     7
100
AcDbLine
 10
1394.756808285523
 20
-53.71519246747877
 30
0.0
 11
1394.756808285523
 21
118.2848075325212
 31
0.0
  0
LINE
  5
355A
330
218
100
AcDbEntity
  8
0
  6
Continuous
 62
     7
100
AcDbLine
 10
1392.556808285523
 20
150.2848075325212
 30
0.0
 11
1236.956808285523
 21
150.2848075325212
 31
0.0
  0
LINE
  5
355B
330
218
100
AcDbEntity
  8
0
  6
Continuous
 62
     7
100
AcDbLine
 10
1388.256232774723
 20
151.2848075325212
 30
0.0
 11
1241.257116617323
 21
151.2848075325212
 31
0.0
  0
ARC
  5
355C
330
218
100
AcDbEntity
  8
0
  6
Continuous
 62
     7
100
AcDbCircle
 10
1377.141991352623
 20
139.2835039365212
 30
0.0
 40
8.796861552000001
100
AcDbArc
 50
356.7188781905999
 51
0.0084905899002402
  0
ARC
  5
355D
330
218
100
AcDbEntity
  8
0
  6
Continuous
 62
     7
100
AcDbCircle
 10
1377.143118058323
 20
139.2861289821212
 30
0.0
 40
8.7957348489
100
AcDbArc
 50
359.9913920227
 51
3.293545731199863
  0
ARC
  5
355E
330
218
100
AcDbEntity
  8
0
  6
Continuous
 62
     7
100
AcDbCircle
 10
1378.414631679723
 20
139.2832398074212
 30
0.0
 40
7.900632607599999
100
AcDbArc
 50
355.8615699423001
 51
0.0113692198002975
  0
ARC
  5
355F
330
218
100
AcDbEntity
  8
0
  6
Continuous
 62
     7
100
AcDbCircle
 10
1378.414631679723
 20
139.2863752575212
 30
0.0
 40
7.900632607599999
100
AcDbArc
 50
359.9886307801997
 51
4.138430057700709
  0
ARC
  5
3560
330
218
100
AcDbEntity
  8
0
  6
Continuous
 62
     7
100
AcDbCircle
 10
1377.726630611323
 20
148.4089055837212
 30
0.0
 40
2.916523791299999
100
AcDbArc
 50
40.07795818989642
 51
44.2871763179941
  0
SPLINE
  5
3561
330
218
100
AcDbEntity
  8
0
  6
Continuous
 62
     7
100
AcDbSpline
210
0.0
220
0.0
230
1.0
 70
     8
 71
     3
 72
     9
 73
     5
 74
     0
 42
0.000000001
 43
0.0000000001
 40
0.0
 40
0.0
 40
0.0
 40
0.0
 40
0.5048704309000001
 40
1.0
 40
1.0
 40
1.0
 40
1.0
 10
1385.430586399623
 20
150.2866497367212
 30
0.0
 10
1385.172527128123
 20
150.5932776693212
 30
0.0
 10
1384.527532149323
 20
151.1020081757212
 30
0.0
 10
1383.723998413623
 20
151.2848075325212
 30
0.0
 10
1383.330962394623
 20
151.2848075325212
 30
0.0
  0
SPLINE
  5
3562
330
218
100
AcDbEntity
  8
0
  6
Continuous
 62
     7
100
AcDbSpline
210
0.0
220
0.0
230
1.0
 70
     8
 71
     3
 72
     9
 73
     5
 74
     0
 42
0.000000001
 43
0.0000000001
 40
0.0
 40
0.0
 40
0.0
 40
0.0
 40
0.2587449812
 40
1.0
 40
1.0
 40
1.0
 40
1.0
 10
1389.040428786023
 20
126.0848075325212
 30
0.0
 10
1389.040428786023
 20
126.1888578880212
 30
0.0
 10
1389.049943679723
 20
126.5908649955212
 30
0.0
 10
1389.095047418523
 20
126.9925815098212
 30
0.0
 10
1389.153854405823
 20
127.2848075543212
 30
0.0
  0
SPLINE
  5
3563
330
218
100
AcDbEntity
  8
0
  6
Continuous
 62
     7
100
AcDbSpline
210
0.0
220
0.0
230
1.0
 70
     8
 71
     3
 72
    10
 73
     6
 74
     0
 42
0.000000001
 43
0.0000000001
 40
0.0
 40
0.0
 40
0.0
 40
0.0
 40
0.5841030763
 40
0.8147461268999999
 40
1.0
 40
1.0
 40
1.0
 40
1.0
 10
1387.085731343823
 20
127.2848075543212
 30
0.0
 10
1387.136132092723
 20
127.5347653265212
 30
0.0
 10
1387.231029568423
 20
127.8818095103212
 30
0.0
 10
1387.430893352623
 20
128.2711542803212
 30
0.0
 10
1387.544743655123
 20
128.4156960057212
 30
0.0
 10
1387.604981971223
 20
128.4696555360212
 30
0.0
  0
SPLINE
  5
3564
330
218
100
AcDbEntity
  8
0
  6
Continuous
 62
     7
100
AcDbSpline
210
0.0
220
0.0
230
1.0
 70
     8
 71
     3
 72
    11
 73
     7
 74
     0
 42
0.000000001
 43
0.0000000001
 40
0.0
 40
0.0
 40
0.0
 40
0.0
 40
0.1717234453
 40
0.4063432143
 40
0.6900020366
 40
1.0
 40
1.0
 40
1.0
 40
1.0
 10
1389.672399161523
 20
123.6999595289212
 30
0.0
 10
1389.565218344023
 20
123.7960368126212
 30
0.0
 10
1389.380148171623
 20
124.0934064814212
 30
0.0
 10
1389.192741962823
 20
124.6410060629212
 30
0.0
 10
1389.068681479423
 20
125.3270365020212
 30
0.0
 10
1389.040451867423
 20
125.8249656477212
 30
0.0
 10
1389.040451867423
 20
126.0848075325212
 30
0.0
  0
SPLINE
  5
3565
330
218
100
AcDbEntity
  8
0
  6
Continuous
 62
     7
100
AcDbSpline
210
0.0
220
0.0
230
1.0
 70
     8
 71
     3
 72
    12
 73
     8
 74
     0
 42
0.000000001
 43
0.0000000001
 40
0.0
 40
0.0
 40
0.0
 40
0.0
 40
0.0848118617
 40
0.1844804555
 40
0.4232601470000001
 40
0.7014509402
 40
1.0
 40
1.0
 40
1.0
 40
1.0
 10
1387.172611094723
 20
134.2780674439212
 30
0.0
 10
1387.074951871623
 20
134.3896128404212
 30
0.0
 10
1386.888703721223
 20
134.6551804173212
 30
0.0
 10
1386.550863875323
 20
135.3149555639212
 30
0.0
 10
1386.217643394423
 20
136.3468085915212
 30
0.0
 10
1385.969577809823
 20
137.7534987579212
 30
0.0
 10
1385.913027518323
 20
138.7629283360212
 30
0.0
 10
1385.913027518323
 20
139.2848075325212
 30
0.0
  0
SPLINE
  5
3566
330
218
100
AcDbEntity
  8
0
  6
Continuous
 62
     7
100
AcDbSpline
210
0.0
220
0.0
230
1.0
 70
     8
 71
     3
 72
    12
 73
     8
 74
     0
 42
0.000000001
 43
0.0000000001
 40
0.0
 40
0.0
 40
0.0
 40
0.0
 40
0.2985347521
 40
0.576728873
 40
0.8155146783999999
 40
0.9151857139
 40
1.0
 40
1.0
 40
1.0
 40
1.0
 10
1385.913027518323
 20
139.2848075325212
 30
0.0
 10
1385.913027518323
 20
139.8066599598212
 30
0.0
 10
1385.969557776523
 20
140.8160692780212
 30
0.0
 10
1386.217655250723
 20
142.2227388595212
 30
0.0
 10
1386.550855945923
 20
143.2546174474212
 30
0.0
 10
1386.888720732223
 20
143.9143991511212
 30
0.0
 10
1387.074962441823
 20
144.1799778209212
 30
0.0
 10
1387.172613729823
 20
144.2915351325212
 30
0.0
  0
SPLINE
  5
3567
330
218
100
AcDbEntity
  8
0
  6
Continuous
 62
     7
100
AcDbSpline
210
0.0
220
0.0
230
1.0
 70
     8
 71
     3
 72
     9
 73
     5
 74
     0
 42
0.000000001
 43
0.0000000001
 40
0.0
 40
0.0
 40
0.0
 40
0.0
 40
0.2811313743
 40
1.0
 40
1.0
 40
1.0
 40
1.0
 10
1387.172613729823
 20
144.2915351325212
 30
0.0
 10
1387.206603718623
 20
144.3303654629212
 30
0.0
 10
1387.332528879823
 20
144.4634092541212
 30
0.0
 10
1387.483645667223
 20
144.5769513291212
 30
0.0
 10
1387.604981971223
 20
144.6288200461212
 30
0.0
  0
SPLINE
  5
3568
330
218
100
AcDbEntity
  8
0
  6
Continuous
 62
     7
100
AcDbSpline
210
0.0
220
0.0
230
1.0
 70
     8
 71
     3
 72
    13
 73
     9
 74
     0
 42
0.000000001
 43
0.0000000001
 40
0.0
 40
0.0
 40
0.0
 40
0.0
 40
0.3280242415
 40
0.6210316947
 40
0.7447168995000001
 40
0.8492234040000001
 40
0.9335640095999998
 40
1.0
 40
1.0
 40
1.0
 40
1.0
 10
1389.486720034223
 20
139.2848075325212
 30
0.0
 10
1389.486720034223
 20
138.6635739245212
 30
0.0
 10
1389.433220657923
 20
137.4870992523212
 30
0.0
 10
1389.225267198423
 20
136.0871303986212
 30
0.0
 10
1388.954775070623
 20
135.1362906952212
 30
0.0
 10
1388.724389066623
 20
134.5886220759212
 30
0.0
 10
1388.459919069723
 20
134.1803206775212
 30
0.0
 10
1388.232719063223
 20
133.9924980574212
 30
0.0
 10
1388.118012186223
 20
133.9407950189212
 30
0.0
  0
SPLINE
  5
3569
330
218
100
AcDbEntity
  8
0
  6
Continuous
 62
     7
100
AcDbSpline
210
0.0
220
0.0
230
1.0
 70
     8
 71
     3
 72
     9
 73
     5
 74
     0
 42
0.000000001
 43
0.0000000001
 40
0.0
 40
0.0
 40
0.0
 40
0.0
 40
0.222268796
 40
1.0
 40
1.0
 40
1.0
 40
1.0
 10
1387.604981971223
 20
133.9407950189212
 30
0.0
 10
1387.567439255823
 20
133.9568437398212
 30
0.0
 10
1387.404133425323
 20
134.0422919209212
 30
0.0
 10
1387.266718418323
 20
134.1705789918212
 30
0.0
 10
1387.172611094723
 20
134.2780674439212
 30
0.0
  0
SPLINE
  5
356A
330
218
100
AcDbEntity
  8
0
  6
Continuous
 62
     7
100
AcDbSpline
210
0.0
220
0.0
230
1.0
 70
     8
 71
     3
 72
     9
 73
     5
 74
     0
 42
0.000000001
 43
0.0000000001
 40
0.0
 40
0.0
 40
0.0
 40
0.0
 40
0.4679031268000001
 40
1.0
 40
1.0
 40
1.0
 40
1.0
 10
1386.051077537723
 20
137.3740032464212
 30
0.0
 10
1386.117814021123
 20
137.5759209370212
 30
0.0
 10
1386.222952322823
 20
138.0198500327212
 30
0.0
 10
1386.277158133623
 20
138.4718772850212
 30
0.0
 10
1386.294664201623
 20
138.7130792571212
 30
0.0
  0
SPLINE
  5
356B
330
218
100
AcDbEntity
  8
0
  6
Continuous
 62
     7
100
AcDbSpline
210
0.0
220
0.0
230
1.0
 70
     8
 71
     3
 72
    13
 73
     9
 74
     0
 42
0.000000001
 43
0.0000000001
 40
0.0
 40
0.0
 40
0.0
 40
0.0
 40
0.066444726
 40
0.1507824912
 40
0.2552840723
 40
0.3789789215
 40
0.6719643922000001
 40
1.0
 40
1.0
 40
1.0
 40
1.0
 10
1388.118012186223
 20
144.6288200461212
 30
0.0
 10
1388.232733977223
 20
144.5771102851212
 30
0.0
 10
1388.459887681823
 20
144.3892132325212
 30
0.0
 10
1388.724443379123
 20
143.9809859018212
 30
0.0
 10
1388.954810597723
 20
143.4332902910212
 30
0.0
 10
1389.225200980423
 20
142.4824653152212
 30
0.0
 10
1389.433276693123
 20
141.0825220122212
 30
0.0
 10
1389.486720034223
 20
139.9060617532212
 30
0.0
 10
1389.486720034223
 20
139.2848075325212
 30
0.0
  0
SPLINE
  5
356C
330
218
100
AcDbEntity
  8
0
  6
Continuous
 62
     7
100
AcDbSpline
210
0.0
220
0.0
230
1.0
 70
     8
 71
     3
 72
     9
 73
     5
 74
     0
 42
0.000000001
 43
0.0000000001
 40
0.0
 40
0.0
 40
0.0
 40
0.0
 40
0.5320970117
 40
1.0
 40
1.0
 40
1.0
 40
1.0
 10
1386.294664201623
 20
139.8565358078212
 30
0.0
 10
1386.277158089123
 20
140.0977383924212
 30
0.0
 10
1386.222952102923
 20
140.5497666720212
 30
0.0
 10
1386.117813354823
 20
140.9936967453212
 30
0.0
 10
1386.051076559823
 20
141.1956147772212
 30
0.0
  0
SPLINE
  5
356D
330
218
100
AcDbEntity
  8
0
  6
Continuous
 62
     7
100
AcDbSpline
210
0.0
220
0.0
230
1.0
 70
     8
 71
     3
 72
    10
 73
     6
 74
     0
 42
0.000000001
 43
0.0000000001
 40
0.0
 40
0.0
 40
0.0
 40
0.0
 40
0.1831144716
 40
0.4126674654000001
 40
1.0
 40
1.0
 40
1.0
 40
1.0
 10
1388.118012186223
 20
128.4696555360212
 30
0.0
 10
1388.175235996823
 20
128.4156069943212
 30
0.0
 10
1388.281449399523
 20
128.2702997388212
 30
0.0
 10
1388.462236080923
 20
127.8791440964212
 30
0.0
 10
1388.542998262223
 20
127.5335977490212
 30
0.0
 10
1388.585948794423
 20
127.2848075987212
 30
0.0
  0
SPLINE
  5
356E
330
218
100
AcDbEntity
  8
0
  6
Continuous
 62
     7
100
AcDbSpline
210
0.0
220
0.0
230
1.0
 70
     8
 71
     3
 72
     9
 73
     5
 74
     0
 42
0.000000001
 43
0.0000000001
 40
0.0
 40
0.0
 40
0.0
 40
0.0
 40
0.2375728231
 40
1.0
 40
1.0
 40
1.0
 40
1.0
 10
1390.654094946623
 20
127.2848075987212
 30
0.0
 10
1390.670361100723
 20
127.1908034956212
 30
0.0
 10
1390.728338616923
 20
126.7933374226212
 30
0.0
 10
1390.750552576523
 20
126.3909718204212
 30
0.0
 10
1390.750552571023
 20
126.0848073879212
 30
0.0
  0
SPLINE
  5
356F
330
218
100
AcDbEntity
  8
0
  6
Continuous
 62
     7
100
AcDbSpline
210
0.0
220
0.0
230
1.0
 70
     8
 71
     3
 72
    11
 73
     7
 74
     0
 42
0.000000001
 43
0.0000000001
 40
0.0
 40
0.0
 40
0.0
 40
0.0
 40
0.3125102634
 40
0.5973143857
 40
0.8309438121999999
 40
1.0
 40
1.0
 40
1.0
 40
1.0
 10
1390.750552570023
 20
126.0848073879212
 30
0.0
 10
1390.750552565323
 20
125.8250887590212
 30
0.0
 10
1390.727010102523
 20
125.3285378668212
 30
0.0
 10
1390.621643334523
 20
124.6434549748212
 30
0.0
 10
1390.457822213423
 20
124.0963305405212
 30
0.0
 10
1390.287605810923
 20
123.7963941761212
 30
0.0
 10
1390.185429376523
 20
123.6999595289212
 30
0.0
  0
ELLIPSE
  5
3570
330
218
100
AcDbEntity
  8
0
  6
Continuous
 62
     7
100
AcDbEllipse
 10
1391.507377857823
 20
139.2848075325212
 30
0.0
 11
0.0
 21
7.915910994799999
 31
0.0
210
0.0
220
0.0
230
1.0
 40
0.6682422102000001
 41
-4.060896752600042
 42
-3.971291988300019
  0
ELLIPSE
  5
3571
330
218
100
AcDbEntity
  8
0
  6
Continuous
 62
     7
100
AcDbEllipse
 10
1391.507377857823
 20
139.2848075325212
 30
0.0
 11
0.0
 21
7.915910994799999
 31
0.0
210
0.0
220
0.0
230
1.0
 40
0.6682422102000001
 41
0.8296993347000368
 42
0.9193040990000444
  0
ELLIPSE
  5
3572
330
218
100
AcDbEntity
  8
0
  6
Continuous
 62
     7
100
AcDbEllipse
 10
1387.301078610223
 20
126.0848075325212
 30
0.0
 11
2.7231119199
 21
0.0
 31
0.0
210
0.0
220
0.0
230
1.0
 40
0.9180672970999999
 41
1.26610367280003
 42
1.458954071299999
  0
ELLIPSE
  5
3573
330
218
100
AcDbEntity
  8
0
  6
Continuous
 62
     7
100
AcDbEllipse
 10
1398.608183193523
 20
139.2848075325212
 30
0.0
 11
14.21955646119999
 21
0.0
 31
0.0
210
0.0
220
0.0
230
1.0
 40
0.5566918360999999
 41
3.793084881299987
 42
3.882689645699984
  0
ELLIPSE
  5
3574
330
218
100
AcDbEntity
  8
0
  6
Continuous
 62
     7
100
AcDbEllipse
 10
1398.608183193523
 20
139.2848075325212
 30
0.0
 11
14.21955646119999
 21
0.0
 31
0.0
210
0.0
220
0.0
230
1.0
 40
0.5566918360999999
 41
8.683680968699997
 42
8.773285733000005
  0
ELLIPSE
  5
3575
330
218
100
AcDbEntity
  8
0
  6
Continuous
 62
     7
100
AcDbEllipse
 10
1389.368402375923
 20
126.0848075325212
 30
0.0
 11
2.723423335
 21
0.0
 31
0.0
210
0.0
220
0.0
230
1.0
 40
0.9179623189
 41
-1.458932381900016
 42
-1.266103672800047
  0
DIMENSION
  5
3576
330
218
100
AcDbEntity
  8
0
100
AcDbDimension
  2
*D11
 10
1394.756808285523
 20
-85.80622231847245
 30
0.0
 11
1314.756808285523
 21
-85.80622231847245
 31
0.0
 70
    32
  1
\A1;%%C<>
 71
     5
 42
160.0
  3
DIMSTYLE_1
100
AcDbAlignedDimension
 13
1234.756808285523
 23
-88.12027279584539
 33
0.0
 14
1394.756808285523
 24
-88.12027279584539
 34
0.0
 50
0.0
100
AcDbRotatedDimension
1001
ACAD
1000
DSTYLE
1002
{
1070
   340
1005
11
1002
}
  0
DIMENSION
  5
3577
330
218
100
AcDbEntity
  8
0
100
AcDbDimension
  2
*D12
 10
1181.13937647465
 20
-53.71519246747877
 30
0.0
 11
1181.13937647465
 21
48.78480753252123
 31
0.0
 70
    32
 71
     5
 42
205.0
  3
DIMSTYLE_1
100
AcDbAlignedDimension
 13
1189.26179079466
 23
151.2848075325212
 33
0.0
 14
1189.26179079466
 24
-53.71519246747877
 34
0.0
 50
90.0
100
AcDbRotatedDimension
  0
ENDSEC
  0
SECTION
  2
OBJECTS
  0
DICTIONARY
  5
C
330
0
100
AcDbDictionary
281
     1
  3
ACAD_COLOR
350
172D
  3
ACAD_DETAILVIEWSTYLE
350
1746
  3
ACAD_GROUP
350
D
  3
ACAD_IMAGE_VARS
350
177E
  3
ACAD_LAYOUT
350
1A
  3
ACAD_MATERIAL
350
16FB
  3
ACAD_MLEADERSTYLE
350
1742
  3
ACAD_MLINESTYLE
350
17
  3
ACAD_PLOTSETTINGS
350
19
  3
ACAD_PLOTSTYLENAME
350
E
  3
ACAD_SCALELIST
350
1730
  3
ACAD_SECTIONVIEWSTYLE
350
1744
  3
ACAD_TABLESTYLE
350
172E
  3
ACAD_VISUALSTYLE
350
1714
  3
ACDB_RECOMPOSE_DATA
350
3623
  3
ACDBHEADERROUNDTRIPXREC
350
35E3
  3
AcDbVariableDictionary
350
1748
  3
DWGPROPS
350
35E6
  0
DICTIONARY
  5
339E
330
8
100
AcDbDictionary
280
     1
281
     1
  3
ACAD_XREC_ROUNDTRIP
360
3604
  0
DICTIONARY
  5
3364
330
10
100
AcDbDictionary
280
     1
281
     1
  3
ACAD_XREC_ROUNDTRIP
360
35E7
  0
DICTIONARY
  5
3366
330
1FA
100
AcDbDictionary
280
     1
281
     1
  3
ACAD_XREC_ROUNDTRIP
360
35E8
  0
DICTIONARY
  5
3368
330
1FB
100
AcDbDictionary
280
     1
281
     1
  3
ACAD_XREC_ROUNDTRIP
360
35E9
  0
DICTIONARY
  5
336A
330
1FC
100
AcDbDictionary
280
     1
281
     1
  3
ACAD_XREC_ROUNDTRIP
360
35EA
  0
DICTIONARY
  5
336C
330
1FD
100
AcDbDictionary
280
     1
281
     1
  3
ACAD_XREC_ROUNDTRIP
360
35EB
  0
DICTIONARY
  5
336E
330
1FE
100
AcDbDictionary
280
     1
281
     1
  3
ACAD_XREC_ROUNDTRIP
360
35EC
  0
DICTIONARY
  5
3370
330
1FF
100
AcDbDictionary
280
     1
281
     1
  3
ACAD_XREC_ROUNDTRIP
360
35ED
  0
DICTIONARY
  5
3372
330
200
100
AcDbDictionary
280
     1
281
     1
  3
ACAD_XREC_ROUNDTRIP
360
35EE
  0
DICTIONARY
  5
3374
330
201
100
AcDbDictionary
280
     1
281
     1
  3
ACAD_XREC_ROUNDTRIP
360
35EF
  0
DICTIONARY
  5
3376
330
202
100
AcDbDictionary
280
     1
281
     1
  3
ACAD_XREC_ROUNDTRIP
360
35F0
  0
DICTIONARY
  5
3378
330
203
100
AcDbDictionary
280
     1
281
     1
  3
ACAD_XREC_ROUNDTRIP
360
35F1
  0
DICTIONARY
  5
337A
330
204
100
AcDbDictionary
280
     1
281
     1
  3
ACAD_XREC_ROUNDTRIP
360
35F2
  0
DICTIONARY
  5
337C
330
205
100
AcDbDictionary
280
     1
281
     1
  3
ACAD_XREC_ROUNDTRIP
360
35F3
  0
DICTIONARY
  5
337E
330
206
100
AcDbDictionary
280
     1
281
     1
  3
ACAD_XREC_ROUNDTRIP
360
35F4
  0
DICTIONARY
  5
3380
330
207
100
AcDbDictionary
280
     1
281
     1
  3
ACAD_XREC_ROUNDTRIP
360
35F5
  0
DICTIONARY
  5
3382
330
208
100
AcDbDictionary
280
     1
281
     1
  3
ACAD_XREC_ROUNDTRIP
360
35F6
  0
DICTIONARY
  5
3384
330
209
100
AcDbDictionary
280
     1
281
     1
  3
ACAD_XREC_ROUNDTRIP
360
35F7
  0
DICTIONARY
  5
3386
330
20A
100
AcDbDictionary
280
     1
281
     1
  3
ACAD_XREC_ROUNDTRIP
360
35F8
  0
DICTIONARY
  5
3388
330
20B
100
AcDbDictionary
280
     1
281
     1
  3
ACAD_XREC_ROUNDTRIP
360
35F9
  0
DICTIONARY
  5
338A
330
20C
100
AcDbDictionary
280
     1
281
     1
  3
ACAD_XREC_ROUNDTRIP
360
35FA
  0
DICTIONARY
  5
338C
330
20D
100
AcDbDictionary
280
     1
281
     1
  3
ACAD_XREC_ROUNDTRIP
360
35FB
  0
DICTIONARY
  5
338E
330
20E
100
AcDbDictionary
280
     1
281
     1
  3
ACAD_XREC_ROUNDTRIP
360
35FC
  0
DICTIONARY
  5
3390
330
20F
100
AcDbDictionary
280
     1
281
     1
  3
ACAD_XREC_ROUNDTRIP
360
35FD
  0
DICTIONARY
  5
3392
330
210
100
AcDbDictionary
280
     1
281
     1
  3
ACAD_XREC_ROUNDTRIP
360
35FE
  0
DICTIONARY
  5
3394
330
211
100
AcDbDictionary
280
     1
281
     1
  3
ACAD_XREC_ROUNDTRIP
360
35FF
  0
DICTIONARY
  5
3396
330
212
100
AcDbDictionary
280
     1
281
     1
  3
ACAD_XREC_ROUNDTRIP
360
3600
  0
DICTIONARY
  5
3398
330
213
100
AcDbDictionary
280
     1
281
     1
  3
ACAD_XREC_ROUNDTRIP
360
3601
  0
DICTIONARY
  5
339A
330
214
100
AcDbDictionary
280
     1
281
     1
  3
ACAD_XREC_ROUNDTRIP
360
3602
  0
DICTIONARY
  5
339C
330
1768
100
AcDbDictionary
280
     1
281
     1
  3
ACAD_XREC_ROUNDTRIP
360
3603
  0
DICTIONARY
  5
1766
330
218
100
AcDbDictionary
280
     1
281
     1
  3
ACAD_SORTENTS
360
1767
  0
DICTIONARY
  5
172D
102
{ACAD_REACTORS
330
C
102
}
330
C
100
AcDbDictionary
281
     1
  0
DICTIONARY
  5
1746
102
{ACAD_REACTORS
330
C
102
}
330
C
100
AcDbDictionary
281
     1
  3
Imperial24
350
1747
  0
DICTIONARY
  5
D
102
{ACAD_REACTORS
330
C
102
}
330
C
100
AcDbDictionary
281
     1
  0
RASTERVARIABLES
  5
177E
102
{ACAD_REACTORS
330
C
102
}
330
C
100
AcDbRasterVariables
 90
        0
 70
     1
 71
     1
 72
     5
  0
DICTIONARY
  5
1A
102
{ACAD_REACTORS
330
C
102
}
330
C
100
AcDbDictionary
281
     1
  3
Layout1
350
16F8
  3
Model
350
16F7
  0
DICTIONARY
  5
16FB
102
{ACAD_REACTORS
330
C
102
}
330
C
100
AcDbDictionary
281
     1
  3
ByBlock
350
1704
  3
ByLayer
350
16FC
  3
Global
350
170C
  0
DICTIONARY
  5
1742
102
{ACAD_REACTORS
330
C
102
}
330
C
100
AcDbDictionary
281
     1
  3
Standard
350
1743
  0
DICTIONARY
  5
17
102
{ACAD_REACTORS
330
C
102
}
330
C
100
AcDbDictionary
281
     1
  3
Standard
350
18
  0
DICTIONARY
  5
19
102
{ACAD_REACTORS
330
C
102
}
330
C
100
AcDbDictionary
281
     1
  0
ACDBDICTIONARYWDFLT
  5
E
102
{ACAD_REACTORS
330
C
102
}
330
C
100
AcDbDictionary
281
     1
  3
Color_2
350
176A
  3
Normal
350
F
100
AcDbDictionaryWithDefault
340
F
  0
DICTIONARY
  5
1730
102
{ACAD_REACTORS
330
C
102
}
330
C
100
AcDbDictionary
281
     1
  3
A0
350
1731
  3
A1
350
1732
  3
A2
350
1733
  3
A3
350
1734
  3
A4
350
1735
  3
A5
350
1736
  3
A6
350
1737
  3
A7
350
1738
  3
A8
350
1739
  3
A9
350
173A
  3
B0
350
173B
  3
B1
350
173C
  3
B2
350
173D
  3
B3
350
173E
  3
B4
350
173F
  3
B5
350
1740
  3
B6
350
1741
  0
DICTIONARY
  5
1744
102
{ACAD_REACTORS
330
C
102
}
330
C
100
AcDbDictionary
281
     1
  3
Imperial24
350
1745
  0
DICTIONARY
  5
172E
102
{ACAD_REACTORS
330
C
102
}
330
C
100
AcDbDictionary
281
     1
  3
Standard
350
172F
  0
DICTIONARY
  5
1714
102
{ACAD_REACTORS
330
C
102
}
330
C
100
AcDbDictionary
281
     1
  3
2dWireframe
350
171A
  3
Basic
350
1719
  3
Brighten
350
1720
  3
ColorChange
350
1724
  3
Conceptual
350
171D
  3
Dim
350
171F
  3
EdgeColorOff
350
172C
  3
Facepattern
350
1723
  3
Flat
350
1715
  3
FlatWithEdges
350
1716
  3
Gouraud
350
1717
  3
GouraudWithEdges
350
1718
  3
Hidden
350
171C
  3
JitterOff
350
172A
  3
Linepattern
350
1722
  3
OverhangOff
350
172B
  3
Realistic
350
171E
  3
Shaded
350
1729
  3
Shaded with edges
350
1728
  3
Shades of Gray
350
1725
  3
Sketchy
350
1726
  3
Thicken
350
1721
  3
Wireframe
350
171B
  3
X-Ray
350
1727
  0
XRECORD
  5
3623
102
{ACAD_REACTORS
330
C
102
}
330
C
100
AcDbXrecord
280
     1
 90
        1
330
172F
  0
DICTIONARY
  5
35E3
102
{ACAD_REACTORS
330
C
102
}
330
C
100
AcDbDictionary
281
     1
  3
COLORDICT
350
35E4
  3
MATERIALDICT
350
35E5
  0
DICTIONARY
  5
1748
102
{ACAD_REACTORS
330
C
102
}
330
C
100
AcDbDictionary
281
     1
  3
CANNOSCALE
350
35E2
  3
CMLEADERSTYLE
350
174A
  3
CTABLESTYLE
350
1749
  3
CVIEWDETAILSTYLE
350
174B
  3
CVIEWSECTIONSTYLE
350
174C
  3
DIMASSOC
350
335E
  3
HIDETEXT
350
335F
  3
MSLTSCALE
350
33DD
  0
XRECORD
  5
35E6
102
{ACAD_REACTORS
330
C
102
}
330
C
100
AcDbXrecord
280
     1
  1
DWGPROPS COOKIE
  2

  3

  4

  6

  7

  8
Leslie.Cong
  9

300
=
301
=
302
=
303
=
304
=
305
=
306
=
307
=
308
=
309
=
 40
0.0
 41
2459635.603738426
 42
2459731.752504063
  1

 90
        0
  0
XRECORD
  5
3604
102
{ACAD_REACTORS
330
339E
102
}
330
339E
100
AcDbXrecord
280
     1
102
VTR_0.000_0.000_1.000_1.000_VISUALSTYLE
340
171A
102
VTR_0.000_0.000_1.000_1.000_GRIDDISPLAY
 70
     3
102
VTR_0.000_0.000_1.000_1.000_GRIDMAJOR
 70
     5
102
VTR_0.000_0.000_1.000_1.000_DEFAULTLIGHTING
280
     1
102
VTR_0.000_0.000_1.000_1.000_DEFAULTLIGHTINGTYPE
 70
     1
102
VTR_0.000_0.000_1.000_1.000_BRIGHTNESS
141
0.0
102
VTR_0.000_0.000_1.000_1.000_CONTRAST
142
0.0
  0
XRECORD
  5
35E7
102
{ACAD_REACTORS
330
3364
102
}
330
3364
100
AcDbXrecord
280
     1
102
MATERIAL
340
170C
  0
XRECORD
  5
35E8
102
{ACAD_REACTORS
330
3366
102
}
330
3366
100
AcDbXrecord
280
     1
102
MATERIAL
340
170C
  0
XRECORD
  5
35E9
102
{ACAD_REACTORS
330
3368
102
}
330
3368
100
AcDbXrecord
280
     1
102
MATERIAL
340
170C
  0
XRECORD
  5
35EA
102
{ACAD_REACTORS
330
336A
102
}
330
336A
100
AcDbXrecord
280
     1
102
MATERIAL
340
170C
  0
XRECORD
  5
35EB
102
{ACAD_REACTORS
330
336C
102
}
330
336C
100
AcDbXrecord
280
     1
102
MATERIAL
340
170C
  0
XRECORD
  5
35EC
102
{ACAD_REACTORS
330
336E
102
}
330
336E
100
AcDbXrecord
280
     1
102
MATERIAL
340
170C
  0
XRECORD
  5
35ED
102
{ACAD_REACTORS
330
3370
102
}
330
3370
100
AcDbXrecord
280
     1
102
MATERIAL
340
170C
  0
XRECORD
  5
35EE
102
{ACAD_REACTORS
330
3372
102
}
330
3372
100
AcDbXrecord
280
     1
102
MATERIAL
340
170C
  0
XRECORD
  5
35EF
102
{ACAD_REACTORS
330
3374
102
}
330
3374
100
AcDbXrecord
280
     1
102
MATERIAL
340
170C
  0
XRECORD
  5
35F0
102
{ACAD_REACTORS
330
3376
102
}
330
3376
100
AcDbXrecord
280
     1
102
MATERIAL
340
170C
  0
XRECORD
  5
35F1
102
{ACAD_REACTORS
330
3378
102
}
330
3378
100
AcDbXrecord
280
     1
102
MATERIAL
340
170C
  0
XRECORD
  5
35F2
102
{ACAD_REACTORS
330
337A
102
}
330
337A
100
AcDbXrecord
280
     1
102
MATERIAL
340
170C
  0
XRECORD
  5
35F3
102
{ACAD_REACTORS
330
337C
102
}
330
337C
100
AcDbXrecord
280
     1
102
MATERIAL
340
170C
  0
XRECORD
  5
35F4
102
{ACAD_REACTORS
330
337E
102
}
330
337E
100
AcDbXrecord
280
     1
102
MATERIAL
340
170C
  0
XRECORD
  5
35F5
102
{ACAD_REACTORS
330
3380
102
}
330
3380
100
AcDbXrecord
280
     1
102
MATERIAL
340
170C
  0
XRECORD
  5
35F6
102
{ACAD_REACTORS
330
3382
102
}
330
3382
100
AcDbXrecord
280
     1
102
MATERIAL
340
170C
  0
XRECORD
  5
35F7
102
{ACAD_REACTORS
330
3384
102
}
330
3384
100
AcDbXrecord
280
     1
102
MATERIAL
340
170C
  0
XRECORD
  5
35F8
102
{ACAD_REACTORS
330
3386
102
}
330
3386
100
AcDbXrecord
280
     1
102
MATERIAL
340
170C
  0
XRECORD
  5
35F9
102
{ACAD_REACTORS
330
3388
102
}
330
3388
100
AcDbXrecord
280
     1
102
MATERIAL
340
170C
  0
XRECORD
  5
35FA
102
{ACAD_REACTORS
330
338A
102
}
330
338A
100
AcDbXrecord
280
     1
102
MATERIAL
340
170C
  0
XRECORD
  5
35FB
102
{ACAD_REACTORS
330
338C
102
}
330
338C
100
AcDbXrecord
280
     1
102
MATERIAL
340
170C
  0
XRECORD
  5
35FC
102
{ACAD_REACTORS
330
338E
102
}
330
338E
100
AcDbXrecord
280
     1
102
MATERIAL
340
170C
  0
XRECORD
  5
35FD
102
{ACAD_REACTORS
330
3390
102
}
330
3390
100
AcDbXrecord
280
     1
102
MATERIAL
340
170C
  0
XRECORD
  5
35FE
102
{ACAD_REACTORS
330
3392
102
}
330
3392
100
AcDbXrecord
280
     1
102
MATERIAL
340
170C
  0
XRECORD
  5
35FF
102
{ACAD_REACTORS
330
3394
102
}
330
3394
100
AcDbXrecord
280
     1
102
MATERIAL
340
170C
  0
XRECORD
  5
3600
102
{ACAD_REACTORS
330
3396
102
}
330
3396
100
AcDbXrecord
280
     1
102
MATERIAL
340
170C
  0
XRECORD
  5
3601
102
{ACAD_REACTORS
330
3398
102
}
330
3398
100
AcDbXrecord
280
     1
102
MATERIAL
340
170C
  0
XRECORD
  5
3602
102
{ACAD_REACTORS
330
339A
102
}
330
339A
100
AcDbXrecord
280
     1
102
MATERIAL
340
170C
  0
XRECORD
  5
3603
102
{ACAD_REACTORS
330
339C
102
}
330
339C
100
AcDbXrecord
280
     1
102
MATERIAL
340
170C
  0
SORTENTSTABLE
  5
1767
102
{ACAD_REACTORS
330
1766
102
}
330
1766
100
AcDbSortentsTable
330
218
  0
ACDBDETAILVIEWSTYLE
  5
1747
102
{ACAD_REACTORS
330
1746
102
}
330
1746
100
AcDbModelDocViewStyle
 70
     0
  3
Imperial24
290
     0
100
AcDbDetailViewStyle
 70
     0
 71
     0
 90
        3
 71
     1
340
11
 40
0.24
340
0
 40
0.24
300

 40
0.36
280
     3
 71
     2
340
16
 90
       25
 71
     3
340
11
 40
0.24
 90
        1
 40
0.75
 90
        1
300
%<\AcVar ViewType \f "%tc1">% %<\AcVar ViewDetailId>%\PSCALE %<\AcVar ViewScale \f "%sn">%
 71
     4
340
16
 90
       25
340
16
 90
       25
280
     0
  0
LAYOUT
  5
16F8
102
{ACAD_REACTORS
330
1A
102
}
330
1A
100
AcDbPlotSettings
  1

  2
none_device
  4
ANSI_C_(22.00_x_17.00_Inches)
  6

 40
0.0
 41
0.0
 42
0.0
 43
0.0
 44
558.8
 45
431.8
 46
0.0
 47
0.0
 48
0.0
 49
0.0
140
0.0
141
0.0
142
1.0
143
1.0
 70
     0
 72
     0
 73
     0
 74
     0
  7

 75
     0
147
1.0
148
0.0
149
0.0
100
AcDbLayout
  1
Layout1
 70
     0
 71
     1
 10
0.0
 20
0.0
 11
22.0
 21
17.0
 12
0.0
 22
0.0
 32
0.0
 14
0.0
 24
0.0
 34
0.0
 15
0.0
 25
0.0
 35
0.0
146
0.0
 13
0.0
 23
0.0
 33
0.0
 16
1.0
 26
0.0
 36
0.0
 17
0.0
 27
1.0
 37
0.0
 76
     0
330
219
  0
LAYOUT
  5
16F7
102
{ACAD_REACTORS
330
1A
102
}
330
1A
100
AcDbPlotSettings
  1

  2
None
  4
ANSI_C_(22.00_x_17.00_Inches)
  6

 40
0.0
 41
0.0
 42
0.0
 43
0.0
 44
558.8
 45
431.8
 46
0.0
 47
0.0
 48
0.0
 49
0.0
140
0.0
141
0.0
142
1.0
143
1.0
 70
  1024
 72
     0
 73
     0
 74
     0
  7

 75
     0
147
1.0
148
0.0
149
0.0
100
AcDbLayout
  1
Model
 70
     0
 71
     0
 10
0.0
 20
0.0
 11
22.0
 21
17.0
 12
0.0
 22
0.0
 32
0.0
 14
0.0
 24
0.0
 34
0.0
 15
0.0
 25
0.0
 35
0.0
146
0.0
 13
0.0
 23
0.0
 33
0.0
 16
1.0
 26
0.0
 36
0.0
 17
0.0
 27
1.0
 37
0.0
 76
     0
330
218
331
1F4
  0
MATERIAL
  5
1704
102
{ACAD_XDICTIONARY
360
33A0
102
}
102
{ACAD_REACTORS
330
16FB
102
}
330
16FB
100
AcDbMaterial
  1
ByBlock
 72
     0
 73
     2
 77
     0
 78
     2
171
     0
172
     2
175
     0
176
     2
179
     0
270
     2
274
     2
  0
MATERIAL
  5
16FC
102
{ACAD_XDICTIONARY
360
33A2
102
}
102
{ACAD_REACTORS
330
16FB
102
}
330
16FB
100
AcDbMaterial
  1
ByLayer
 72
     0
 73
     2
 77
     0
 78
     2
171
     0
172
     2
175
     0
176
     2
179
     0
270
     2
274
     2
  0
MATERIAL
  5
170C
102
{ACAD_XDICTIONARY
360
33A4
102
}
102
{ACAD_REACTORS
330
16FB
102
}
330
16FB
100
AcDbMaterial
  1
Global
 72
     0
 73
     2
 77
     0
 78
     2
171
     0
172
     2
175
     0
176
     2
179
     0
270
     2
274
     2
  0
MLEADERSTYLE
  5
1743
102
{ACAD_XDICTIONARY
360
33A7
102
}
102
{ACAD_REACTORS
330
1742
102
}
330
1742
100
AcDbMLeaderStyle
170
     2
171
     1
172
     0
 90
        2
 40
0.0
 41
0.0
173
     1
 91
-1056964608
340
14
 92
       -2
290
     1
 42
0.09
291
     1
 43
0.36
  3
Standard
 44
0.18
300

342
11
174
     1
178
     6
175
     1
176
     0
 93
-1056964608
 45
0.18
292
     0
297
     0
 46
0.18
 94
-1056964608
 47
1.0
 49
1.0
140
1.0
293
     1
141
0.0
294
     1
177
     0
142
1.0
295
     0
296
     0
143
0.125
1001
ACAD_MLEADERVER
1070
     2
  0
MLINESTYLE
  5
18
102
{ACAD_REACTORS
330
17
102
}
330
17
100
AcDbMlineStyle
  2
STANDARD
 70
     0
  3

 62
   256
 51
90.0
 52
90.0
 71
     2
 49
0.5
 62
   256
  6
BYLAYER
 49
-0.5
 62
   256
  6
BYLAYER
  0
ACDBPLACEHOLDER
  5
176A
102
{ACAD_REACTORS
330
E
102
}
330
E
  0
ACDBPLACEHOLDER
  5
F
102
{ACAD_REACTORS
330
E
102
}
330
E
  0
SCALE
  5
1731
102
{ACAD_REACTORS
330
1730
102
}
330
1730
100
AcDbScale
 70
     0
300
1:1
140
1.0
141
1.0
290
     1
  0
SCALE
  5
1732
102
{ACAD_REACTORS
330
1730
102
}
330
1730
100
AcDbScale
 70
     0
300
1/128" = 1'-0"
140
0.0078125
141
12.0
290
     0
  0
SCALE
  5
1733
102
{ACAD_REACTORS
330
1730
102
}
330
1730
100
AcDbScale
 70
     0
300
1/64" = 1'-0"
140
0.015625
141
12.0
290
     0
  0
SCALE
  5
1734
102
{ACAD_REACTORS
330
1730
102
}
330
1730
100
AcDbScale
 70
     0
300
1/32" = 1'-0"
140
0.03125
141
12.0
290
     0
  0
SCALE
  5
1735
102
{ACAD_REACTORS
330
1730
102
}
330
1730
100
AcDbScale
 70
     0
300
1/16" = 1'-0"
140
0.0625
141
12.0
290
     0
  0
SCALE
  5
1736
102
{ACAD_REACTORS
330
1730
102
}
330
1730
100
AcDbScale
 70
     0
300
3/32" = 1'-0"
140
0.09375
141
12.0
290
     0
  0
SCALE
  5
1737
102
{ACAD_REACTORS
330
1730
102
}
330
1730
100
AcDbScale
 70
     0
300
1/8" = 1'-0"
140
0.125
141
12.0
290
     0
  0
SCALE
  5
1738
102
{ACAD_REACTORS
330
1730
102
}
330
1730
100
AcDbScale
 70
     0
300
3/16" = 1'-0"
140
0.1875
141
12.0
290
     0
  0
SCALE
  5
1739
102
{ACAD_REACTORS
330
1730
102
}
330
1730
100
AcDbScale
 70
     0
300
1/4" = 1'-0"
140
0.25
141
12.0
290
     0
  0
SCALE
  5
173A
102
{ACAD_REACTORS
330
1730
102
}
330
1730
100
AcDbScale
 70
     0
300
3/8" = 1'-0"
140
0.375
141
12.0
290
     0
  0
SCALE
  5
173B
102
{ACAD_REACTORS
330
1730
102
}
330
1730
100
AcDbScale
 70
     0
300
1/2" = 1'-0"
140
0.5
141
12.0
290
     0
  0
SCALE
  5
173C
102
{ACAD_REACTORS
330
1730
102
}
330
1730
100
AcDbScale
 70
     0
300
3/4" = 1'-0"
140
0.75
141
12.0
290
     0
  0
SCALE
  5
173D
102
{ACAD_REACTORS
330
1730
102
}
330
1730
100
AcDbScale
 70
     0
300
1" = 1'-0"
140
1.0
141
12.0
290
     0
  0
SCALE
  5
173E
102
{ACAD_REACTORS
330
1730
102
}
330
1730
100
AcDbScale
 70
     0
300
1-1/2" = 1'-0"
140
1.5
141
12.0
290
     0
  0
SCALE
  5
173F
102
{ACAD_REACTORS
330
1730
102
}
330
1730
100
AcDbScale
 70
     0
300
3" = 1'-0"
140
3.0
141
12.0
290
     0
  0
SCALE
  5
1740
102
{ACAD_REACTORS
330
1730
102
}
330
1730
100
AcDbScale
 70
     0
300
6" = 1'-0"
140
6.0
141
12.0
290
     0
  0
SCALE
  5
1741
102
{ACAD_REACTORS
330
1730
102
}
330
1730
100
AcDbScale
 70
     0
300
1'-0" = 1'-0"
140
12.0
141
12.0
290
     0
  0
ACDBSECTIONVIEWSTYLE
  5
1745
102
{ACAD_REACTORS
330
1744
102
}
330
1744
100
AcDbModelDocViewStyle
 70
     0
  3
Imperial24
290
     0
100
AcDbSectionViewStyle
 70
     0
 71
     0
 90
       78
 71
     1
340
11
 40
0.24
340
0
340
0
 40
0.24
300
I, O, Q, S, X, Z
 40
0.48
 90
        3
 40
0.18
 90
        1
 71
     2
340
16
 90
       25
340
16
 90
       50
 40
0.24
 40
0.0
 40
0.24
 71
     3
340
11
 40
0.24
 90
        1
 40
0.75
 90
        1
300
%<\AcVar ViewType \f "%tc1">% %<\AcVar ViewSectionStartId>%-%<\AcVar ViewSectionEndId>%\PSCALE %<\AcVar ViewScale \f "%sn">%
 71
     4
300
ANSI31
 40
1.0
 90
        0
290
     0
290
     0
 90
        6
 40
0.0
 40
1.570796326794896
 40
0.2617993877991494
 40
1.308996938995747
 40
-0.2617993877991494
 40
1.832595714594046
  0
TABLESTYLE
  5
172F
102
{ACAD_XDICTIONARY
360
33A9
102
}
102
{ACAD_REACTORS
330
172E
102
}
330
172E
100
AcDbTableStyle
  3
Standard
 70
     0
 71
     0
 40
0.06
 41
0.06
280
     0
281
     0
  7
STANDARD
140
0.18
170
     2
 62
     0
 63
   257
283
     0
274
    -2
284
     1
 64
     0
275
    -2
285
     1
 65
     0
276
    -2
286
     1
 66
     0
277
    -2
287
     1
 67
     0
278
    -2
288
     1
 68
     0
279
    -2
289
     1
 69
     0
  7
STANDARD
140
0.25
170
     5
 62
     0
 63
   257
283
     0
274
    -2
284
     1
 64
     0
275
    -2
285
     1
 65
     0
276
    -2
286
     1
 66
     0
277
    -2
287
     1
 67
     0
278
    -2
288
     1
 68
     0
279
    -2
289
     1
 69
     0
  7
STANDARD
140
0.18
170
     5
 62
     0
 63
   257
283
     0
274
    -2
284
     1
 64
     0
275
    -2
285
     1
 65
     0
276
    -2
286
     1
 66
     0
277
    -2
287
     1
 67
     0
278
    -2
288
     1
 68
     0
279
    -2
289
     1
 69
     0
  0
VISUALSTYLE
  5
171A
102
{ACAD_XDICTIONARY
360
33AC
102
}
102
{ACAD_REACTORS
330
1714
102
}
330
1714
100
AcDbVisualStyle
  2
2dWireframe
 70
     4
 71
     0
 72
     2
 73
     0
 90
        0
 40
0.6
 41
30.0
 62
     5
 63
     7
 74
     1
 91
        4
 64
     7
 65
   257
 75
     1
175
     1
 42
1.0
 92
        0
 66
   257
 43
1.0
 76
     1
 77
     6
 78
     2
 67
     7
 79
     5
170
     0
171
     0
290
     0
174
 -7088
 93
        1
 44
0.0
173
     0
291
     0
 45
0.0
1001
ACAD
1000
AcDbSavedByObjectVersion
1070
     0
  0
VISUALSTYLE
  5
1719
102
{ACAD_XDICTIONARY
360
33AE
102
}
102
{ACAD_REACTORS
330
1714
102
}
330
1714
100
AcDbVisualStyle
  2
Basic
 70
     7
 71
     1
 72
     0
 73
     1
 90
        0
 40
0.6
 41
30.0
 62
     5
 63
     7
 74
     0
 91
        4
 64
     7
 65
   257
 75
     1
175
     1
 42
1.0
 92
        8
 66
     7
 43
1.0
 76
     1
 77
     6
 78
     2
 67
     7
 79
     5
170
     0
171
     0
290
     0
174
     0
 93
        1
 44
0.0
173
     0
291
     1
 45
0.0
1001
ACAD
1000
AcDbSavedByObjectVersion
1070
     0
  0
VISUALSTYLE
  5
1720
102
{ACAD_XDICTIONARY
360
33B0
102
}
102
{ACAD_REACTORS
330
1714
102
}
330
1714
100
AcDbVisualStyle
  2
Brighten
 70
    12
 71
     2
 72
     2
 73
     0
 90
        0
 40
0.6
 41
30.0
 62
     5
 63
     7
 74
     1
 91
        4
 64
     7
 65
   257
 75
     1
175
     1
 42
1.0
 92
        8
 66
     7
 43
1.0
 76
     1
 77
     6
 78
     2
 67
     7
 79
     5
170
     0
171
     0
290
     0
174
     0
 93
        1
 44
50.0
173
     0
291
     1
 45
0.0
1001
ACAD
1000
AcDbSavedByObjectVersion
1070
     0
  0
VISUALSTYLE
  5
1724
102
{ACAD_XDICTIONARY
360
33B2
102
}
102
{ACAD_REACTORS
330
1714
102
}
330
1714
100
AcDbVisualStyle
  2
ColorChange
 70
    16
 71
     2
 72
     2
 73
     3
 90
        0
 40
0.6
 41
30.0
 62
     5
 63
     8
 74
     1
 91
        4
 64
     7
 65
   257
 75
     1
175
     1
 42
1.0
 92
        8
 66
     8
 43
1.0
 76
     1
 77
     6
 78
     2
 67
     7
 79
     5
170
     0
171
     0
290
     0
174
     0
 93
        1
 44
0.0
173
     0
291
     1
 45
0.0
1001
ACAD
1000
AcDbSavedByObjectVersion
1070
     0
  0
VISUALSTYLE
  5
171D
102
{ACAD_XDICTIONARY
360
33B4
102
}
102
{ACAD_REACTORS
330
1714
102
}
330
1714
100
AcDbVisualStyle
  2
Conceptual
 70
     9
 71
     3
 72
     2
 73
     0
 90
        0
 40
0.6
 41
30.0
 62
     5
 63
     7
 74
     2
 91
        2
 64
     7
 65
   257
 75
     1
175
     1
 42
179.0
 92
        8
 66
     7
 43
1.0
 76
     1
 77
     6
 78
     2
 67
     7
 79
     3
170
     0
171
     0
290
     0
174
     0
 93
        1
 44
0.0
173
     0
291
     0
 45
0.0
1001
ACAD
1000
AcDbSavedByObjectVersion
1070
     0
  0
VISUALSTYLE
  5
171F
102
{ACAD_XDICTIONARY
360
33B6
102
}
102
{ACAD_REACTORS
330
1714
102
}
330
1714
100
AcDbVisualStyle
  2
Dim
 70
    11
 71
     2
 72
     2
 73
     0
 90
        0
 40
0.6
 41
30.0
 62
     5
 63
     7
 74
     1
 91
        4
 64
     7
 65
   257
 75
     1
175
     1
 42
1.0
 92
        8
 66
     7
 43
1.0
 76
     1
 77
     6
 78
     2
 67
     7
 79
     5
170
     0
171
     0
290
     0
174
     0
 93
        1
 44
-50.0
173
     0
291
     1
 45
0.0
1001
ACAD
1000
AcDbSavedByObjectVersion
1070
     0
  0
VISUALSTYLE
  5
172C
102
{ACAD_XDICTIONARY
360
33B8
102
}
102
{ACAD_REACTORS
330
1714
102
}
330
1714
100
AcDbVisualStyle
  2
EdgeColorOff
 70
    22
 71
     2
 72
     2
 73
     0
 90
        0
 40
0.6
 41
30.0
 62
     5
 63
     7
 74
     1
 91
        4
 64
     7
 65
   257
 75
     1
175
     1
 42
1.0
 92
        8
 66
     7
 43
1.0
 76
     1
 77
     6
 78
     2
 67
     7
 79
     5
170
     0
171
     0
290
     0
174
    17
 93
        1
 44
0.0
173
     0
291
     1
 45
0.0
1001
ACAD
1000
AcDbSavedByObjectVersion
1070
     0
  0
VISUALSTYLE
  5
1723
102
{ACAD_XDICTIONARY
360
33BA
102
}
102
{ACAD_REACTORS
330
1714
102
}
330
1714
100
AcDbVisualStyle
  2
Facepattern
 70
    15
 71
     2
 72
     2
 73
     0
 90
        0
 40
0.6
 41
30.0
 62
     5
 63
     7
 74
     1
 91
        4
 64
     7
 65
   257
 75
     1
175
     1
 42
1.0
 92
        8
 66
     7
 43
1.0
 76
     1
 77
     6
 78
     2
 67
     7
 79
     5
170
     0
171
     0
290
     0
174
    17
 93
        1
 44
0.0
173
     0
291
     1
 45
0.0
1001
ACAD
1000
AcDbSavedByObjectVersion
1070
     0
  0
VISUALSTYLE
  5
1715
102
{ACAD_XDICTIONARY
360
33BC
102
}
102
{ACAD_REACTORS
330
1714
102
}
330
1714
100
AcDbVisualStyle
  2
Flat
 70
     0
 71
     2
 72
     1
 73
     1
 90
        2
 40
0.6
 41
30.0
 62
     5
 63
     7
 74
     0
 91
        0
 64
     7
 65
   257
 75
     1
175
     1
 42
1.0
 92
        8
 66
     7
 43
1.0
 76
     1
 77
     6
 78
     2
 67
     7
 79
     5
170
     0
171
     0
290
     0
174
   108
 93
       13
 44
0.0
173
     0
291
     1
 45
0.0
1001
ACAD
1000
AcDbSavedByObjectVersion
1070
     0
  0
VISUALSTYLE
  5
1716
102
{ACAD_XDICTIONARY
360
33BE
102
}
102
{ACAD_REACTORS
330
1714
102
}
330
1714
100
AcDbVisualStyle
  2
FlatWithEdges
 70
     1
 71
     2
 72
     1
 73
     1
 90
        2
 40
0.6
 41
30.0
 62
     5
 63
     7
 74
     1
 91
        0
 64
     7
 65
   257
 75
     1
175
     1
 42
1.0
 92
        0
 66
   257
 43
1.0
 76
     1
 77
     6
 78
     2
 67
     7
 79
     5
170
     0
171
     0
290
     0
174
     0
 93
       13
 44
0.0
173
     0
291
     1
 45
0.0
1001
ACAD
1000
AcDbSavedByObjectVersion
1070
     0
  0
VISUALSTYLE
  5
1717
102
{ACAD_XDICTIONARY
360
33C0
102
}
102
{ACAD_REACTORS
330
1714
102
}
330
1714
100
AcDbVisualStyle
  2
Gouraud
 70
     2
 71
     2
 72
     2
 73
     1
 90
        2
 40
0.6
 41
30.0
 62
     5
 63
     7
 74
     0
 91
        0
 64
     7
 65
   257
 75
     1
175
     1
 42
1.0
 92
        0
 66
     7
 43
1.0
 76
     1
 77
     6
 78
     2
 67
     7
 79
     5
170
     0
171
     0
290
     0
174
 -5992
 93
       13
 44
0.0
173
     0
291
     1
 45
0.0
1001
ACAD
1000
AcDbSavedByObjectVersion
1070
     0
  0
VISUALSTYLE
  5
1718
102
{ACAD_XDICTIONARY
360
33C2
102
}
102
{ACAD_REACTORS
330
1714
102
}
330
1714
100
AcDbVisualStyle
  2
GouraudWithEdges
 70
     3
 71
     2
 72
     2
 73
     1
 90
        2
 40
0.6
 41
30.0
 62
     5
 63
     7
 74
     1
 91
        0
 64
     7
 65
   257
 75
     1
175
     1
 42
1.0
 92
        0
 66
   257
 43
1.0
 76
     1
 77
     6
 78
     2
 67
     7
 79
     5
170
     0
171
     0
290
     0
174
     0
 93
       13
 44
0.0
173
     0
291
     1
 45
0.0
1001
ACAD
1000
AcDbSavedByObjectVersion
1070
     0
  0
VISUALSTYLE
  5
171C
102
{ACAD_XDICTIONARY
360
33C4
102
}
102
{ACAD_REACTORS
330
1714
102
}
330
1714
100
AcDbVisualStyle
  2
Hidden
 70
     6
 71
     1
 72
     2
 73
     2
 90
        0
 40
0.6
 41
30.0
 62
     5
 63
     7
 74
     2
 91
        2
 64
     7
 65
   257
 75
     2
175
     1
 42
40.0
 92
        0
 66
   257
 43
1.0
 76
     1
 77
     6
 78
     2
 67
     7
 79
     3
170
     0
171
     0
290
     0
174
    17
 93
        1
 44
0.0
173
     0
291
     0
 45
0.0
1001
ACAD
1000
AcDbSavedByObjectVersion
1070
     0
  0
VISUALSTYLE
  5
172A
102
{ACAD_XDICTIONARY
360
33C6
102
}
102
{ACAD_REACTORS
330
1714
102
}
330
1714
100
AcDbVisualStyle
  2
JitterOff
 70
    20
 71
     2
 72
     2
 73
     0
 90
        0
 40
0.6
 41
30.0
 62
     5
 63
     7
 74
     1
 91
        4
 64
     7
 65
   257
 75
     1
175
     1
 42
1.0
 92
       10
 66
     7
 43
1.0
 76
     1
 77
     6
 78
     2
 67
     7
 79
     5
170
     0
171
     0
290
     0
174
    17
 93
        1
 44
0.0
173
     0
291
     1
 45
0.0
1001
ACAD
1000
AcDbSavedByObjectVersion
1070
     0
  0
VISUALSTYLE
  5
1722
102
{ACAD_XDICTIONARY
360
33C8
102
}
102
{ACAD_REACTORS
330
1714
102
}
330
1714
100
AcDbVisualStyle
  2
Linepattern
 70
    14
 71
     2
 72
     2
 73
     0
 90
        0
 40
0.6
 41
30.0
 62
     5
 63
     7
 74
     1
 91
        4
 64
     7
 65
   257
 75
     7
175
     7
 42
1.0
 92
        8
 66
     7
 43
1.0
 76
     1
 77
     6
 78
     2
 67
     7
 79
     5
170
     0
171
     0
290
     0
174
     0
 93
        1
 44
0.0
173
     0
291
     1
 45
0.0
1001
ACAD
1000
AcDbSavedByObjectVersion
1070
     0
  0
VISUALSTYLE
  5
172B
102
{ACAD_XDICTIONARY
360
33CA
102
}
102
{ACAD_REACTORS
330
1714
102
}
330
1714
100
AcDbVisualStyle
  2
OverhangOff
 70
    21
 71
     2
 72
     2
 73
     0
 90
        0
 40
0.6
 41
30.0
 62
     5
 63
     7
 74
     1
 91
        4
 64
     7
 65
   257
 75
     1
175
     1
 42
1.0
 92
        9
 66
     7
 43
1.0
 76
     1
 77
     6
 78
     2
 67
     7
 79
     5
170
     0
171
     0
290
     0
174
     0
 93
        1
 44
0.0
173
     0
291
     1
 45
0.0
1001
ACAD
1000
AcDbSavedByObjectVersion
1070
     0
  0
VISUALSTYLE
  5
171E
102
{ACAD_XDICTIONARY
360
33CC
102
}
102
{ACAD_REACTORS
330
1714
102
}
330
1714
100
AcDbVisualStyle
  2
Realistic
 70
     8
 71
     2
 72
     3
 73
     0
 90
        2
 40
0.6
 41
30.0
 62
     5
 63
     7
 74
     0
 91
        0
 64
     7
 65
   257
 75
     1
175
     1
 42
1.0
 92
        8
 66
   257
 43
1.0
 76
     1
 77
     6
 78
     2
 67
     7
 79
     3
170
     0
171
     0
290
     0
174
     0
 93
       13
 44
0.0
173
     0
291
     0
 45
0.0
1001
ACAD
1000
AcDbSavedByObjectVersion
1070
     0
  0
VISUALSTYLE
  5
1729
102
{ACAD_XDICTIONARY
360
33CE
102
}
102
{ACAD_REACTORS
330
1714
102
}
330
1714
100
AcDbVisualStyle
  2
Shaded
 70
    27
 71
     2
 72
     2
 73
     1
 90
        2
 40
0.6
 41
30.0
 62
     5
 63
     7
 74
     0
 91
        4
 64
     7
 65
   257
 75
     1
175
     1
 42
1.0
 92
        8
 66
   257
 43
1.0
 76
     1
 77
     6
 78
     2
 67
     8
 79
     3
170
     0
171
     0
290
     0
174
     0
 93
        5
 44
0.0
173
     0
291
     0
 45
0.0
1001
ACAD
1000
AcDbSavedByObjectVersion
1070
     0
  0
VISUALSTYLE
  5
1728
102
{ACAD_XDICTIONARY
360
33D0
102
}
102
{ACAD_REACTORS
330
1714
102
}
330
1714
100
AcDbVisualStyle
  2
Shaded with edges
 70
    26
 71
     2
 72
     2
 73
     1
 90
        2
 40
0.6
 41
30.0
 62
     5
 63
     7
 74
     1
 91
        2
 64
     7
 65
   257
 75
     2
175
     1
 42
1.0
 92
        8
 66
   257
 43
1.0
 76
     1
 77
     6
 78
     2
 67
     7
 79
     3
170
     0
171
     0
290
     0
174
     0
 93
        5
 44
0.0
173
     0
291
     0
 45
0.0
1001
ACAD
1000
AcDbSavedByObjectVersion
1070
     0
  0
VISUALSTYLE
  5
1725
102
{ACAD_XDICTIONARY
360
33D2
102
}
102
{ACAD_REACTORS
330
1714
102
}
330
1714
100
AcDbVisualStyle
  2
Shades of Gray
 70
    23
 71
     2
 72
     2
 73
     3
 90
        0
 40
0.6
 41
30.0
 62
     5
 63
     7
 74
     2
 91
        2
 64
     7
 65
     7
 75
     1
175
     1
 42
40.0
 92
        8
 66
     7
 43
1.0
 76
     1
 77
     6
 78
     2
 67
     7
 79
     3
170
     0
171
     0
290
     0
174
     0
 93
        1
 44
0.0
173
     0
291
     0
 45
0.0
1001
ACAD
1000
AcDbSavedByObjectVersion
1070
     0
  0
VISUALSTYLE
  5
1726
102
{ACAD_XDICTIONARY
360
33D4
102
}
102
{ACAD_REACTORS
330
1714
102
}
330
1714
100
AcDbVisualStyle
  2
Sketchy
 70
    24
 71
     1
 72
     2
 73
     2
 90
        0
 40
0.6
 41
30.0
 62
     5
 63
     7
 74
     2
 91
        2
 64
     7
 65
     7
 75
     1
175
     1
 42
40.0
 92
       11
 66
     7
 43
1.0
 76
     1
 77
     6
 78
     2
 67
     7
 79
     6
170
     0
171
     0
290
     0
174
     0
 93
        1
 44
0.0
173
     0
291
     0
 45
0.0
1001
ACAD
1000
AcDbSavedByObjectVersion
1070
     0
  0
VISUALSTYLE
  5
1721
102
{ACAD_XDICTIONARY
360
33D6
102
}
102
{ACAD_REACTORS
330
1714
102
}
330
1714
100
AcDbVisualStyle
  2
Thicken
 70
    13
 71
     2
 72
     2
 73
     0
 90
        0
 40
0.6
 41
30.0
 62
     5
 63
     7
 74
     1
 91
        4
 64
     7
 65
   257
 75
     1
175
     1
 42
1.0
 92
       12
 66
     7
 43
1.0
 76
     1
 77
     6
 78
     2
 67
     7
 79
     5
170
     0
171
     0
290
     0
174
    17
 93
        1
 44
0.0
173
     0
291
     1
 45
0.0
1001
ACAD
1000
AcDbSavedByObjectVersion
1070
     0
  0
VISUALSTYLE
  5
171B
102
{ACAD_XDICTIONARY
360
33D8
102
}
102
{ACAD_REACTORS
330
1714
102
}
330
1714
100
AcDbVisualStyle
  2
Wireframe
 70
     5
 71
     0
 72
     2
 73
     0
 90
        0
 40
0.6
 41
30.0
 62
     5
 63
     7
 74
     1
 91
        4
 64
     7
 65
   257
 75
     1
175
     1
 42
1.0
 92
        0
 66
   257
 43
1.0
 76
     1
 77
     6
 78
     2
 67
     7
 79
     3
170
     0
171
     0
290
     0
174
     0
 93
        1
 44
0.0
173
     0
291
     0
 45
0.0
1001
ACAD
1000
AcDbSavedByObjectVersion
1070
     0
  0
VISUALSTYLE
  5
1727
102
{ACAD_XDICTIONARY
360
33DA
102
}
102
{ACAD_REACTORS
330
1714
102
}
330
1714
100
AcDbVisualStyle
  2
X-Ray
 70
    25
 71
     2
 72
     2
 73
     1
 90
        1
 40
0.5
 41
30.0
 62
     5
 63
     7
 74
     1
 91
        0
 64
     7
 65
   257
 75
     1
175
     1
 42
1.0
 92
        8
 66
     7
 43
1.0
 76
     1
 77
     6
 78
     2
 67
     7
 79
     3
170
     0
171
     0
290
     0
174
     0
 93
       13
 44
0.0
173
     0
291
     0
 45
0.0
1001
ACAD
1000
AcDbSavedByObjectVersion
1070
     0
  0
XRECORD
  5
35E4
102
{ACAD_REACTORS
330
35E3
102
}
330
35E3
100
AcDbXrecord
280
     1
340
172D
  0
XRECORD
  5
35E5
102
{ACAD_REACTORS
330
35E3
102
}
330
35E3
100
AcDbXrecord
280
     1
340
16FB
  0
DICTIONARYVAR
  5
35E2
102
{ACAD_REACTORS
330
1748
102
}
330
1748
100
DictionaryVariables
280
     0
  1
1:1
  0
DICTIONARYVAR
  5
174A
102
{ACAD_REACTORS
330
1748
102
}
330
1748
100
DictionaryVariables
280
     0
  1
STANDARD
  0
DICTIONARYVAR
  5
1749
102
{ACAD_REACTORS
330
1748
102
}
330
1748
100
DictionaryVariables
280
     0
  1
STANDARD
  0
DICTIONARYVAR
  5
174B
102
{ACAD_REACTORS
330
1748
102
}
330
1748
100
DictionaryVariables
280
     0
  1
Imperial24
  0
DICTIONARYVAR
  5
174C
102
{ACAD_REACTORS
330
1748
102
}
330
1748
100
DictionaryVariables
280
     0
  1
Imperial24
  0
DICTIONARYVAR
  5
335E
102
{ACAD_REACTORS
330
1748
102
}
330
1748
100
DictionaryVariables
280
     0
  1
2
  0
DICTIONARYVAR
  5
335F
102
{ACAD_REACTORS
330
1748
102
}
330
1748
100
DictionaryVariables
280
     0
  1
1
  0
DICTIONARYVAR
  5
33DD
102
{ACAD_REACTORS
330
1748
102
}
330
1748
100
DictionaryVariables
280
     0
  1
1
  0
DICTIONARY
  5
33A0
330
1704
100
AcDbDictionary
280
     1
281
     1
  3
ACAD_XREC_ROUNDTRIP
360
3605
  0
DICTIONARY
  5
33A2
330
16FC
100
AcDbDictionary
280
     1
281
     1
  3
ACAD_XREC_ROUNDTRIP
360
3606
  0
DICTIONARY
  5
33A4
330
170C
100
AcDbDictionary
280
     1
281
     1
  3
ACAD_XREC_ROUNDTRIP
360
3607
  0
DICTIONARY
  5
33A7
330
1743
100
AcDbDictionary
280
     1
281
     1
  3
ACAD_XREC_ROUNDTRIP
360
3608
  0
DICTIONARY
  5
33A9
330
172F
100
AcDbDictionary
280
     1
281
     1
  3
ACAD_ROUNDTRIP_2008_TABLESTYLE_CELLSTYLEMAP
360
360A
  3
ACAD_XREC_ROUNDTRIP
360
3609
  0
DICTIONARY
  5
33AC
330
171A
100
AcDbDictionary
280
     1
281
     1
  3
ACAD_XREC_ROUNDTRIP
360
360B
  0
DICTIONARY
  5
33AE
330
1719
100
AcDbDictionary
280
     1
281
     1
  3
ACAD_XREC_ROUNDTRIP
360
360C
  0
DICTIONARY
  5
33B0
330
1720
100
AcDbDictionary
280
     1
281
     1
  3
ACAD_XREC_ROUNDTRIP
360
360D
  0
DICTIONARY
  5
33B2
330
1724
100
AcDbDictionary
280
     1
281
     1
  3
ACAD_XREC_ROUNDTRIP
360
360E
  0
DICTIONARY
  5
33B4
330
171D
100
AcDbDictionary
280
     1
281
     1
  3
ACAD_XREC_ROUNDTRIP
360
360F
  0
DICTIONARY
  5
33B6
330
171F
100
AcDbDictionary
280
     1
281
     1
  3
ACAD_XREC_ROUNDTRIP
360
3610
  0
DICTIONARY
  5
33B8
330
172C
100
AcDbDictionary
280
     1
281
     1
  3
ACAD_XREC_ROUNDTRIP
360
3611
  0
DICTIONARY
  5
33BA
330
1723
100
AcDbDictionary
280
     1
281
     1
  3
ACAD_XREC_ROUNDTRIP
360
3612
  0
DICTIONARY
  5
33BC
330
1715
100
AcDbDictionary
280
     1
281
     1
  3
ACAD_XREC_ROUNDTRIP
360
3613
  0
DICTIONARY
  5
33BE
330
1716
100
AcDbDictionary
280
     1
281
     1
  3
ACAD_XREC_ROUNDTRIP
360
3614
  0
DICTIONARY
  5
33C0
330
1717
100
AcDbDictionary
280
     1
281
     1
  3
ACAD_XREC_ROUNDTRIP
360
3615
  0
DICTIONARY
  5
33C2
330
1718
100
AcDbDictionary
280
     1
281
     1
  3
ACAD_XREC_ROUNDTRIP
360
3616
  0
DICTIONARY
  5
33C4
330
171C
100
AcDbDictionary
280
     1
281
     1
  3
ACAD_XREC_ROUNDTRIP
360
3617
  0
DICTIONARY
  5
33C6
330
172A
100
AcDbDictionary
280
     1
281
     1
  3
ACAD_XREC_ROUNDTRIP
360
3618
  0
DICTIONARY
  5
33C8
330
1722
100
AcDbDictionary
280
     1
281
     1
  3
ACAD_XREC_ROUNDTRIP
360
3619
  0
DICTIONARY
  5
33CA
330
172B
100
AcDbDictionary
280
     1
281
     1
  3
ACAD_XREC_ROUNDTRIP
360
361A
  0
DICTIONARY
  5
33CC
330
171E
100
AcDbDictionary
280
     1
281
     1
  3
ACAD_XREC_ROUNDTRIP
360
361B
  0
DICTIONARY
  5
33CE
330
1729
100
AcDbDictionary
280
     1
281
     1
  3
ACAD_XREC_ROUNDTRIP
360
361C
  0
DICTIONARY
  5
33D0
330
1728
100
AcDbDictionary
280
     1
281
     1
  3
ACAD_XREC_ROUNDTRIP
360
361D
  0
DICTIONARY
  5
33D2
330
1725
100
AcDbDictionary
280
     1
281
     1
  3
ACAD_XREC_ROUNDTRIP
360
361E
  0
DICTIONARY
  5
33D4
330
1726
100
AcDbDictionary
280
     1
281
     1
  3
ACAD_XREC_ROUNDTRIP
360
361F
  0
DICTIONARY
  5
33D6
330
1721
100
AcDbDictionary
280
     1
281
     1
  3
ACAD_XREC_ROUNDTRIP
360
3620
  0
DICTIONARY
  5
33D8
330
171B
100
AcDbDictionary
280
     1
281
     1
  3
ACAD_XREC_ROUNDTRIP
360
3621
  0
DICTIONARY
  5
33DA
330
1727
100
AcDbDictionary
280
     1
281
     1
  3
ACAD_XREC_ROUNDTRIP
360
3622
  0
XRECORD
  5
3605
102
{ACAD_REACTORS
330
33A0
102
}
330
33A0
100
AcDbXrecord
280
     1
102
MATERIAL
148
0.0
149
0.0
149
0.0
 93
        0
 94
      127
282
     0
 72
     0
 77
     0
171
     0
175
     0
179
     0
273
     0
  0
XRECORD
  5
3606
102
{ACAD_REACTORS
330
33A2
102
}
330
33A2
100
AcDbXrecord
280
     1
102
MATERIAL
148
0.0
149
0.0
149
0.0
 93
        0
 94
      127
282
     0
 72
     0
 77
     0
171
     0
175
     0
179
     0
273
     0
  0
XRECORD
  5
3607
102
{ACAD_REACTORS
330
33A4
102
}
330
33A4
100
AcDbXrecord
280
     1
102
MATERIAL
148
0.0
149
0.0
149
0.0
 93
        0
 94
      127
282
     0
 72
     0
 77
     0
171
     0
175
     0
179
     0
273
     0
  0
XRECORD
  5
3608
102
{ACAD_REACTORS
330
33A7
102
}
330
33A7
100
AcDbXrecord
280
     1
102
ACAD_ROUNDTRIP_2012_MLEADER_STYLE
298
     1
  0
CELLSTYLEMAP
  5
360A
102
{ACAD_REACTORS
330
33A9
102
}
330
33A9
100
AcDbCellStyleMap
 90
        3
300
CELLSTYLE
  1
TABLEFORMAT_BEGIN
 90
        5
170
     1
 91
        0
 92
    32768
 62
   257
 93
        1
300
CONTENTFORMAT
  1
CONTENTFORMAT_BEGIN
 90
        0
 91
        0
 92
      512
 93
        0
300

 40
0.0
140
1.0
 94
        5
 62
     0
340
11
144
0.25
309
CONTENTFORMAT_END
171
     0
 94
        0
309
TABLEFORMAT_END
  1
CELLSTYLE_BEGIN
 90
        1
 91
        1
300
_TITLE
309
CELLSTYLE_END
300
CELLSTYLE
  1
TABLEFORMAT_BEGIN
 90
        5
170
     1
 91
        0
 92
        0
 62
   257
 93
        1
300
CONTENTFORMAT
  1
CONTENTFORMAT_BEGIN
 90
        0
 91
        0
 92
      512
 93
        0
300

 40
0.0
140
1.0
 94
        5
 62
     0
340
11
144
0.18
309
CONTENTFORMAT_END
171
     0
 94
        0
309
TABLEFORMAT_END
  1
CELLSTYLE_BEGIN
 90
        2
 91
        1
300
_HEADER
309
CELLSTYLE_END
300
CELLSTYLE
  1
TABLEFORMAT_BEGIN
 90
        5
170
     1
 91
        0
 92
        0
 62
   257
 93
        1
300
CONTENTFORMAT
  1
CONTENTFORMAT_BEGIN
 90
        0
 91
        0
 92
      512
 93
        0
300

 40
0.0
140
1.0
 94
        2
 62
     0
340
11
144
0.18
309
CONTENTFORMAT_END
171
     0
 94
        0
309
TABLEFORMAT_END
  1
CELLSTYLE_BEGIN
 90
        3
 91
        2
300
_DATA
309
CELLSTYLE_END
  0
XRECORD
  5
3609
102
{ACAD_REACTORS
330
33A9
102
}
330
33A9
100
AcDbXrecord
280
     1
102
ACAD_ROUNDTRIP_PRE2007_TABLESTYLE
 90
      512
 91
        0
  1

 92
      512
 93
        0
  2

 94
      512
 95
        0
  3

  0
XRECORD
  5
360B
102
{ACAD_REACTORS
330
33AC
102
}
330
33AC
100
AcDbXrecord
280
     1
102
RTVSPropertyOp0
 70
     1
102
RTVSPropertyOp1
 70
     1
102
RTVSPropertyOp2
 70
     1
102
RTVSPropertyOp3
 70
     1
102
RTVSPropertyOp4
 70
     1
102
RTVSPropertyOp5
 70
     1
102
RTVSPropertyOp6
 70
     1
102
RTVSPropertyOp7
 70
     1
102
RTVSPropertyOp8
 70
     1
102
RTVSPropertyOp9
 70
     1
102
RTVSPropertyOp10
 70
     1
102
RTVSPropertyOp11
 70
     1
102
RTVSPropertyOp12
 70
     1
102
RTVSPropertyOp13
 70
     1
102
RTVSPropertyOp14
 70
     1
102
RTVSPropertyOp15
 70
     1
102
RTVSPropertyOp16
 70
     1
102
RTVSPropertyOp17
 70
     1
102
RTVSPropertyOp18
 70
     1
102
RTVSPropertyOp19
 70
     1
102
RTVSPropertyOp20
 70
     1
102
RTVSPropertyOp21
 70
     1
102
RTVSPropertyOp22
 70
     1
102
RTVSPropertyOp23
 70
     1
102
RTVSPropertyOp24
 70
     1
102
RTVSPropertyOp25
 70
     1
102
RTVSPropertyOp26
 70
     1
102
RTVSPropertyOp27
 70
     1
102
RTVSPropertyOp28
 70
     1
102
RTVSPropertyOp29
 70
     1
102
RTVSPropertyOp30
 70
     1
102
RTVSPropertyOp31
 70
     1
102
RTVSPropertyOp32
 70
     1
102
RTVSPropertyOp33
 70
     1
102
RTVSPropertyOp34
 70
     1
102
RTVSPropertyOp35
 70
     1
102
RTVSPropertyOp36
 70
     1
102
RTVSPropertyOp37
 70
     1
102
RTVSPropertyOp38
 70
     1
102
RTVSPropertyOp39
 70
     1
102
RTVSPropertyOp40
 70
     1
102
RTVSPropertyOp41
 70
     1
102
RTVSPropertyOp42
 70
     1
102
RTVSPropertyOp43
 70
     1
102
RTVSPropertyOp44
 70
     1
102
RTVSPropertyOp45
 70
     1
102
RTVSPropertyOp46
 70
     1
102
RTVSPropertyOp47
 70
     1
102
RTVSPropertyOp48
 70
     1
102
RTVSPropertyOp49
 70
     1
102
RTVSPropertyOp50
 70
     1
102
RTVSPropertyOp51
 70
     0
102
RTVSPropertyOp52
 70
     0
102
RTVSPropertyOp53
 70
     1
102
RTVSPropertyOp54
 70
     1
102
RTVSPropertyOp55
 70
     1
102
RTVSPropertyOp56
 70
     1
102
RTVSPropertyOp57
 70
     1
102
RTVSPost2010Prop28
280
     1
102
RTVSPost2010PropOp28
 70
     1
102
RTVSPost2010Prop29
280
     1
102
RTVSPost2010PropOp29
 70
     1
102
RTVSPost2010Prop30
280
     0
102
RTVSPost2010PropOp30
 70
     1
102
RTVSPost2010Prop31
280
     0
102
RTVSPost2010PropOp31
 70
     1
102
RTVSPost2010Prop32
280
     0
102
RTVSPost2010PropOp32
 70
     1
102
RTVSPost2010Prop33
280
     0
102
RTVSPost2010PropOp33
 70
     1
102
RTVSPost2010Prop34
280
     0
102
RTVSPost2010PropOp34
 70
     1
102
RTVSPost2010Prop35
280
     0
102
RTVSPost2010PropOp35
 70
     1
102
RTVSPost2010Prop36
280
     0
102
RTVSPost2010PropOp36
 70
     1
102
RTVSPost2010Prop37
 90
       50
102
RTVSPost2010PropOp37
 70
     1
102
RTVSPost2010Prop38
140
0.0
102
RTVSPost2010PropOp38
 70
     1
102
RTVSPost2010Prop39
140
1.0
102
RTVSPost2010PropOp39
 70
     1
102
RTVSPost2010Prop40
 90
        0
102
RTVSPost2010PropOp40
 70
     1
102
RTVSPost2010Prop41ColorIndex
 90
       18
102
RTVSPost2010Prop41ColorRGB
 90
        0
102
RTVSPost2010PropOp41
 70
     1
102
RTVSPost2010Prop42
 90
       50
102
RTVSPost2010PropOp42
 70
     1
102
RTVSPost2010Prop43
 90
        3
102
RTVSPost2010PropOp43
 70
     1
102
RTVSPost2010Prop44ColorIndex
 90
        5
102
RTVSPost2010Prop44ColorRGB
 90
      255
102
RTVSPost2010PropOp44
 70
     1
102
RTVSPost2010Prop45
280
     0
102
RTVSPost2010PropOp45
 70
     1
102
RTVSPost2010Prop46
 90
       50
102
RTVSPost2010PropOp46
 70
     1
102
RTVSPost2010Prop47
 90
       50
102
RTVSPost2010PropOp47
 70
     1
102
RTVSPost2010Prop48
 90
       50
102
RTVSPost2010PropOp48
 70
     1
102
RTVSPost2010Prop49
280
     0
102
RTVSPost2010PropOp49
 70
     1
102
RTVSPost2010Prop50
 90
       50
102
RTVSPost2010PropOp50
 70
     1
102
RTVSPost2010Prop51ColorIndex
 90
      256
102
RTVSPost2010Prop51ColorRGB
 90
-16777216
102
RTVSPost2010PropOp51
 70
     0
102
RTVSPost2010Prop52
140
1.0
102
RTVSPost2010PropOp52
 70
     0
102
RTVSPost2010Prop53
 90
        2
102
RTVSPost2010PropOp53
 70
     1
102
RTVSPost2010Prop54
  1
strokes_ogs.tif
102
RTVSPost2010PropOp54
 70
     1
102
RTVSPost2010Prop55
280
     0
102
RTVSPost2010PropOp55
 70
     1
102
RTVSPost2010Prop56
140
1.0
102
RTVSPost2010PropOp56
 70
     1
102
RTVSPost2010Prop57
140
1.0
102
RTVSPost2010PropOp57
 70
     1
  0
XRECORD
  5
360C
102
{ACAD_REACTORS
330
33AE
102
}
330
33AE
100
AcDbXrecord
280
     1
102
RTVSPropertyOp0
 70
     1
102
RTVSPropertyOp1
 70
     1
102
RTVSPropertyOp2
 70
     1
102
RTVSPropertyOp3
 70
     1
102
RTVSPropertyOp4
 70
     1
102
RTVSPropertyOp5
 70
     1
102
RTVSPropertyOp6
 70
     1
102
RTVSPropertyOp7
 70
     1
102
RTVSPropertyOp8
 70
     1
102
RTVSPropertyOp9
 70
     1
102
RTVSPropertyOp10
 70
     1
102
RTVSPropertyOp11
 70
     1
102
RTVSPropertyOp12
 70
     1
102
RTVSPropertyOp13
 70
     1
102
RTVSPropertyOp14
 70
     1
102
RTVSPropertyOp15
 70
     1
102
RTVSPropertyOp16
 70
     1
102
RTVSPropertyOp17
 70
     1
102
RTVSPropertyOp18
 70
     1
102
RTVSPropertyOp19
 70
     1
102
RTVSPropertyOp20
 70
     1
102
RTVSPropertyOp21
 70
     1
102
RTVSPropertyOp22
 70
     1
102
RTVSPropertyOp23
 70
     1
102
RTVSPropertyOp24
 70
     1
102
RTVSPropertyOp25
 70
     1
102
RTVSPropertyOp26
 70
     1
102
RTVSPropertyOp27
 70
     1
102
RTVSPropertyOp28
 70
     1
102
RTVSPropertyOp29
 70
     1
102
RTVSPropertyOp30
 70
     1
102
RTVSPropertyOp31
 70
     1
102
RTVSPropertyOp32
 70
     1
102
RTVSPropertyOp33
 70
     1
102
RTVSPropertyOp34
 70
     1
102
RTVSPropertyOp35
 70
     1
102
RTVSPropertyOp36
 70
     1
102
RTVSPropertyOp37
 70
     1
102
RTVSPropertyOp38
 70
     1
102
RTVSPropertyOp39
 70
     1
102
RTVSPropertyOp40
 70
     1
102
RTVSPropertyOp41
 70
     1
102
RTVSPropertyOp42
 70
     1
102
RTVSPropertyOp43
 70
     1
102
RTVSPropertyOp44
 70
     1
102
RTVSPropertyOp45
 70
     1
102
RTVSPropertyOp46
 70
     1
102
RTVSPropertyOp47
 70
     1
102
RTVSPropertyOp48
 70
     1
102
RTVSPropertyOp49
 70
     1
102
RTVSPropertyOp50
 70
     1
102
RTVSPropertyOp51
 70
     0
102
RTVSPropertyOp52
 70
     0
102
RTVSPropertyOp53
 70
     1
102
RTVSPropertyOp54
 70
     1
102
RTVSPropertyOp55
 70
     1
102
RTVSPropertyOp56
 70
     1
102
RTVSPropertyOp57
 70
     1
102
RTVSPost2010Prop28
280
     0
102
RTVSPost2010PropOp28
 70
     1
102
RTVSPost2010Prop29
280
     1
102
RTVSPost2010PropOp29
 70
     1
102
RTVSPost2010Prop30
280
     1
102
RTVSPost2010PropOp30
 70
     1
102
RTVSPost2010Prop31
280
     0
102
RTVSPost2010PropOp31
 70
     1
102
RTVSPost2010Prop32
280
     0
102
RTVSPost2010PropOp32
 70
     1
102
RTVSPost2010Prop33
280
     0
102
RTVSPost2010PropOp33
 70
     1
102
RTVSPost2010Prop34
280
     0
102
RTVSPost2010PropOp34
 70
     1
102
RTVSPost2010Prop35
280
     0
102
RTVSPost2010PropOp35
 70
     1
102
RTVSPost2010Prop36
280
     0
102
RTVSPost2010PropOp36
 70
     1
102
RTVSPost2010Prop37
 90
       50
102
RTVSPost2010PropOp37
 70
     1
102
RTVSPost2010Prop38
140
0.0
102
RTVSPost2010PropOp38
 70
     1
102
RTVSPost2010Prop39
140
1.0
102
RTVSPost2010PropOp39
 70
     1
102
RTVSPost2010Prop40
 90
        0
102
RTVSPost2010PropOp40
 70
     1
102
RTVSPost2010Prop41ColorIndex
 90
       18
102
RTVSPost2010Prop41ColorRGB
 90
        0
102
RTVSPost2010PropOp41
 70
     1
102
RTVSPost2010Prop42
 90
       50
102
RTVSPost2010PropOp42
 70
     1
102
RTVSPost2010Prop43
 90
        3
102
RTVSPost2010PropOp43
 70
     1
102
RTVSPost2010Prop44ColorIndex
 90
        5
102
RTVSPost2010Prop44ColorRGB
 90
      255
102
RTVSPost2010PropOp44
 70
     1
102
RTVSPost2010Prop45
280
     0
102
RTVSPost2010PropOp45
 70
     1
102
RTVSPost2010Prop46
 90
       50
102
RTVSPost2010PropOp46
 70
     1
102
RTVSPost2010Prop47
 90
       50
102
RTVSPost2010PropOp47
 70
     1
102
RTVSPost2010Prop48
 90
       50
102
RTVSPost2010PropOp48
 70
     1
102
RTVSPost2010Prop49
280
     0
102
RTVSPost2010PropOp49
 70
     1
102
RTVSPost2010Prop50
 90
       50
102
RTVSPost2010PropOp50
 70
     1
102
RTVSPost2010Prop51ColorIndex
 90
      256
102
RTVSPost2010Prop51ColorRGB
 90
-16777216
102
RTVSPost2010PropOp51
 70
     0
102
RTVSPost2010Prop52
140
1.0
102
RTVSPost2010PropOp52
 70
     0
102
RTVSPost2010Prop53
 90
        2
102
RTVSPost2010PropOp53
 70
     1
102
RTVSPost2010Prop54
  1
strokes_ogs.tif
102
RTVSPost2010PropOp54
 70
     1
102
RTVSPost2010Prop55
280
     0
102
RTVSPost2010PropOp55
 70
     1
102
RTVSPost2010Prop56
140
1.0
102
RTVSPost2010PropOp56
 70
     1
102
RTVSPost2010Prop57
140
1.0
102
RTVSPost2010PropOp57
 70
     1
  0
XRECORD
  5
360D
102
{ACAD_REACTORS
330
33B0
102
}
330
33B0
100
AcDbXrecord
280
     1
102
RTVSPropertyOp0
 70
     1
102
RTVSPropertyOp1
 70
     1
102
RTVSPropertyOp2
 70
     1
102
RTVSPropertyOp3
 70
     1
102
RTVSPropertyOp4
 70
     1
102
RTVSPropertyOp5
 70
     1
102
RTVSPropertyOp6
 70
     1
102
RTVSPropertyOp7
 70
     1
102
RTVSPropertyOp8
 70
     1
102
RTVSPropertyOp9
 70
     1
102
RTVSPropertyOp10
 70
     1
102
RTVSPropertyOp11
 70
     1
102
RTVSPropertyOp12
 70
     1
102
RTVSPropertyOp13
 70
     1
102
RTVSPropertyOp14
 70
     1
102
RTVSPropertyOp15
 70
     1
102
RTVSPropertyOp16
 70
     1
102
RTVSPropertyOp17
 70
     1
102
RTVSPropertyOp18
 70
     1
102
RTVSPropertyOp19
 70
     1
102
RTVSPropertyOp20
 70
     1
102
RTVSPropertyOp21
 70
     1
102
RTVSPropertyOp22
 70
     1
102
RTVSPropertyOp23
 70
     1
102
RTVSPropertyOp24
 70
     1
102
RTVSPropertyOp25
 70
     1
102
RTVSPropertyOp26
 70
     1
102
RTVSPropertyOp27
 70
     1
102
RTVSPropertyOp28
 70
     1
102
RTVSPropertyOp29
 70
     1
102
RTVSPropertyOp30
 70
     1
102
RTVSPropertyOp31
 70
     1
102
RTVSPropertyOp32
 70
     1
102
RTVSPropertyOp33
 70
     1
102
RTVSPropertyOp34
 70
     1
102
RTVSPropertyOp35
 70
     1
102
RTVSPropertyOp36
 70
     1
102
RTVSPropertyOp37
 70
     1
102
RTVSPropertyOp38
 70
     1
102
RTVSPropertyOp39
 70
     1
102
RTVSPropertyOp40
 70
     1
102
RTVSPropertyOp41
 70
     1
102
RTVSPropertyOp42
 70
     1
102
RTVSPropertyOp43
 70
     1
102
RTVSPropertyOp44
 70
     1
102
RTVSPropertyOp45
 70
     1
102
RTVSPropertyOp46
 70
     1
102
RTVSPropertyOp47
 70
     1
102
RTVSPropertyOp48
 70
     1
102
RTVSPropertyOp49
 70
     1
102
RTVSPropertyOp50
 70
     1
102
RTVSPropertyOp51
 70
     0
102
RTVSPropertyOp52
 70
     0
102
RTVSPropertyOp53
 70
     1
102
RTVSPropertyOp54
 70
     1
102
RTVSPropertyOp55
 70
     1
102
RTVSPropertyOp56
 70
     1
102
RTVSPropertyOp57
 70
     1
102
RTVSPost2010Prop28
280
     0
102
RTVSPost2010PropOp28
 70
     1
102
RTVSPost2010Prop29
280
     1
102
RTVSPost2010PropOp29
 70
     1
102
RTVSPost2010Prop30
280
     1
102
RTVSPost2010PropOp30
 70
     1
102
RTVSPost2010Prop31
280
     0
102
RTVSPost2010PropOp31
 70
     1
102
RTVSPost2010Prop32
280
     0
102
RTVSPost2010PropOp32
 70
     1
102
RTVSPost2010Prop33
280
     0
102
RTVSPost2010PropOp33
 70
     1
102
RTVSPost2010Prop34
280
     0
102
RTVSPost2010PropOp34
 70
     1
102
RTVSPost2010Prop35
280
     0
102
RTVSPost2010PropOp35
 70
     1
102
RTVSPost2010Prop36
280
     0
102
RTVSPost2010PropOp36
 70
     1
102
RTVSPost2010Prop37
 90
       50
102
RTVSPost2010PropOp37
 70
     1
102
RTVSPost2010Prop38
140
0.0
102
RTVSPost2010PropOp38
 70
     1
102
RTVSPost2010Prop39
140
1.0
102
RTVSPost2010PropOp39
 70
     1
102
RTVSPost2010Prop40
 90
        0
102
RTVSPost2010PropOp40
 70
     1
102
RTVSPost2010Prop41ColorIndex
 90
       18
102
RTVSPost2010Prop41ColorRGB
 90
        0
102
RTVSPost2010PropOp41
 70
     1
102
RTVSPost2010Prop42
 90
       50
102
RTVSPost2010PropOp42
 70
     1
102
RTVSPost2010Prop43
 90
        3
102
RTVSPost2010PropOp43
 70
     1
102
RTVSPost2010Prop44ColorIndex
 90
        5
102
RTVSPost2010Prop44ColorRGB
 90
      255
102
RTVSPost2010PropOp44
 70
     1
102
RTVSPost2010Prop45
280
     0
102
RTVSPost2010PropOp45
 70
     1
102
RTVSPost2010Prop46
 90
       50
102
RTVSPost2010PropOp46
 70
     1
102
RTVSPost2010Prop47
 90
       50
102
RTVSPost2010PropOp47
 70
     1
102
RTVSPost2010Prop48
 90
       50
102
RTVSPost2010PropOp48
 70
     1
102
RTVSPost2010Prop49
280
     0
102
RTVSPost2010PropOp49
 70
     1
102
RTVSPost2010Prop50
 90
       50
102
RTVSPost2010PropOp50
 70
     1
102
RTVSPost2010Prop51ColorIndex
 90
      256
102
RTVSPost2010Prop51ColorRGB
 90
-16777216
102
RTVSPost2010PropOp51
 70
     0
102
RTVSPost2010Prop52
140
1.0
102
RTVSPost2010PropOp52
 70
     0
102
RTVSPost2010Prop53
 90
        2
102
RTVSPost2010PropOp53
 70
     1
102
RTVSPost2010Prop54
  1
strokes_ogs.tif
102
RTVSPost2010PropOp54
 70
     1
102
RTVSPost2010Prop55
280
     0
102
RTVSPost2010PropOp55
 70
     1
102
RTVSPost2010Prop56
140
1.0
102
RTVSPost2010PropOp56
 70
     1
102
RTVSPost2010Prop57
140
1.0
102
RTVSPost2010PropOp57
 70
     1
  0
XRECORD
  5
360E
102
{ACAD_REACTORS
330
33B2
102
}
330
33B2
100
AcDbXrecord
280
     1
102
RTVSPropertyOp0
 70
     1
102
RTVSPropertyOp1
 70
     1
102
RTVSPropertyOp2
 70
     1
102
RTVSPropertyOp3
 70
     1
102
RTVSPropertyOp4
 70
     1
102
RTVSPropertyOp5
 70
     1
102
RTVSPropertyOp6
 70
     1
102
RTVSPropertyOp7
 70
     1
102
RTVSPropertyOp8
 70
     1
102
RTVSPropertyOp9
 70
     1
102
RTVSPropertyOp10
 70
     1
102
RTVSPropertyOp11
 70
     1
102
RTVSPropertyOp12
 70
     1
102
RTVSPropertyOp13
 70
     1
102
RTVSPropertyOp14
 70
     1
102
RTVSPropertyOp15
 70
     1
102
RTVSPropertyOp16
 70
     1
102
RTVSPropertyOp17
 70
     1
102
RTVSPropertyOp18
 70
     1
102
RTVSPropertyOp19
 70
     1
102
RTVSPropertyOp20
 70
     1
102
RTVSPropertyOp21
 70
     1
102
RTVSPropertyOp22
 70
     1
102
RTVSPropertyOp23
 70
     1
102
RTVSPropertyOp24
 70
     1
102
RTVSPropertyOp25
 70
     1
102
RTVSPropertyOp26
 70
     1
102
RTVSPropertyOp27
 70
     1
102
RTVSPropertyOp28
 70
     1
102
RTVSPropertyOp29
 70
     1
102
RTVSPropertyOp30
 70
     1
102
RTVSPropertyOp31
 70
     1
102
RTVSPropertyOp32
 70
     1
102
RTVSPropertyOp33
 70
     1
102
RTVSPropertyOp34
 70
     1
102
RTVSPropertyOp35
 70
     1
102
RTVSPropertyOp36
 70
     1
102
RTVSPropertyOp37
 70
     1
102
RTVSPropertyOp38
 70
     1
102
RTVSPropertyOp39
 70
     1
102
RTVSPropertyOp40
 70
     1
102
RTVSPropertyOp41
 70
     1
102
RTVSPropertyOp42
 70
     1
102
RTVSPropertyOp43
 70
     1
102
RTVSPropertyOp44
 70
     1
102
RTVSPropertyOp45
 70
     1
102
RTVSPropertyOp46
 70
     1
102
RTVSPropertyOp47
 70
     1
102
RTVSPropertyOp48
 70
     1
102
RTVSPropertyOp49
 70
     1
102
RTVSPropertyOp50
 70
     1
102
RTVSPropertyOp51
 70
     0
102
RTVSPropertyOp52
 70
     0
102
RTVSPropertyOp53
 70
     1
102
RTVSPropertyOp54
 70
     1
102
RTVSPropertyOp55
 70
     1
102
RTVSPropertyOp56
 70
     1
102
RTVSPropertyOp57
 70
     1
102
RTVSPost2010Prop28
280
     0
102
RTVSPost2010PropOp28
 70
     1
102
RTVSPost2010Prop29
280
     1
102
RTVSPost2010PropOp29
 70
     1
102
RTVSPost2010Prop30
280
     1
102
RTVSPost2010PropOp30
 70
     1
102
RTVSPost2010Prop31
280
     0
102
RTVSPost2010PropOp31
 70
     1
102
RTVSPost2010Prop32
280
     0
102
RTVSPost2010PropOp32
 70
     1
102
RTVSPost2010Prop33
280
     0
102
RTVSPost2010PropOp33
 70
     1
102
RTVSPost2010Prop34
280
     0
102
RTVSPost2010PropOp34
 70
     1
102
RTVSPost2010Prop35
280
     0
102
RTVSPost2010PropOp35
 70
     1
102
RTVSPost2010Prop36
280
     0
102
RTVSPost2010PropOp36
 70
     1
102
RTVSPost2010Prop37
 90
       50
102
RTVSPost2010PropOp37
 70
     1
102
RTVSPost2010Prop38
140
0.0
102
RTVSPost2010PropOp38
 70
     1
102
RTVSPost2010Prop39
140
1.0
102
RTVSPost2010PropOp39
 70
     1
102
RTVSPost2010Prop40
 90
        0
102
RTVSPost2010PropOp40
 70
     1
102
RTVSPost2010Prop41ColorIndex
 90
       18
102
RTVSPost2010Prop41ColorRGB
 90
        0
102
RTVSPost2010PropOp41
 70
     1
102
RTVSPost2010Prop42
 90
       50
102
RTVSPost2010PropOp42
 70
     1
102
RTVSPost2010Prop43
 90
        3
102
RTVSPost2010PropOp43
 70
     1
102
RTVSPost2010Prop44ColorIndex
 90
        5
102
RTVSPost2010Prop44ColorRGB
 90
      255
102
RTVSPost2010PropOp44
 70
     1
102
RTVSPost2010Prop45
280
     0
102
RTVSPost2010PropOp45
 70
     1
102
RTVSPost2010Prop46
 90
       50
102
RTVSPost2010PropOp46
 70
     1
102
RTVSPost2010Prop47
 90
       50
102
RTVSPost2010PropOp47
 70
     1
102
RTVSPost2010Prop48
 90
       50
102
RTVSPost2010PropOp48
 70
     1
102
RTVSPost2010Prop49
280
     0
102
RTVSPost2010PropOp49
 70
     1
102
RTVSPost2010Prop50
 90
       50
102
RTVSPost2010PropOp50
 70
     1
102
RTVSPost2010Prop51ColorIndex
 90
      256
102
RTVSPost2010Prop51ColorRGB
 90
-16777216
102
RTVSPost2010PropOp51
 70
     0
102
RTVSPost2010Prop52
140
1.0
102
RTVSPost2010PropOp52
 70
     0
102
RTVSPost2010Prop53
 90
        2
102
RTVSPost2010PropOp53
 70
     1
102
RTVSPost2010Prop54
  1
strokes_ogs.tif
102
RTVSPost2010PropOp54
 70
     1
102
RTVSPost2010Prop55
280
     0
102
RTVSPost2010PropOp55
 70
     1
102
RTVSPost2010Prop56
140
1.0
102
RTVSPost2010PropOp56
 70
     1
102
RTVSPost2010Prop57
140
1.0
102
RTVSPost2010PropOp57
 70
     1
  0
XRECORD
  5
360F
102
{ACAD_REACTORS
330
33B4
102
}
330
33B4
100
AcDbXrecord
280
     1
102
RTVSPropertyOp0
 70
     1
102
RTVSPropertyOp1
 70
     1
102
RTVSPropertyOp2
 70
     1
102
RTVSPropertyOp3
 70
     1
102
RTVSPropertyOp4
 70
     1
102
RTVSPropertyOp5
 70
     1
102
RTVSPropertyOp6
 70
     1
102
RTVSPropertyOp7
 70
     1
102
RTVSPropertyOp8
 70
     1
102
RTVSPropertyOp9
 70
     1
102
RTVSPropertyOp10
 70
     1
102
RTVSPropertyOp11
 70
     1
102
RTVSPropertyOp12
 70
     1
102
RTVSPropertyOp13
 70
     1
102
RTVSPropertyOp14
 70
     1
102
RTVSPropertyOp15
 70
     1
102
RTVSPropertyOp16
 70
     1
102
RTVSPropertyOp17
 70
     1
102
RTVSPropertyOp18
 70
     1
102
RTVSPropertyOp19
 70
     1
102
RTVSPropertyOp20
 70
     1
102
RTVSPropertyOp21
 70
     1
102
RTVSPropertyOp22
 70
     1
102
RTVSPropertyOp23
 70
     1
102
RTVSPropertyOp24
 70
     1
102
RTVSPropertyOp25
 70
     1
102
RTVSPropertyOp26
 70
     1
102
RTVSPropertyOp27
 70
     1
102
RTVSPropertyOp28
 70
     1
102
RTVSPropertyOp29
 70
     1
102
RTVSPropertyOp30
 70
     1
102
RTVSPropertyOp31
 70
     1
102
RTVSPropertyOp32
 70
     1
102
RTVSPropertyOp33
 70
     1
102
RTVSPropertyOp34
 70
     1
102
RTVSPropertyOp35
 70
     1
102
RTVSPropertyOp36
 70
     1
102
RTVSPropertyOp37
 70
     1
102
RTVSPropertyOp38
 70
     1
102
RTVSPropertyOp39
 70
     1
102
RTVSPropertyOp40
 70
     1
102
RTVSPropertyOp41
 70
     1
102
RTVSPropertyOp42
 70
     1
102
RTVSPropertyOp43
 70
     1
102
RTVSPropertyOp44
 70
     1
102
RTVSPropertyOp45
 70
     1
102
RTVSPropertyOp46
 70
     1
102
RTVSPropertyOp47
 70
     1
102
RTVSPropertyOp48
 70
     1
102
RTVSPropertyOp49
 70
     1
102
RTVSPropertyOp50
 70
     1
102
RTVSPropertyOp51
 70
     0
102
RTVSPropertyOp52
 70
     0
102
RTVSPropertyOp53
 70
     1
102
RTVSPropertyOp54
 70
     1
102
RTVSPropertyOp55
 70
     1
102
RTVSPropertyOp56
 70
     1
102
RTVSPropertyOp57
 70
     1
102
RTVSPost2010Prop28
280
     0
102
RTVSPost2010PropOp28
 70
     1
102
RTVSPost2010Prop29
280
     1
102
RTVSPost2010PropOp29
 70
     1
102
RTVSPost2010Prop30
280
     1
102
RTVSPost2010PropOp30
 70
     1
102
RTVSPost2010Prop31
280
     0
102
RTVSPost2010PropOp31
 70
     1
102
RTVSPost2010Prop32
280
     0
102
RTVSPost2010PropOp32
 70
     1
102
RTVSPost2010Prop33
280
     0
102
RTVSPost2010PropOp33
 70
     1
102
RTVSPost2010Prop34
280
     0
102
RTVSPost2010PropOp34
 70
     1
102
RTVSPost2010Prop35
280
     0
102
RTVSPost2010PropOp35
 70
     1
102
RTVSPost2010Prop36
280
     0
102
RTVSPost2010PropOp36
 70
     1
102
RTVSPost2010Prop37
 90
       50
102
RTVSPost2010PropOp37
 70
     1
102
RTVSPost2010Prop38
140
0.0
102
RTVSPost2010PropOp38
 70
     1
102
RTVSPost2010Prop39
140
1.0
102
RTVSPost2010PropOp39
 70
     1
102
RTVSPost2010Prop40
 90
        0
102
RTVSPost2010PropOp40
 70
     1
102
RTVSPost2010Prop41ColorIndex
 90
       18
102
RTVSPost2010Prop41ColorRGB
 90
        0
102
RTVSPost2010PropOp41
 70
     1
102
RTVSPost2010Prop42
 90
       50
102
RTVSPost2010PropOp42
 70
     1
102
RTVSPost2010Prop43
 90
        3
102
RTVSPost2010PropOp43
 70
     1
102
RTVSPost2010Prop44ColorIndex
 90
        5
102
RTVSPost2010Prop44ColorRGB
 90
      255
102
RTVSPost2010PropOp44
 70
     1
102
RTVSPost2010Prop45
280
     0
102
RTVSPost2010PropOp45
 70
     1
102
RTVSPost2010Prop46
 90
       50
102
RTVSPost2010PropOp46
 70
     1
102
RTVSPost2010Prop47
 90
       50
102
RTVSPost2010PropOp47
 70
     1
102
RTVSPost2010Prop48
 90
       50
102
RTVSPost2010PropOp48
 70
     1
102
RTVSPost2010Prop49
280
     0
102
RTVSPost2010PropOp49
 70
     1
102
RTVSPost2010Prop50
 90
       50
102
RTVSPost2010PropOp50
 70
     1
102
RTVSPost2010Prop51ColorIndex
 90
      256
102
RTVSPost2010Prop51ColorRGB
 90
-16777216
102
RTVSPost2010PropOp51
 70
     0
102
RTVSPost2010Prop52
140
1.0
102
RTVSPost2010PropOp52
 70
     0
102
RTVSPost2010Prop53
 90
        2
102
RTVSPost2010PropOp53
 70
     1
102
RTVSPost2010Prop54
  1
strokes_ogs.tif
102
RTVSPost2010PropOp54
 70
     1
102
RTVSPost2010Prop55
280
     0
102
RTVSPost2010PropOp55
 70
     1
102
RTVSPost2010Prop56
140
1.0
102
RTVSPost2010PropOp56
 70
     1
102
RTVSPost2010Prop57
140
1.0
102
RTVSPost2010PropOp57
 70
     1
  0
XRECORD
  5
3610
102
{ACAD_REACTORS
330
33B6
102
}
330
33B6
100
AcDbXrecord
280
     1
102
RTVSPropertyOp0
 70
     1
102
RTVSPropertyOp1
 70
     1
102
RTVSPropertyOp2
 70
     1
102
RTVSPropertyOp3
 70
     1
102
RTVSPropertyOp4
 70
     1
102
RTVSPropertyOp5
 70
     1
102
RTVSPropertyOp6
 70
     1
102
RTVSPropertyOp7
 70
     1
102
RTVSPropertyOp8
 70
     1
102
RTVSPropertyOp9
 70
     1
102
RTVSPropertyOp10
 70
     1
102
RTVSPropertyOp11
 70
     1
102
RTVSPropertyOp12
 70
     1
102
RTVSPropertyOp13
 70
     1
102
RTVSPropertyOp14
 70
     1
102
RTVSPropertyOp15
 70
     1
102
RTVSPropertyOp16
 70
     1
102
RTVSPropertyOp17
 70
     1
102
RTVSPropertyOp18
 70
     1
102
RTVSPropertyOp19
 70
     1
102
RTVSPropertyOp20
 70
     1
102
RTVSPropertyOp21
 70
     1
102
RTVSPropertyOp22
 70
     1
102
RTVSPropertyOp23
 70
     1
102
RTVSPropertyOp24
 70
     1
102
RTVSPropertyOp25
 70
     1
102
RTVSPropertyOp26
 70
     1
102
RTVSPropertyOp27
 70
     1
102
RTVSPropertyOp28
 70
     1
102
RTVSPropertyOp29
 70
     1
102
RTVSPropertyOp30
 70
     1
102
RTVSPropertyOp31
 70
     1
102
RTVSPropertyOp32
 70
     1
102
RTVSPropertyOp33
 70
     1
102
RTVSPropertyOp34
 70
     1
102
RTVSPropertyOp35
 70
     1
102
RTVSPropertyOp36
 70
     1
102
RTVSPropertyOp37
 70
     1
102
RTVSPropertyOp38
 70
     1
102
RTVSPropertyOp39
 70
     1
102
RTVSPropertyOp40
 70
     1
102
RTVSPropertyOp41
 70
     1
102
RTVSPropertyOp42
 70
     1
102
RTVSPropertyOp43
 70
     1
102
RTVSPropertyOp44
 70
     1
102
RTVSPropertyOp45
 70
     1
102
RTVSPropertyOp46
 70
     1
102
RTVSPropertyOp47
 70
     1
102
RTVSPropertyOp48
 70
     1
102
RTVSPropertyOp49
 70
     1
102
RTVSPropertyOp50
 70
     1
102
RTVSPropertyOp51
 70
     0
102
RTVSPropertyOp52
 70
     0
102
RTVSPropertyOp53
 70
     1
102
RTVSPropertyOp54
 70
     1
102
RTVSPropertyOp55
 70
     1
102
RTVSPropertyOp56
 70
     1
102
RTVSPropertyOp57
 70
     1
102
RTVSPost2010Prop28
280
     0
102
RTVSPost2010PropOp28
 70
     1
102
RTVSPost2010Prop29
280
     1
102
RTVSPost2010PropOp29
 70
     1
102
RTVSPost2010Prop30
280
     1
102
RTVSPost2010PropOp30
 70
     1
102
RTVSPost2010Prop31
280
     0
102
RTVSPost2010PropOp31
 70
     1
102
RTVSPost2010Prop32
280
     0
102
RTVSPost2010PropOp32
 70
     1
102
RTVSPost2010Prop33
280
     0
102
RTVSPost2010PropOp33
 70
     1
102
RTVSPost2010Prop34
280
     0
102
RTVSPost2010PropOp34
 70
     1
102
RTVSPost2010Prop35
280
     0
102
RTVSPost2010PropOp35
 70
     1
102
RTVSPost2010Prop36
280
     0
102
RTVSPost2010PropOp36
 70
     1
102
RTVSPost2010Prop37
 90
       50
102
RTVSPost2010PropOp37
 70
     1
102
RTVSPost2010Prop38
140
0.0
102
RTVSPost2010PropOp38
 70
     1
102
RTVSPost2010Prop39
140
1.0
102
RTVSPost2010PropOp39
 70
     1
102
RTVSPost2010Prop40
 90
        0
102
RTVSPost2010PropOp40
 70
     1
102
RTVSPost2010Prop41ColorIndex
 90
       18
102
RTVSPost2010Prop41ColorRGB
 90
        0
102
RTVSPost2010PropOp41
 70
     1
102
RTVSPost2010Prop42
 90
       50
102
RTVSPost2010PropOp42
 70
     1
102
RTVSPost2010Prop43
 90
        3
102
RTVSPost2010PropOp43
 70
     1
102
RTVSPost2010Prop44ColorIndex
 90
        5
102
RTVSPost2010Prop44ColorRGB
 90
      255
102
RTVSPost2010PropOp44
 70
     1
102
RTVSPost2010Prop45
280
     0
102
RTVSPost2010PropOp45
 70
     1
102
RTVSPost2010Prop46
 90
       50
102
RTVSPost2010PropOp46
 70
     1
102
RTVSPost2010Prop47
 90
       50
102
RTVSPost2010PropOp47
 70
     1
102
RTVSPost2010Prop48
 90
       50
102
RTVSPost2010PropOp48
 70
     1
102
RTVSPost2010Prop49
280
     0
102
RTVSPost2010PropOp49
 70
     1
102
RTVSPost2010Prop50
 90
       50
102
RTVSPost2010PropOp50
 70
     1
102
RTVSPost2010Prop51ColorIndex
 90
      256
102
RTVSPost2010Prop51ColorRGB
 90
-16777216
102
RTVSPost2010PropOp51
 70
     0
102
RTVSPost2010Prop52
140
1.0
102
RTVSPost2010PropOp52
 70
     0
102
RTVSPost2010Prop53
 90
        2
102
RTVSPost2010PropOp53
 70
     1
102
RTVSPost2010Prop54
  1
strokes_ogs.tif
102
RTVSPost2010PropOp54
 70
     1
102
RTVSPost2010Prop55
280
     0
102
RTVSPost2010PropOp55
 70
     1
102
RTVSPost2010Prop56
140
1.0
102
RTVSPost2010PropOp56
 70
     1
102
RTVSPost2010Prop57
140
1.0
102
RTVSPost2010PropOp57
 70
     1
  0
XRECORD
  5
3611
102
{ACAD_REACTORS
330
33B8
102
}
330
33B8
100
AcDbXrecord
280
     1
102
RTVSPropertyOp0
 70
     0
102
RTVSPropertyOp1
 70
     0
102
RTVSPropertyOp2
 70
     0
102
RTVSPropertyOp3
 70
     0
102
RTVSPropertyOp4
 70
     0
102
RTVSPropertyOp5
 70
     0
102
RTVSPropertyOp6
 70
     0
102
RTVSPropertyOp7
 70
     0
102
RTVSPropertyOp8
 70
     0
102
RTVSPropertyOp9
 70
     0
102
RTVSPropertyOp10
 70
     0
102
RTVSPropertyOp11
 70
     0
102
RTVSPropertyOp12
 70
     0
102
RTVSPropertyOp13
 70
     0
102
RTVSPropertyOp14
 70
     2
102
RTVSPropertyOp15
 70
     0
102
RTVSPropertyOp16
 70
     0
102
RTVSPropertyOp17
 70
     0
102
RTVSPropertyOp18
 70
     0
102
RTVSPropertyOp19
 70
     0
102
RTVSPropertyOp20
 70
     0
102
RTVSPropertyOp21
 70
     0
102
RTVSPropertyOp22
 70
     0
102
RTVSPropertyOp23
 70
     0
102
RTVSPropertyOp24
 70
     0
102
RTVSPropertyOp25
 70
     0
102
RTVSPropertyOp26
 70
     0
102
RTVSPropertyOp27
 70
     0
102
RTVSPropertyOp28
 70
     0
102
RTVSPropertyOp29
 70
     0
102
RTVSPropertyOp30
 70
     0
102
RTVSPropertyOp31
 70
     0
102
RTVSPropertyOp32
 70
     0
102
RTVSPropertyOp33
 70
     0
102
RTVSPropertyOp34
 70
     0
102
RTVSPropertyOp35
 70
     0
102
RTVSPropertyOp36
 70
     0
102
RTVSPropertyOp37
 70
     0
102
RTVSPropertyOp38
 70
     0
102
RTVSPropertyOp39
 70
     0
102
RTVSPropertyOp40
 70
     0
102
RTVSPropertyOp41
 70
     0
102
RTVSPropertyOp42
 70
     0
102
RTVSPropertyOp43
 70
     0
102
RTVSPropertyOp44
 70
     0
102
RTVSPropertyOp45
 70
     0
102
RTVSPropertyOp46
 70
     0
102
RTVSPropertyOp47
 70
     0
102
RTVSPropertyOp48
 70
     0
102
RTVSPropertyOp49
 70
     0
102
RTVSPropertyOp50
 70
     0
102
RTVSPropertyOp51
 70
     0
102
RTVSPropertyOp52
 70
     0
102
RTVSPropertyOp53
 70
     0
102
RTVSPropertyOp54
 70
     0
102
RTVSPropertyOp55
 70
     0
102
RTVSPropertyOp56
 70
     0
102
RTVSPropertyOp57
 70
     0
102
RTVSPost2010Prop28
280
     0
102
RTVSPost2010PropOp28
 70
     0
102
RTVSPost2010Prop29
280
     1
102
RTVSPost2010PropOp29
 70
     0
102
RTVSPost2010Prop30
280
     1
102
RTVSPost2010PropOp30
 70
     0
102
RTVSPost2010Prop31
280
     0
102
RTVSPost2010PropOp31
 70
     0
102
RTVSPost2010Prop32
280
     0
102
RTVSPost2010PropOp32
 70
     0
102
RTVSPost2010Prop33
280
     0
102
RTVSPost2010PropOp33
 70
     0
102
RTVSPost2010Prop34
280
     0
102
RTVSPost2010PropOp34
 70
     0
102
RTVSPost2010Prop35
280
     0
102
RTVSPost2010PropOp35
 70
     0
102
RTVSPost2010Prop36
280
     0
102
RTVSPost2010PropOp36
 70
     0
102
RTVSPost2010Prop37
 90
       50
102
RTVSPost2010PropOp37
 70
     0
102
RTVSPost2010Prop38
140
0.0
102
RTVSPost2010PropOp38
 70
     0
102
RTVSPost2010Prop39
140
1.0
102
RTVSPost2010PropOp39
 70
     0
102
RTVSPost2010Prop40
 90
        0
102
RTVSPost2010PropOp40
 70
     0
102
RTVSPost2010Prop41ColorIndex
 90
       18
102
RTVSPost2010Prop41ColorRGB
 90
        0
102
RTVSPost2010PropOp41
 70
     0
102
RTVSPost2010Prop42
 90
       50
102
RTVSPost2010PropOp42
 70
     0
102
RTVSPost2010Prop43
 90
        3
102
RTVSPost2010PropOp43
 70
     0
102
RTVSPost2010Prop44ColorIndex
 90
        5
102
RTVSPost2010Prop44ColorRGB
 90
      255
102
RTVSPost2010PropOp44
 70
     0
102
RTVSPost2010Prop45
280
     0
102
RTVSPost2010PropOp45
 70
     0
102
RTVSPost2010Prop46
 90
       50
102
RTVSPost2010PropOp46
 70
     0
102
RTVSPost2010Prop47
 90
       50
102
RTVSPost2010PropOp47
 70
     0
102
RTVSPost2010Prop48
 90
       50
102
RTVSPost2010PropOp48
 70
     0
102
RTVSPost2010Prop49
280
     0
102
RTVSPost2010PropOp49
 70
     0
102
RTVSPost2010Prop50
 90
       50
102
RTVSPost2010PropOp50
 70
     0
102
RTVSPost2010Prop51ColorIndex
 90
      256
102
RTVSPost2010Prop51ColorRGB
 90
-16777216
102
RTVSPost2010PropOp51
 70
     0
102
RTVSPost2010Prop52
140
1.0
102
RTVSPost2010PropOp52
 70
     0
102
RTVSPost2010Prop53
 90
        2
102
RTVSPost2010PropOp53
 70
     0
102
RTVSPost2010Prop54
  1
strokes_ogs.tif
102
RTVSPost2010PropOp54
 70
     0
102
RTVSPost2010Prop55
280
     0
102
RTVSPost2010PropOp55
 70
     0
102
RTVSPost2010Prop56
140
1.0
102
RTVSPost2010PropOp56
 70
     0
102
RTVSPost2010Prop57
140
1.0
102
RTVSPost2010PropOp57
 70
     0
  0
XRECORD
  5
3612
102
{ACAD_REACTORS
330
33BA
102
}
330
33BA
100
AcDbXrecord
280
     1
102
RTVSPropertyOp0
 70
     1
102
RTVSPropertyOp1
 70
     1
102
RTVSPropertyOp2
 70
     1
102
RTVSPropertyOp3
 70
     1
102
RTVSPropertyOp4
 70
     1
102
RTVSPropertyOp5
 70
     1
102
RTVSPropertyOp6
 70
     1
102
RTVSPropertyOp7
 70
     1
102
RTVSPropertyOp8
 70
     1
102
RTVSPropertyOp9
 70
     1
102
RTVSPropertyOp10
 70
     1
102
RTVSPropertyOp11
 70
     1
102
RTVSPropertyOp12
 70
     1
102
RTVSPropertyOp13
 70
     1
102
RTVSPropertyOp14
 70
     1
102
RTVSPropertyOp15
 70
     1
102
RTVSPropertyOp16
 70
     1
102
RTVSPropertyOp17
 70
     1
102
RTVSPropertyOp18
 70
     1
102
RTVSPropertyOp19
 70
     1
102
RTVSPropertyOp20
 70
     1
102
RTVSPropertyOp21
 70
     1
102
RTVSPropertyOp22
 70
     1
102
RTVSPropertyOp23
 70
     1
102
RTVSPropertyOp24
 70
     1
102
RTVSPropertyOp25
 70
     1
102
RTVSPropertyOp26
 70
     1
102
RTVSPropertyOp27
 70
     1
102
RTVSPropertyOp28
 70
     1
102
RTVSPropertyOp29
 70
     1
102
RTVSPropertyOp30
 70
     1
102
RTVSPropertyOp31
 70
     1
102
RTVSPropertyOp32
 70
     1
102
RTVSPropertyOp33
 70
     1
102
RTVSPropertyOp34
 70
     1
102
RTVSPropertyOp35
 70
     1
102
RTVSPropertyOp36
 70
     1
102
RTVSPropertyOp37
 70
     1
102
RTVSPropertyOp38
 70
     1
102
RTVSPropertyOp39
 70
     1
102
RTVSPropertyOp40
 70
     1
102
RTVSPropertyOp41
 70
     1
102
RTVSPropertyOp42
 70
     1
102
RTVSPropertyOp43
 70
     1
102
RTVSPropertyOp44
 70
     1
102
RTVSPropertyOp45
 70
     1
102
RTVSPropertyOp46
 70
     1
102
RTVSPropertyOp47
 70
     1
102
RTVSPropertyOp48
 70
     1
102
RTVSPropertyOp49
 70
     1
102
RTVSPropertyOp50
 70
     1
102
RTVSPropertyOp51
 70
     0
102
RTVSPropertyOp52
 70
     0
102
RTVSPropertyOp53
 70
     1
102
RTVSPropertyOp54
 70
     1
102
RTVSPropertyOp55
 70
     1
102
RTVSPropertyOp56
 70
     1
102
RTVSPropertyOp57
 70
     1
102
RTVSPost2010Prop28
280
     0
102
RTVSPost2010PropOp28
 70
     1
102
RTVSPost2010Prop29
280
     1
102
RTVSPost2010PropOp29
 70
     1
102
RTVSPost2010Prop30
280
     1
102
RTVSPost2010PropOp30
 70
     1
102
RTVSPost2010Prop31
280
     0
102
RTVSPost2010PropOp31
 70
     1
102
RTVSPost2010Prop32
280
     0
102
RTVSPost2010PropOp32
 70
     1
102
RTVSPost2010Prop33
280
     0
102
RTVSPost2010PropOp33
 70
     1
102
RTVSPost2010Prop34
280
     0
102
RTVSPost2010PropOp34
 70
     1
102
RTVSPost2010Prop35
280
     0
102
RTVSPost2010PropOp35
 70
     1
102
RTVSPost2010Prop36
280
     0
102
RTVSPost2010PropOp36
 70
     1
102
RTVSPost2010Prop37
 90
       50
102
RTVSPost2010PropOp37
 70
     1
102
RTVSPost2010Prop38
140
0.0
102
RTVSPost2010PropOp38
 70
     1
102
RTVSPost2010Prop39
140
1.0
102
RTVSPost2010PropOp39
 70
     1
102
RTVSPost2010Prop40
 90
        0
102
RTVSPost2010PropOp40
 70
     1
102
RTVSPost2010Prop41ColorIndex
 90
       18
102
RTVSPost2010Prop41ColorRGB
 90
        0
102
RTVSPost2010PropOp41
 70
     1
102
RTVSPost2010Prop42
 90
       50
102
RTVSPost2010PropOp42
 70
     1
102
RTVSPost2010Prop43
 90
        3
102
RTVSPost2010PropOp43
 70
     1
102
RTVSPost2010Prop44ColorIndex
 90
        5
102
RTVSPost2010Prop44ColorRGB
 90
      255
102
RTVSPost2010PropOp44
 70
     1
102
RTVSPost2010Prop45
280
     0
102
RTVSPost2010PropOp45
 70
     1
102
RTVSPost2010Prop46
 90
       50
102
RTVSPost2010PropOp46
 70
     1
102
RTVSPost2010Prop47
 90
       50
102
RTVSPost2010PropOp47
 70
     1
102
RTVSPost2010Prop48
 90
       50
102
RTVSPost2010PropOp48
 70
     1
102
RTVSPost2010Prop49
280
     0
102
RTVSPost2010PropOp49
 70
     1
102
RTVSPost2010Prop50
 90
       50
102
RTVSPost2010PropOp50
 70
     1
102
RTVSPost2010Prop51ColorIndex
 90
      256
102
RTVSPost2010Prop51ColorRGB
 90
-16777216
102
RTVSPost2010PropOp51
 70
     0
102
RTVSPost2010Prop52
140
1.0
102
RTVSPost2010PropOp52
 70
     0
102
RTVSPost2010Prop53
 90
        2
102
RTVSPost2010PropOp53
 70
     1
102
RTVSPost2010Prop54
  1
strokes_ogs.tif
102
RTVSPost2010PropOp54
 70
     1
102
RTVSPost2010Prop55
280
     0
102
RTVSPost2010PropOp55
 70
     1
102
RTVSPost2010Prop56
140
1.0
102
RTVSPost2010PropOp56
 70
     1
102
RTVSPost2010Prop57
140
1.0
102
RTVSPost2010PropOp57
 70
     1
  0
XRECORD
  5
3613
102
{ACAD_REACTORS
330
33BC
102
}
330
33BC
100
AcDbXrecord
280
     1
102
RTVSPropertyOp0
 70
     1
102
RTVSPropertyOp1
 70
     1
102
RTVSPropertyOp2
 70
     1
102
RTVSPropertyOp3
 70
     1
102
RTVSPropertyOp4
 70
     1
102
RTVSPropertyOp5
 70
     1
102
RTVSPropertyOp6
 70
     1
102
RTVSPropertyOp7
 70
     1
102
RTVSPropertyOp8
 70
     1
102
RTVSPropertyOp9
 70
     1
102
RTVSPropertyOp10
 70
     1
102
RTVSPropertyOp11
 70
     1
102
RTVSPropertyOp12
 70
     1
102
RTVSPropertyOp13
 70
     1
102
RTVSPropertyOp14
 70
     1
102
RTVSPropertyOp15
 70
     1
102
RTVSPropertyOp16
 70
     1
102
RTVSPropertyOp17
 70
     1
102
RTVSPropertyOp18
 70
     1
102
RTVSPropertyOp19
 70
     1
102
RTVSPropertyOp20
 70
     1
102
RTVSPropertyOp21
 70
     1
102
RTVSPropertyOp22
 70
     1
102
RTVSPropertyOp23
 70
     1
102
RTVSPropertyOp24
 70
     1
102
RTVSPropertyOp25
 70
     1
102
RTVSPropertyOp26
 70
     1
102
RTVSPropertyOp27
 70
     1
102
RTVSPropertyOp28
 70
     1
102
RTVSPropertyOp29
 70
     1
102
RTVSPropertyOp30
 70
     1
102
RTVSPropertyOp31
 70
     1
102
RTVSPropertyOp32
 70
     1
102
RTVSPropertyOp33
 70
     1
102
RTVSPropertyOp34
 70
     1
102
RTVSPropertyOp35
 70
     1
102
RTVSPropertyOp36
 70
     1
102
RTVSPropertyOp37
 70
     1
102
RTVSPropertyOp38
 70
     1
102
RTVSPropertyOp39
 70
     1
102
RTVSPropertyOp40
 70
     1
102
RTVSPropertyOp41
 70
     1
102
RTVSPropertyOp42
 70
     1
102
RTVSPropertyOp43
 70
     1
102
RTVSPropertyOp44
 70
     1
102
RTVSPropertyOp45
 70
     1
102
RTVSPropertyOp46
 70
     1
102
RTVSPropertyOp47
 70
     1
102
RTVSPropertyOp48
 70
     1
102
RTVSPropertyOp49
 70
     1
102
RTVSPropertyOp50
 70
     1
102
RTVSPropertyOp51
 70
     0
102
RTVSPropertyOp52
 70
     0
102
RTVSPropertyOp53
 70
     1
102
RTVSPropertyOp54
 70
     1
102
RTVSPropertyOp55
 70
     1
102
RTVSPropertyOp56
 70
     1
102
RTVSPropertyOp57
 70
     1
102
RTVSPost2010Prop28
280
     0
102
RTVSPost2010PropOp28
 70
     1
102
RTVSPost2010Prop29
280
     1
102
RTVSPost2010PropOp29
 70
     1
102
RTVSPost2010Prop30
280
     1
102
RTVSPost2010PropOp30
 70
     1
102
RTVSPost2010Prop31
280
     0
102
RTVSPost2010PropOp31
 70
     1
102
RTVSPost2010Prop32
280
     0
102
RTVSPost2010PropOp32
 70
     1
102
RTVSPost2010Prop33
280
     0
102
RTVSPost2010PropOp33
 70
     1
102
RTVSPost2010Prop34
280
     0
102
RTVSPost2010PropOp34
 70
     1
102
RTVSPost2010Prop35
280
     0
102
RTVSPost2010PropOp35
 70
     1
102
RTVSPost2010Prop36
280
     0
102
RTVSPost2010PropOp36
 70
     1
102
RTVSPost2010Prop37
 90
       50
102
RTVSPost2010PropOp37
 70
     1
102
RTVSPost2010Prop38
140
0.0
102
RTVSPost2010PropOp38
 70
     1
102
RTVSPost2010Prop39
140
1.0
102
RTVSPost2010PropOp39
 70
     1
102
RTVSPost2010Prop40
 90
        0
102
RTVSPost2010PropOp40
 70
     1
102
RTVSPost2010Prop41ColorIndex
 90
       18
102
RTVSPost2010Prop41ColorRGB
 90
        0
102
RTVSPost2010PropOp41
 70
     1
102
RTVSPost2010Prop42
 90
       50
102
RTVSPost2010PropOp42
 70
     1
102
RTVSPost2010Prop43
 90
        3
102
RTVSPost2010PropOp43
 70
     1
102
RTVSPost2010Prop44ColorIndex
 90
        5
102
RTVSPost2010Prop44ColorRGB
 90
      255
102
RTVSPost2010PropOp44
 70
     1
102
RTVSPost2010Prop45
280
     0
102
RTVSPost2010PropOp45
 70
     1
102
RTVSPost2010Prop46
 90
       50
102
RTVSPost2010PropOp46
 70
     1
102
RTVSPost2010Prop47
 90
       50
102
RTVSPost2010PropOp47
 70
     1
102
RTVSPost2010Prop48
 90
       50
102
RTVSPost2010PropOp48
 70
     1
102
RTVSPost2010Prop49
280
     0
102
RTVSPost2010PropOp49
 70
     1
102
RTVSPost2010Prop50
 90
       50
102
RTVSPost2010PropOp50
 70
     1
102
RTVSPost2010Prop51ColorIndex
 90
      256
102
RTVSPost2010Prop51ColorRGB
 90
-16777216
102
RTVSPost2010PropOp51
 70
     0
102
RTVSPost2010Prop52
140
1.0
102
RTVSPost2010PropOp52
 70
     0
102
RTVSPost2010Prop53
 90
        2
102
RTVSPost2010PropOp53
 70
     1
102
RTVSPost2010Prop54
  1
strokes_ogs.tif
102
RTVSPost2010PropOp54
 70
     1
102
RTVSPost2010Prop55
280
     0
102
RTVSPost2010PropOp55
 70
     1
102
RTVSPost2010Prop56
140
1.0
102
RTVSPost2010PropOp56
 70
     1
102
RTVSPost2010Prop57
140
1.0
102
RTVSPost2010PropOp57
 70
     1
  0
XRECORD
  5
3614
102
{ACAD_REACTORS
330
33BE
102
}
330
33BE
100
AcDbXrecord
280
     1
102
RTVSPropertyOp0
 70
     1
102
RTVSPropertyOp1
 70
     1
102
RTVSPropertyOp2
 70
     1
102
RTVSPropertyOp3
 70
     1
102
RTVSPropertyOp4
 70
     1
102
RTVSPropertyOp5
 70
     1
102
RTVSPropertyOp6
 70
     1
102
RTVSPropertyOp7
 70
     1
102
RTVSPropertyOp8
 70
     1
102
RTVSPropertyOp9
 70
     1
102
RTVSPropertyOp10
 70
     1
102
RTVSPropertyOp11
 70
     1
102
RTVSPropertyOp12
 70
     1
102
RTVSPropertyOp13
 70
     1
102
RTVSPropertyOp14
 70
     1
102
RTVSPropertyOp15
 70
     1
102
RTVSPropertyOp16
 70
     1
102
RTVSPropertyOp17
 70
     1
102
RTVSPropertyOp18
 70
     1
102
RTVSPropertyOp19
 70
     1
102
RTVSPropertyOp20
 70
     1
102
RTVSPropertyOp21
 70
     1
102
RTVSPropertyOp22
 70
     1
102
RTVSPropertyOp23
 70
     1
102
RTVSPropertyOp24
 70
     1
102
RTVSPropertyOp25
 70
     1
102
RTVSPropertyOp26
 70
     1
102
RTVSPropertyOp27
 70
     1
102
RTVSPropertyOp28
 70
     1
102
RTVSPropertyOp29
 70
     1
102
RTVSPropertyOp30
 70
     1
102
RTVSPropertyOp31
 70
     1
102
RTVSPropertyOp32
 70
     1
102
RTVSPropertyOp33
 70
     1
102
RTVSPropertyOp34
 70
     1
102
RTVSPropertyOp35
 70
     1
102
RTVSPropertyOp36
 70
     1
102
RTVSPropertyOp37
 70
     1
102
RTVSPropertyOp38
 70
     1
102
RTVSPropertyOp39
 70
     1
102
RTVSPropertyOp40
 70
     1
102
RTVSPropertyOp41
 70
     1
102
RTVSPropertyOp42
 70
     1
102
RTVSPropertyOp43
 70
     1
102
RTVSPropertyOp44
 70
     1
102
RTVSPropertyOp45
 70
     1
102
RTVSPropertyOp46
 70
     1
102
RTVSPropertyOp47
 70
     1
102
RTVSPropertyOp48
 70
     1
102
RTVSPropertyOp49
 70
     1
102
RTVSPropertyOp50
 70
     1
102
RTVSPropertyOp51
 70
     0
102
RTVSPropertyOp52
 70
     0
102
RTVSPropertyOp53
 70
     1
102
RTVSPropertyOp54
 70
     1
102
RTVSPropertyOp55
 70
     1
102
RTVSPropertyOp56
 70
     1
102
RTVSPropertyOp57
 70
     1
102
RTVSPost2010Prop28
280
     0
102
RTVSPost2010PropOp28
 70
     1
102
RTVSPost2010Prop29
280
     1
102
RTVSPost2010PropOp29
 70
     1
102
RTVSPost2010Prop30
280
     1
102
RTVSPost2010PropOp30
 70
     1
102
RTVSPost2010Prop31
280
     0
102
RTVSPost2010PropOp31
 70
     1
102
RTVSPost2010Prop32
280
     0
102
RTVSPost2010PropOp32
 70
     1
102
RTVSPost2010Prop33
280
     0
102
RTVSPost2010PropOp33
 70
     1
102
RTVSPost2010Prop34
280
     0
102
RTVSPost2010PropOp34
 70
     1
102
RTVSPost2010Prop35
280
     0
102
RTVSPost2010PropOp35
 70
     1
102
RTVSPost2010Prop36
280
     0
102
RTVSPost2010PropOp36
 70
     1
102
RTVSPost2010Prop37
 90
       50
102
RTVSPost2010PropOp37
 70
     1
102
RTVSPost2010Prop38
140
0.0
102
RTVSPost2010PropOp38
 70
     1
102
RTVSPost2010Prop39
140
1.0
102
RTVSPost2010PropOp39
 70
     1
102
RTVSPost2010Prop40
 90
        0
102
RTVSPost2010PropOp40
 70
     1
102
RTVSPost2010Prop41ColorIndex
 90
       18
102
RTVSPost2010Prop41ColorRGB
 90
        0
102
RTVSPost2010PropOp41
 70
     1
102
RTVSPost2010Prop42
 90
       50
102
RTVSPost2010PropOp42
 70
     1
102
RTVSPost2010Prop43
 90
        3
102
RTVSPost2010PropOp43
 70
     1
102
RTVSPost2010Prop44ColorIndex
 90
        5
102
RTVSPost2010Prop44ColorRGB
 90
      255
102
RTVSPost2010PropOp44
 70
     1
102
RTVSPost2010Prop45
280
     0
102
RTVSPost2010PropOp45
 70
     1
102
RTVSPost2010Prop46
 90
       50
102
RTVSPost2010PropOp46
 70
     1
102
RTVSPost2010Prop47
 90
       50
102
RTVSPost2010PropOp47
 70
     1
102
RTVSPost2010Prop48
 90
       50
102
RTVSPost2010PropOp48
 70
     1
102
RTVSPost2010Prop49
280
     0
102
RTVSPost2010PropOp49
 70
     1
102
RTVSPost2010Prop50
 90
       50
102
RTVSPost2010PropOp50
 70
     1
102
RTVSPost2010Prop51ColorIndex
 90
      256
102
RTVSPost2010Prop51ColorRGB
 90
-16777216
102
RTVSPost2010PropOp51
 70
     0
102
RTVSPost2010Prop52
140
1.0
102
RTVSPost2010PropOp52
 70
     0
102
RTVSPost2010Prop53
 90
        2
102
RTVSPost2010PropOp53
 70
     1
102
RTVSPost2010Prop54
  1
strokes_ogs.tif
102
RTVSPost2010PropOp54
 70
     1
102
RTVSPost2010Prop55
280
     0
102
RTVSPost2010PropOp55
 70
     1
102
RTVSPost2010Prop56
140
1.0
102
RTVSPost2010PropOp56
 70
     1
102
RTVSPost2010Prop57
140
1.0
102
RTVSPost2010PropOp57
 70
     1
  0
XRECORD
  5
3615
102
{ACAD_REACTORS
330
33C0
102
}
330
33C0
100
AcDbXrecord
280
     1
102
RTVSPropertyOp0
 70
     1
102
RTVSPropertyOp1
 70
     1
102
RTVSPropertyOp2
 70
     1
102
RTVSPropertyOp3
 70
     1
102
RTVSPropertyOp4
 70
     1
102
RTVSPropertyOp5
 70
     1
102
RTVSPropertyOp6
 70
     1
102
RTVSPropertyOp7
 70
     1
102
RTVSPropertyOp8
 70
     1
102
RTVSPropertyOp9
 70
     1
102
RTVSPropertyOp10
 70
     1
102
RTVSPropertyOp11
 70
     1
102
RTVSPropertyOp12
 70
     1
102
RTVSPropertyOp13
 70
     1
102
RTVSPropertyOp14
 70
     1
102
RTVSPropertyOp15
 70
     1
102
RTVSPropertyOp16
 70
     1
102
RTVSPropertyOp17
 70
     1
102
RTVSPropertyOp18
 70
     1
102
RTVSPropertyOp19
 70
     1
102
RTVSPropertyOp20
 70
     1
102
RTVSPropertyOp21
 70
     1
102
RTVSPropertyOp22
 70
     1
102
RTVSPropertyOp23
 70
     1
102
RTVSPropertyOp24
 70
     1
102
RTVSPropertyOp25
 70
     1
102
RTVSPropertyOp26
 70
     1
102
RTVSPropertyOp27
 70
     1
102
RTVSPropertyOp28
 70
     1
102
RTVSPropertyOp29
 70
     1
102
RTVSPropertyOp30
 70
     1
102
RTVSPropertyOp31
 70
     1
102
RTVSPropertyOp32
 70
     1
102
RTVSPropertyOp33
 70
     1
102
RTVSPropertyOp34
 70
     1
102
RTVSPropertyOp35
 70
     1
102
RTVSPropertyOp36
 70
     1
102
RTVSPropertyOp37
 70
     1
102
RTVSPropertyOp38
 70
     1
102
RTVSPropertyOp39
 70
     1
102
RTVSPropertyOp40
 70
     1
102
RTVSPropertyOp41
 70
     1
102
RTVSPropertyOp42
 70
     1
102
RTVSPropertyOp43
 70
     1
102
RTVSPropertyOp44
 70
     1
102
RTVSPropertyOp45
 70
     1
102
RTVSPropertyOp46
 70
     1
102
RTVSPropertyOp47
 70
     1
102
RTVSPropertyOp48
 70
     1
102
RTVSPropertyOp49
 70
     1
102
RTVSPropertyOp50
 70
     1
102
RTVSPropertyOp51
 70
     0
102
RTVSPropertyOp52
 70
     0
102
RTVSPropertyOp53
 70
     1
102
RTVSPropertyOp54
 70
     1
102
RTVSPropertyOp55
 70
     1
102
RTVSPropertyOp56
 70
     1
102
RTVSPropertyOp57
 70
     1
102
RTVSPost2010Prop28
280
     0
102
RTVSPost2010PropOp28
 70
     1
102
RTVSPost2010Prop29
280
     1
102
RTVSPost2010PropOp29
 70
     1
102
RTVSPost2010Prop30
280
     1
102
RTVSPost2010PropOp30
 70
     1
102
RTVSPost2010Prop31
280
     0
102
RTVSPost2010PropOp31
 70
     1
102
RTVSPost2010Prop32
280
     0
102
RTVSPost2010PropOp32
 70
     1
102
RTVSPost2010Prop33
280
     0
102
RTVSPost2010PropOp33
 70
     1
102
RTVSPost2010Prop34
280
     0
102
RTVSPost2010PropOp34
 70
     1
102
RTVSPost2010Prop35
280
     0
102
RTVSPost2010PropOp35
 70
     1
102
RTVSPost2010Prop36
280
     0
102
RTVSPost2010PropOp36
 70
     1
102
RTVSPost2010Prop37
 90
       50
102
RTVSPost2010PropOp37
 70
     1
102
RTVSPost2010Prop38
140
0.0
102
RTVSPost2010PropOp38
 70
     1
102
RTVSPost2010Prop39
140
1.0
102
RTVSPost2010PropOp39
 70
     1
102
RTVSPost2010Prop40
 90
        0
102
RTVSPost2010PropOp40
 70
     1
102
RTVSPost2010Prop41ColorIndex
 90
       18
102
RTVSPost2010Prop41ColorRGB
 90
        0
102
RTVSPost2010PropOp41
 70
     1
102
RTVSPost2010Prop42
 90
       50
102
RTVSPost2010PropOp42
 70
     1
102
RTVSPost2010Prop43
 90
        3
102
RTVSPost2010PropOp43
 70
     1
102
RTVSPost2010Prop44ColorIndex
 90
        5
102
RTVSPost2010Prop44ColorRGB
 90
      255
102
RTVSPost2010PropOp44
 70
     1
102
RTVSPost2010Prop45
280
     0
102
RTVSPost2010PropOp45
 70
     1
102
RTVSPost2010Prop46
 90
       50
102
RTVSPost2010PropOp46
 70
     1
102
RTVSPost2010Prop47
 90
       50
102
RTVSPost2010PropOp47
 70
     1
102
RTVSPost2010Prop48
 90
       50
102
RTVSPost2010PropOp48
 70
     1
102
RTVSPost2010Prop49
280
     0
102
RTVSPost2010PropOp49
 70
     1
102
RTVSPost2010Prop50
 90
       50
102
RTVSPost2010PropOp50
 70
     1
102
RTVSPost2010Prop51ColorIndex
 90
      256
102
RTVSPost2010Prop51ColorRGB
 90
-16777216
102
RTVSPost2010PropOp51
 70
     0
102
RTVSPost2010Prop52
140
1.0
102
RTVSPost2010PropOp52
 70
     0
102
RTVSPost2010Prop53
 90
        2
102
RTVSPost2010PropOp53
 70
     1
102
RTVSPost2010Prop54
  1
strokes_ogs.tif
102
RTVSPost2010PropOp54
 70
     1
102
RTVSPost2010Prop55
280
     0
102
RTVSPost2010PropOp55
 70
     1
102
RTVSPost2010Prop56
140
1.0
102
RTVSPost2010PropOp56
 70
     1
102
RTVSPost2010Prop57
140
1.0
102
RTVSPost2010PropOp57
 70
     1
  0
XRECORD
  5
3616
102
{ACAD_REACTORS
330
33C2
102
}
330
33C2
100
AcDbXrecord
280
     1
102
RTVSPropertyOp0
 70
     1
102
RTVSPropertyOp1
 70
     1
102
RTVSPropertyOp2
 70
     1
102
RTVSPropertyOp3
 70
     1
102
RTVSPropertyOp4
 70
     1
102
RTVSPropertyOp5
 70
     1
102
RTVSPropertyOp6
 70
     1
102
RTVSPropertyOp7
 70
     1
102
RTVSPropertyOp8
 70
     1
102
RTVSPropertyOp9
 70
     1
102
RTVSPropertyOp10
 70
     1
102
RTVSPropertyOp11
 70
     1
102
RTVSPropertyOp12
 70
     1
102
RTVSPropertyOp13
 70
     1
102
RTVSPropertyOp14
 70
     1
102
RTVSPropertyOp15
 70
     1
102
RTVSPropertyOp16
 70
     1
102
RTVSPropertyOp17
 70
     1
102
RTVSPropertyOp18
 70
     1
102
RTVSPropertyOp19
 70
     1
102
RTVSPropertyOp20
 70
     1
102
RTVSPropertyOp21
 70
     1
102
RTVSPropertyOp22
 70
     1
102
RTVSPropertyOp23
 70
     1
102
RTVSPropertyOp24
 70
     1
102
RTVSPropertyOp25
 70
     1
102
RTVSPropertyOp26
 70
     1
102
RTVSPropertyOp27
 70
     1
102
RTVSPropertyOp28
 70
     1
102
RTVSPropertyOp29
 70
     1
102
RTVSPropertyOp30
 70
     1
102
RTVSPropertyOp31
 70
     1
102
RTVSPropertyOp32
 70
     1
102
RTVSPropertyOp33
 70
     1
102
RTVSPropertyOp34
 70
     1
102
RTVSPropertyOp35
 70
     1
102
RTVSPropertyOp36
 70
     1
102
RTVSPropertyOp37
 70
     1
102
RTVSPropertyOp38
 70
     1
102
RTVSPropertyOp39
 70
     1
102
RTVSPropertyOp40
 70
     1
102
RTVSPropertyOp41
 70
     1
102
RTVSPropertyOp42
 70
     1
102
RTVSPropertyOp43
 70
     1
102
RTVSPropertyOp44
 70
     1
102
RTVSPropertyOp45
 70
     1
102
RTVSPropertyOp46
 70
     1
102
RTVSPropertyOp47
 70
     1
102
RTVSPropertyOp48
 70
     1
102
RTVSPropertyOp49
 70
     1
102
RTVSPropertyOp50
 70
     1
102
RTVSPropertyOp51
 70
     0
102
RTVSPropertyOp52
 70
     0
102
RTVSPropertyOp53
 70
     1
102
RTVSPropertyOp54
 70
     1
102
RTVSPropertyOp55
 70
     1
102
RTVSPropertyOp56
 70
     1
102
RTVSPropertyOp57
 70
     1
102
RTVSPost2010Prop28
280
     0
102
RTVSPost2010PropOp28
 70
     1
102
RTVSPost2010Prop29
280
     1
102
RTVSPost2010PropOp29
 70
     1
102
RTVSPost2010Prop30
280
     1
102
RTVSPost2010PropOp30
 70
     1
102
RTVSPost2010Prop31
280
     0
102
RTVSPost2010PropOp31
 70
     1
102
RTVSPost2010Prop32
280
     0
102
RTVSPost2010PropOp32
 70
     1
102
RTVSPost2010Prop33
280
     0
102
RTVSPost2010PropOp33
 70
     1
102
RTVSPost2010Prop34
280
     0
102
RTVSPost2010PropOp34
 70
     1
102
RTVSPost2010Prop35
280
     0
102
RTVSPost2010PropOp35
 70
     1
102
RTVSPost2010Prop36
280
     0
102
RTVSPost2010PropOp36
 70
     1
102
RTVSPost2010Prop37
 90
       50
102
RTVSPost2010PropOp37
 70
     1
102
RTVSPost2010Prop38
140
0.0
102
RTVSPost2010PropOp38
 70
     1
102
RTVSPost2010Prop39
140
1.0
102
RTVSPost2010PropOp39
 70
     1
102
RTVSPost2010Prop40
 90
        0
102
RTVSPost2010PropOp40
 70
     1
102
RTVSPost2010Prop41ColorIndex
 90
       18
102
RTVSPost2010Prop41ColorRGB
 90
        0
102
RTVSPost2010PropOp41
 70
     1
102
RTVSPost2010Prop42
 90
       50
102
RTVSPost2010PropOp42
 70
     1
102
RTVSPost2010Prop43
 90
        3
102
RTVSPost2010PropOp43
 70
     1
102
RTVSPost2010Prop44ColorIndex
 90
        5
102
RTVSPost2010Prop44ColorRGB
 90
      255
102
RTVSPost2010PropOp44
 70
     1
102
RTVSPost2010Prop45
280
     0
102
RTVSPost2010PropOp45
 70
     1
102
RTVSPost2010Prop46
 90
       50
102
RTVSPost2010PropOp46
 70
     1
102
RTVSPost2010Prop47
 90
       50
102
RTVSPost2010PropOp47
 70
     1
102
RTVSPost2010Prop48
 90
       50
102
RTVSPost2010PropOp48
 70
     1
102
RTVSPost2010Prop49
280
     0
102
RTVSPost2010PropOp49
 70
     1
102
RTVSPost2010Prop50
 90
       50
102
RTVSPost2010PropOp50
 70
     1
102
RTVSPost2010Prop51ColorIndex
 90
      256
102
RTVSPost2010Prop51ColorRGB
 90
-16777216
102
RTVSPost2010PropOp51
 70
     0
102
RTVSPost2010Prop52
140
1.0
102
RTVSPost2010PropOp52
 70
     0
102
RTVSPost2010Prop53
 90
        2
102
RTVSPost2010PropOp53
 70
     1
102
RTVSPost2010Prop54
  1
strokes_ogs.tif
102
RTVSPost2010PropOp54
 70
     1
102
RTVSPost2010Prop55
280
     0
102
RTVSPost2010PropOp55
 70
     1
102
RTVSPost2010Prop56
140
1.0
102
RTVSPost2010PropOp56
 70
     1
102
RTVSPost2010Prop57
140
1.0
102
RTVSPost2010PropOp57
 70
     1
  0
XRECORD
  5
3617
102
{ACAD_REACTORS
330
33C4
102
}
330
33C4
100
AcDbXrecord
280
     1
102
RTVSPropertyOp0
 70
     1
102
RTVSPropertyOp1
 70
     1
102
RTVSPropertyOp2
 70
     1
102
RTVSPropertyOp3
 70
     1
102
RTVSPropertyOp4
 70
     1
102
RTVSPropertyOp5
 70
     1
102
RTVSPropertyOp6
 70
     1
102
RTVSPropertyOp7
 70
     1
102
RTVSPropertyOp8
 70
     1
102
RTVSPropertyOp9
 70
     1
102
RTVSPropertyOp10
 70
     1
102
RTVSPropertyOp11
 70
     1
102
RTVSPropertyOp12
 70
     1
102
RTVSPropertyOp13
 70
     1
102
RTVSPropertyOp14
 70
     1
102
RTVSPropertyOp15
 70
     1
102
RTVSPropertyOp16
 70
     1
102
RTVSPropertyOp17
 70
     1
102
RTVSPropertyOp18
 70
     1
102
RTVSPropertyOp19
 70
     1
102
RTVSPropertyOp20
 70
     1
102
RTVSPropertyOp21
 70
     1
102
RTVSPropertyOp22
 70
     1
102
RTVSPropertyOp23
 70
     1
102
RTVSPropertyOp24
 70
     1
102
RTVSPropertyOp25
 70
     1
102
RTVSPropertyOp26
 70
     1
102
RTVSPropertyOp27
 70
     1
102
RTVSPropertyOp28
 70
     1
102
RTVSPropertyOp29
 70
     1
102
RTVSPropertyOp30
 70
     1
102
RTVSPropertyOp31
 70
     1
102
RTVSPropertyOp32
 70
     1
102
RTVSPropertyOp33
 70
     1
102
RTVSPropertyOp34
 70
     1
102
RTVSPropertyOp35
 70
     1
102
RTVSPropertyOp36
 70
     1
102
RTVSPropertyOp37
 70
     1
102
RTVSPropertyOp38
 70
     1
102
RTVSPropertyOp39
 70
     1
102
RTVSPropertyOp40
 70
     1
102
RTVSPropertyOp41
 70
     1
102
RTVSPropertyOp42
 70
     1
102
RTVSPropertyOp43
 70
     1
102
RTVSPropertyOp44
 70
     1
102
RTVSPropertyOp45
 70
     1
102
RTVSPropertyOp46
 70
     1
102
RTVSPropertyOp47
 70
     1
102
RTVSPropertyOp48
 70
     1
102
RTVSPropertyOp49
 70
     1
102
RTVSPropertyOp50
 70
     1
102
RTVSPropertyOp51
 70
     0
102
RTVSPropertyOp52
 70
     0
102
RTVSPropertyOp53
 70
     1
102
RTVSPropertyOp54
 70
     1
102
RTVSPropertyOp55
 70
     1
102
RTVSPropertyOp56
 70
     1
102
RTVSPropertyOp57
 70
     1
102
RTVSPost2010Prop28
280
     0
102
RTVSPost2010PropOp28
 70
     1
102
RTVSPost2010Prop29
280
     1
102
RTVSPost2010PropOp29
 70
     1
102
RTVSPost2010Prop30
280
     1
102
RTVSPost2010PropOp30
 70
     1
102
RTVSPost2010Prop31
280
     0
102
RTVSPost2010PropOp31
 70
     1
102
RTVSPost2010Prop32
280
     0
102
RTVSPost2010PropOp32
 70
     1
102
RTVSPost2010Prop33
280
     0
102
RTVSPost2010PropOp33
 70
     1
102
RTVSPost2010Prop34
280
     0
102
RTVSPost2010PropOp34
 70
     1
102
RTVSPost2010Prop35
280
     0
102
RTVSPost2010PropOp35
 70
     1
102
RTVSPost2010Prop36
280
     0
102
RTVSPost2010PropOp36
 70
     1
102
RTVSPost2010Prop37
 90
       50
102
RTVSPost2010PropOp37
 70
     1
102
RTVSPost2010Prop38
140
0.0
102
RTVSPost2010PropOp38
 70
     1
102
RTVSPost2010Prop39
140
1.0
102
RTVSPost2010PropOp39
 70
     1
102
RTVSPost2010Prop40
 90
        0
102
RTVSPost2010PropOp40
 70
     1
102
RTVSPost2010Prop41ColorIndex
 90
       18
102
RTVSPost2010Prop41ColorRGB
 90
        0
102
RTVSPost2010PropOp41
 70
     1
102
RTVSPost2010Prop42
 90
       50
102
RTVSPost2010PropOp42
 70
     1
102
RTVSPost2010Prop43
 90
        3
102
RTVSPost2010PropOp43
 70
     1
102
RTVSPost2010Prop44ColorIndex
 90
        5
102
RTVSPost2010Prop44ColorRGB
 90
      255
102
RTVSPost2010PropOp44
 70
     1
102
RTVSPost2010Prop45
280
     0
102
RTVSPost2010PropOp45
 70
     1
102
RTVSPost2010Prop46
 90
       50
102
RTVSPost2010PropOp46
 70
     1
102
RTVSPost2010Prop47
 90
       50
102
RTVSPost2010PropOp47
 70
     1
102
RTVSPost2010Prop48
 90
       50
102
RTVSPost2010PropOp48
 70
     1
102
RTVSPost2010Prop49
280
     0
102
RTVSPost2010PropOp49
 70
     1
102
RTVSPost2010Prop50
 90
       50
102
RTVSPost2010PropOp50
 70
     1
102
RTVSPost2010Prop51ColorIndex
 90
      256
102
RTVSPost2010Prop51ColorRGB
 90
-16777216
102
RTVSPost2010PropOp51
 70
     0
102
RTVSPost2010Prop52
140
1.0
102
RTVSPost2010PropOp52
 70
     0
102
RTVSPost2010Prop53
 90
        2
102
RTVSPost2010PropOp53
 70
     1
102
RTVSPost2010Prop54
  1
strokes_ogs.tif
102
RTVSPost2010PropOp54
 70
     1
102
RTVSPost2010Prop55
280
     0
102
RTVSPost2010PropOp55
 70
     1
102
RTVSPost2010Prop56
140
1.0
102
RTVSPost2010PropOp56
 70
     1
102
RTVSPost2010Prop57
140
1.0
102
RTVSPost2010PropOp57
 70
     1
  0
XRECORD
  5
3618
102
{ACAD_REACTORS
330
33C6
102
}
330
33C6
100
AcDbXrecord
280
     1
102
RTVSPropertyOp0
 70
     0
102
RTVSPropertyOp1
 70
     0
102
RTVSPropertyOp2
 70
     0
102
RTVSPropertyOp3
 70
     0
102
RTVSPropertyOp4
 70
     0
102
RTVSPropertyOp5
 70
     0
102
RTVSPropertyOp6
 70
     0
102
RTVSPropertyOp7
 70
     0
102
RTVSPropertyOp8
 70
     0
102
RTVSPropertyOp9
 70
     0
102
RTVSPropertyOp10
 70
     0
102
RTVSPropertyOp11
 70
     0
102
RTVSPropertyOp12
 70
     0
102
RTVSPropertyOp13
 70
     0
102
RTVSPropertyOp14
 70
     2
102
RTVSPropertyOp15
 70
     0
102
RTVSPropertyOp16
 70
     0
102
RTVSPropertyOp17
 70
     0
102
RTVSPropertyOp18
 70
     0
102
RTVSPropertyOp19
 70
     0
102
RTVSPropertyOp20
 70
     0
102
RTVSPropertyOp21
 70
     0
102
RTVSPropertyOp22
 70
     0
102
RTVSPropertyOp23
 70
     0
102
RTVSPropertyOp24
 70
     0
102
RTVSPropertyOp25
 70
     0
102
RTVSPropertyOp26
 70
     0
102
RTVSPropertyOp27
 70
     0
102
RTVSPropertyOp28
 70
     0
102
RTVSPropertyOp29
 70
     0
102
RTVSPropertyOp30
 70
     0
102
RTVSPropertyOp31
 70
     0
102
RTVSPropertyOp32
 70
     0
102
RTVSPropertyOp33
 70
     0
102
RTVSPropertyOp34
 70
     0
102
RTVSPropertyOp35
 70
     0
102
RTVSPropertyOp36
 70
     0
102
RTVSPropertyOp37
 70
     0
102
RTVSPropertyOp38
 70
     0
102
RTVSPropertyOp39
 70
     0
102
RTVSPropertyOp40
 70
     0
102
RTVSPropertyOp41
 70
     0
102
RTVSPropertyOp42
 70
     0
102
RTVSPropertyOp43
 70
     0
102
RTVSPropertyOp44
 70
     0
102
RTVSPropertyOp45
 70
     0
102
RTVSPropertyOp46
 70
     0
102
RTVSPropertyOp47
 70
     0
102
RTVSPropertyOp48
 70
     0
102
RTVSPropertyOp49
 70
     0
102
RTVSPropertyOp50
 70
     0
102
RTVSPropertyOp51
 70
     0
102
RTVSPropertyOp52
 70
     0
102
RTVSPropertyOp53
 70
     0
102
RTVSPropertyOp54
 70
     0
102
RTVSPropertyOp55
 70
     0
102
RTVSPropertyOp56
 70
     0
102
RTVSPropertyOp57
 70
     0
102
RTVSPost2010Prop28
280
     0
102
RTVSPost2010PropOp28
 70
     0
102
RTVSPost2010Prop29
280
     1
102
RTVSPost2010PropOp29
 70
     0
102
RTVSPost2010Prop30
280
     1
102
RTVSPost2010PropOp30
 70
     0
102
RTVSPost2010Prop31
280
     0
102
RTVSPost2010PropOp31
 70
     0
102
RTVSPost2010Prop32
280
     0
102
RTVSPost2010PropOp32
 70
     0
102
RTVSPost2010Prop33
280
     0
102
RTVSPost2010PropOp33
 70
     0
102
RTVSPost2010Prop34
280
     0
102
RTVSPost2010PropOp34
 70
     0
102
RTVSPost2010Prop35
280
     0
102
RTVSPost2010PropOp35
 70
     0
102
RTVSPost2010Prop36
280
     0
102
RTVSPost2010PropOp36
 70
     0
102
RTVSPost2010Prop37
 90
       50
102
RTVSPost2010PropOp37
 70
     0
102
RTVSPost2010Prop38
140
0.0
102
RTVSPost2010PropOp38
 70
     0
102
RTVSPost2010Prop39
140
1.0
102
RTVSPost2010PropOp39
 70
     0
102
RTVSPost2010Prop40
 90
        0
102
RTVSPost2010PropOp40
 70
     0
102
RTVSPost2010Prop41ColorIndex
 90
       18
102
RTVSPost2010Prop41ColorRGB
 90
        0
102
RTVSPost2010PropOp41
 70
     0
102
RTVSPost2010Prop42
 90
       50
102
RTVSPost2010PropOp42
 70
     0
102
RTVSPost2010Prop43
 90
        3
102
RTVSPost2010PropOp43
 70
     0
102
RTVSPost2010Prop44ColorIndex
 90
        5
102
RTVSPost2010Prop44ColorRGB
 90
      255
102
RTVSPost2010PropOp44
 70
     0
102
RTVSPost2010Prop45
280
     0
102
RTVSPost2010PropOp45
 70
     0
102
RTVSPost2010Prop46
 90
       50
102
RTVSPost2010PropOp46
 70
     0
102
RTVSPost2010Prop47
 90
       50
102
RTVSPost2010PropOp47
 70
     0
102
RTVSPost2010Prop48
 90
       50
102
RTVSPost2010PropOp48
 70
     0
102
RTVSPost2010Prop49
280
     0
102
RTVSPost2010PropOp49
 70
     0
102
RTVSPost2010Prop50
 90
       50
102
RTVSPost2010PropOp50
 70
     0
102
RTVSPost2010Prop51ColorIndex
 90
      256
102
RTVSPost2010Prop51ColorRGB
 90
-16777216
102
RTVSPost2010PropOp51
 70
     0
102
RTVSPost2010Prop52
140
1.0
102
RTVSPost2010PropOp52
 70
     0
102
RTVSPost2010Prop53
 90
        2
102
RTVSPost2010PropOp53
 70
     0
102
RTVSPost2010Prop54
  1
strokes_ogs.tif
102
RTVSPost2010PropOp54
 70
     0
102
RTVSPost2010Prop55
280
     0
102
RTVSPost2010PropOp55
 70
     0
102
RTVSPost2010Prop56
140
1.0
102
RTVSPost2010PropOp56
 70
     0
102
RTVSPost2010Prop57
140
1.0
102
RTVSPost2010PropOp57
 70
     0
  0
XRECORD
  5
3619
102
{ACAD_REACTORS
330
33C8
102
}
330
33C8
100
AcDbXrecord
280
     1
102
RTVSPropertyOp0
 70
     1
102
RTVSPropertyOp1
 70
     1
102
RTVSPropertyOp2
 70
     1
102
RTVSPropertyOp3
 70
     1
102
RTVSPropertyOp4
 70
     1
102
RTVSPropertyOp5
 70
     1
102
RTVSPropertyOp6
 70
     1
102
RTVSPropertyOp7
 70
     1
102
RTVSPropertyOp8
 70
     1
102
RTVSPropertyOp9
 70
     1
102
RTVSPropertyOp10
 70
     1
102
RTVSPropertyOp11
 70
     1
102
RTVSPropertyOp12
 70
     1
102
RTVSPropertyOp13
 70
     1
102
RTVSPropertyOp14
 70
     1
102
RTVSPropertyOp15
 70
     1
102
RTVSPropertyOp16
 70
     1
102
RTVSPropertyOp17
 70
     1
102
RTVSPropertyOp18
 70
     1
102
RTVSPropertyOp19
 70
     1
102
RTVSPropertyOp20
 70
     1
102
RTVSPropertyOp21
 70
     1
102
RTVSPropertyOp22
 70
     1
102
RTVSPropertyOp23
 70
     1
102
RTVSPropertyOp24
 70
     1
102
RTVSPropertyOp25
 70
     1
102
RTVSPropertyOp26
 70
     1
102
RTVSPropertyOp27
 70
     1
102
RTVSPropertyOp28
 70
     1
102
RTVSPropertyOp29
 70
     1
102
RTVSPropertyOp30
 70
     1
102
RTVSPropertyOp31
 70
     1
102
RTVSPropertyOp32
 70
     1
102
RTVSPropertyOp33
 70
     1
102
RTVSPropertyOp34
 70
     1
102
RTVSPropertyOp35
 70
     1
102
RTVSPropertyOp36
 70
     1
102
RTVSPropertyOp37
 70
     1
102
RTVSPropertyOp38
 70
     1
102
RTVSPropertyOp39
 70
     1
102
RTVSPropertyOp40
 70
     1
102
RTVSPropertyOp41
 70
     1
102
RTVSPropertyOp42
 70
     1
102
RTVSPropertyOp43
 70
     1
102
RTVSPropertyOp44
 70
     1
102
RTVSPropertyOp45
 70
     1
102
RTVSPropertyOp46
 70
     1
102
RTVSPropertyOp47
 70
     1
102
RTVSPropertyOp48
 70
     1
102
RTVSPropertyOp49
 70
     1
102
RTVSPropertyOp50
 70
     1
102
RTVSPropertyOp51
 70
     0
102
RTVSPropertyOp52
 70
     0
102
RTVSPropertyOp53
 70
     1
102
RTVSPropertyOp54
 70
     1
102
RTVSPropertyOp55
 70
     1
102
RTVSPropertyOp56
 70
     1
102
RTVSPropertyOp57
 70
     1
102
RTVSPost2010Prop28
280
     0
102
RTVSPost2010PropOp28
 70
     1
102
RTVSPost2010Prop29
280
     1
102
RTVSPost2010PropOp29
 70
     1
102
RTVSPost2010Prop30
280
     1
102
RTVSPost2010PropOp30
 70
     1
102
RTVSPost2010Prop31
280
     0
102
RTVSPost2010PropOp31
 70
     1
102
RTVSPost2010Prop32
280
     0
102
RTVSPost2010PropOp32
 70
     1
102
RTVSPost2010Prop33
280
     0
102
RTVSPost2010PropOp33
 70
     1
102
RTVSPost2010Prop34
280
     0
102
RTVSPost2010PropOp34
 70
     1
102
RTVSPost2010Prop35
280
     0
102
RTVSPost2010PropOp35
 70
     1
102
RTVSPost2010Prop36
280
     0
102
RTVSPost2010PropOp36
 70
     1
102
RTVSPost2010Prop37
 90
       50
102
RTVSPost2010PropOp37
 70
     1
102
RTVSPost2010Prop38
140
0.0
102
RTVSPost2010PropOp38
 70
     1
102
RTVSPost2010Prop39
140
1.0
102
RTVSPost2010PropOp39
 70
     1
102
RTVSPost2010Prop40
 90
        0
102
RTVSPost2010PropOp40
 70
     1
102
RTVSPost2010Prop41ColorIndex
 90
       18
102
RTVSPost2010Prop41ColorRGB
 90
        0
102
RTVSPost2010PropOp41
 70
     1
102
RTVSPost2010Prop42
 90
       50
102
RTVSPost2010PropOp42
 70
     1
102
RTVSPost2010Prop43
 90
        3
102
RTVSPost2010PropOp43
 70
     1
102
RTVSPost2010Prop44ColorIndex
 90
        5
102
RTVSPost2010Prop44ColorRGB
 90
      255
102
RTVSPost2010PropOp44
 70
     1
102
RTVSPost2010Prop45
280
     0
102
RTVSPost2010PropOp45
 70
     1
102
RTVSPost2010Prop46
 90
       50
102
RTVSPost2010PropOp46
 70
     1
102
RTVSPost2010Prop47
 90
       50
102
RTVSPost2010PropOp47
 70
     1
102
RTVSPost2010Prop48
 90
       50
102
RTVSPost2010PropOp48
 70
     1
102
RTVSPost2010Prop49
280
     0
102
RTVSPost2010PropOp49
 70
     1
102
RTVSPost2010Prop50
 90
       50
102
RTVSPost2010PropOp50
 70
     1
102
RTVSPost2010Prop51ColorIndex
 90
      256
102
RTVSPost2010Prop51ColorRGB
 90
-16777216
102
RTVSPost2010PropOp51
 70
     0
102
RTVSPost2010Prop52
140
1.0
102
RTVSPost2010PropOp52
 70
     0
102
RTVSPost2010Prop53
 90
        2
102
RTVSPost2010PropOp53
 70
     1
102
RTVSPost2010Prop54
  1
strokes_ogs.tif
102
RTVSPost2010PropOp54
 70
     1
102
RTVSPost2010Prop55
280
     0
102
RTVSPost2010PropOp55
 70
     1
102
RTVSPost2010Prop56
140
1.0
102
RTVSPost2010PropOp56
 70
     1
102
RTVSPost2010Prop57
140
1.0
102
RTVSPost2010PropOp57
 70
     1
  0
XRECORD
  5
361A
102
{ACAD_REACTORS
330
33CA
102
}
330
33CA
100
AcDbXrecord
280
     1
102
RTVSPropertyOp0
 70
     0
102
RTVSPropertyOp1
 70
     0
102
RTVSPropertyOp2
 70
     0
102
RTVSPropertyOp3
 70
     0
102
RTVSPropertyOp4
 70
     0
102
RTVSPropertyOp5
 70
     0
102
RTVSPropertyOp6
 70
     0
102
RTVSPropertyOp7
 70
     0
102
RTVSPropertyOp8
 70
     0
102
RTVSPropertyOp9
 70
     0
102
RTVSPropertyOp10
 70
     0
102
RTVSPropertyOp11
 70
     0
102
RTVSPropertyOp12
 70
     0
102
RTVSPropertyOp13
 70
     0
102
RTVSPropertyOp14
 70
     2
102
RTVSPropertyOp15
 70
     0
102
RTVSPropertyOp16
 70
     0
102
RTVSPropertyOp17
 70
     0
102
RTVSPropertyOp18
 70
     0
102
RTVSPropertyOp19
 70
     0
102
RTVSPropertyOp20
 70
     0
102
RTVSPropertyOp21
 70
     0
102
RTVSPropertyOp22
 70
     0
102
RTVSPropertyOp23
 70
     0
102
RTVSPropertyOp24
 70
     0
102
RTVSPropertyOp25
 70
     0
102
RTVSPropertyOp26
 70
     0
102
RTVSPropertyOp27
 70
     0
102
RTVSPropertyOp28
 70
     0
102
RTVSPropertyOp29
 70
     0
102
RTVSPropertyOp30
 70
     0
102
RTVSPropertyOp31
 70
     0
102
RTVSPropertyOp32
 70
     0
102
RTVSPropertyOp33
 70
     0
102
RTVSPropertyOp34
 70
     0
102
RTVSPropertyOp35
 70
     0
102
RTVSPropertyOp36
 70
     0
102
RTVSPropertyOp37
 70
     0
102
RTVSPropertyOp38
 70
     0
102
RTVSPropertyOp39
 70
     0
102
RTVSPropertyOp40
 70
     0
102
RTVSPropertyOp41
 70
     0
102
RTVSPropertyOp42
 70
     0
102
RTVSPropertyOp43
 70
     0
102
RTVSPropertyOp44
 70
     0
102
RTVSPropertyOp45
 70
     0
102
RTVSPropertyOp46
 70
     0
102
RTVSPropertyOp47
 70
     0
102
RTVSPropertyOp48
 70
     0
102
RTVSPropertyOp49
 70
     0
102
RTVSPropertyOp50
 70
     0
102
RTVSPropertyOp51
 70
     0
102
RTVSPropertyOp52
 70
     0
102
RTVSPropertyOp53
 70
     0
102
RTVSPropertyOp54
 70
     0
102
RTVSPropertyOp55
 70
     0
102
RTVSPropertyOp56
 70
     0
102
RTVSPropertyOp57
 70
     0
102
RTVSPost2010Prop28
280
     0
102
RTVSPost2010PropOp28
 70
     0
102
RTVSPost2010Prop29
280
     1
102
RTVSPost2010PropOp29
 70
     0
102
RTVSPost2010Prop30
280
     1
102
RTVSPost2010PropOp30
 70
     0
102
RTVSPost2010Prop31
280
     0
102
RTVSPost2010PropOp31
 70
     0
102
RTVSPost2010Prop32
280
     0
102
RTVSPost2010PropOp32
 70
     0
102
RTVSPost2010Prop33
280
     0
102
RTVSPost2010PropOp33
 70
     0
102
RTVSPost2010Prop34
280
     0
102
RTVSPost2010PropOp34
 70
     0
102
RTVSPost2010Prop35
280
     0
102
RTVSPost2010PropOp35
 70
     0
102
RTVSPost2010Prop36
280
     0
102
RTVSPost2010PropOp36
 70
     0
102
RTVSPost2010Prop37
 90
       50
102
RTVSPost2010PropOp37
 70
     0
102
RTVSPost2010Prop38
140
0.0
102
RTVSPost2010PropOp38
 70
     0
102
RTVSPost2010Prop39
140
1.0
102
RTVSPost2010PropOp39
 70
     0
102
RTVSPost2010Prop40
 90
        0
102
RTVSPost2010PropOp40
 70
     0
102
RTVSPost2010Prop41ColorIndex
 90
       18
102
RTVSPost2010Prop41ColorRGB
 90
        0
102
RTVSPost2010PropOp41
 70
     0
102
RTVSPost2010Prop42
 90
       50
102
RTVSPost2010PropOp42
 70
     0
102
RTVSPost2010Prop43
 90
        3
102
RTVSPost2010PropOp43
 70
     0
102
RTVSPost2010Prop44ColorIndex
 90
        5
102
RTVSPost2010Prop44ColorRGB
 90
      255
102
RTVSPost2010PropOp44
 70
     0
102
RTVSPost2010Prop45
280
     0
102
RTVSPost2010PropOp45
 70
     0
102
RTVSPost2010Prop46
 90
       50
102
RTVSPost2010PropOp46
 70
     0
102
RTVSPost2010Prop47
 90
       50
102
RTVSPost2010PropOp47
 70
     0
102
RTVSPost2010Prop48
 90
       50
102
RTVSPost2010PropOp48
 70
     0
102
RTVSPost2010Prop49
280
     0
102
RTVSPost2010PropOp49
 70
     0
102
RTVSPost2010Prop50
 90
       50
102
RTVSPost2010PropOp50
 70
     0
102
RTVSPost2010Prop51ColorIndex
 90
      256
102
RTVSPost2010Prop51ColorRGB
 90
-16777216
102
RTVSPost2010PropOp51
 70
     0
102
RTVSPost2010Prop52
140
1.0
102
RTVSPost2010PropOp52
 70
     0
102
RTVSPost2010Prop53
 90
        2
102
RTVSPost2010PropOp53
 70
     0
102
RTVSPost2010Prop54
  1
strokes_ogs.tif
102
RTVSPost2010PropOp54
 70
     0
102
RTVSPost2010Prop55
280
     0
102
RTVSPost2010PropOp55
 70
     0
102
RTVSPost2010Prop56
140
1.0
102
RTVSPost2010PropOp56
 70
     0
102
RTVSPost2010Prop57
140
1.0
102
RTVSPost2010PropOp57
 70
     0
  0
XRECORD
  5
361B
102
{ACAD_REACTORS
330
33CC
102
}
330
33CC
100
AcDbXrecord
280
     1
102
RTVSPropertyOp0
 70
     1
102
RTVSPropertyOp1
 70
     1
102
RTVSPropertyOp2
 70
     1
102
RTVSPropertyOp3
 70
     1
102
RTVSPropertyOp4
 70
     1
102
RTVSPropertyOp5
 70
     1
102
RTVSPropertyOp6
 70
     1
102
RTVSPropertyOp7
 70
     1
102
RTVSPropertyOp8
 70
     1
102
RTVSPropertyOp9
 70
     1
102
RTVSPropertyOp10
 70
     1
102
RTVSPropertyOp11
 70
     1
102
RTVSPropertyOp12
 70
     1
102
RTVSPropertyOp13
 70
     1
102
RTVSPropertyOp14
 70
     1
102
RTVSPropertyOp15
 70
     1
102
RTVSPropertyOp16
 70
     1
102
RTVSPropertyOp17
 70
     1
102
RTVSPropertyOp18
 70
     1
102
RTVSPropertyOp19
 70
     1
102
RTVSPropertyOp20
 70
     1
102
RTVSPropertyOp21
 70
     1
102
RTVSPropertyOp22
 70
     1
102
RTVSPropertyOp23
 70
     1
102
RTVSPropertyOp24
 70
     1
102
RTVSPropertyOp25
 70
     1
102
RTVSPropertyOp26
 70
     1
102
RTVSPropertyOp27
 70
     1
102
RTVSPropertyOp28
 70
     1
102
RTVSPropertyOp29
 70
     1
102
RTVSPropertyOp30
 70
     1
102
RTVSPropertyOp31
 70
     1
102
RTVSPropertyOp32
 70
     1
102
RTVSPropertyOp33
 70
     1
102
RTVSPropertyOp34
 70
     1
102
RTVSPropertyOp35
 70
     1
102
RTVSPropertyOp36
 70
     1
102
RTVSPropertyOp37
 70
     1
102
RTVSPropertyOp38
 70
     1
102
RTVSPropertyOp39
 70
     1
102
RTVSPropertyOp40
 70
     1
102
RTVSPropertyOp41
 70
     1
102
RTVSPropertyOp42
 70
     1
102
RTVSPropertyOp43
 70
     1
102
RTVSPropertyOp44
 70
     1
102
RTVSPropertyOp45
 70
     1
102
RTVSPropertyOp46
 70
     1
102
RTVSPropertyOp47
 70
     1
102
RTVSPropertyOp48
 70
     1
102
RTVSPropertyOp49
 70
     1
102
RTVSPropertyOp50
 70
     1
102
RTVSPropertyOp51
 70
     0
102
RTVSPropertyOp52
 70
     0
102
RTVSPropertyOp53
 70
     1
102
RTVSPropertyOp54
 70
     1
102
RTVSPropertyOp55
 70
     1
102
RTVSPropertyOp56
 70
     1
102
RTVSPropertyOp57
 70
     1
102
RTVSPost2010Prop28
280
     0
102
RTVSPost2010PropOp28
 70
     1
102
RTVSPost2010Prop29
280
     1
102
RTVSPost2010PropOp29
 70
     1
102
RTVSPost2010Prop30
280
     1
102
RTVSPost2010PropOp30
 70
     1
102
RTVSPost2010Prop31
280
     0
102
RTVSPost2010PropOp31
 70
     1
102
RTVSPost2010Prop32
280
     0
102
RTVSPost2010PropOp32
 70
     1
102
RTVSPost2010Prop33
280
     0
102
RTVSPost2010PropOp33
 70
     1
102
RTVSPost2010Prop34
280
     0
102
RTVSPost2010PropOp34
 70
     1
102
RTVSPost2010Prop35
280
     0
102
RTVSPost2010PropOp35
 70
     1
102
RTVSPost2010Prop36
280
     0
102
RTVSPost2010PropOp36
 70
     1
102
RTVSPost2010Prop37
 90
       50
102
RTVSPost2010PropOp37
 70
     1
102
RTVSPost2010Prop38
140
0.0
102
RTVSPost2010PropOp38
 70
     1
102
RTVSPost2010Prop39
140
1.0
102
RTVSPost2010PropOp39
 70
     1
102
RTVSPost2010Prop40
 90
        0
102
RTVSPost2010PropOp40
 70
     1
102
RTVSPost2010Prop41ColorIndex
 90
       18
102
RTVSPost2010Prop41ColorRGB
 90
        0
102
RTVSPost2010PropOp41
 70
     1
102
RTVSPost2010Prop42
 90
       50
102
RTVSPost2010PropOp42
 70
     1
102
RTVSPost2010Prop43
 90
        3
102
RTVSPost2010PropOp43
 70
     1
102
RTVSPost2010Prop44ColorIndex
 90
        5
102
RTVSPost2010Prop44ColorRGB
 90
      255
102
RTVSPost2010PropOp44
 70
     1
102
RTVSPost2010Prop45
280
     0
102
RTVSPost2010PropOp45
 70
     1
102
RTVSPost2010Prop46
 90
       50
102
RTVSPost2010PropOp46
 70
     1
102
RTVSPost2010Prop47
 90
       50
102
RTVSPost2010PropOp47
 70
     1
102
RTVSPost2010Prop48
 90
       50
102
RTVSPost2010PropOp48
 70
     1
102
RTVSPost2010Prop49
280
     0
102
RTVSPost2010PropOp49
 70
     1
102
RTVSPost2010Prop50
 90
       50
102
RTVSPost2010PropOp50
 70
     1
102
RTVSPost2010Prop51ColorIndex
 90
      256
102
RTVSPost2010Prop51ColorRGB
 90
-16777216
102
RTVSPost2010PropOp51
 70
     0
102
RTVSPost2010Prop52
140
1.0
102
RTVSPost2010PropOp52
 70
     0
102
RTVSPost2010Prop53
 90
        2
102
RTVSPost2010PropOp53
 70
     1
102
RTVSPost2010Prop54
  1
strokes_ogs.tif
102
RTVSPost2010PropOp54
 70
     1
102
RTVSPost2010Prop55
280
     0
102
RTVSPost2010PropOp55
 70
     1
102
RTVSPost2010Prop56
140
1.0
102
RTVSPost2010PropOp56
 70
     1
102
RTVSPost2010Prop57
140
1.0
102
RTVSPost2010PropOp57
 70
     1
  0
XRECORD
  5
361C
102
{ACAD_REACTORS
330
33CE
102
}
330
33CE
100
AcDbXrecord
280
     1
102
RTVSPropertyOp0
 70
     1
102
RTVSPropertyOp1
 70
     1
102
RTVSPropertyOp2
 70
     1
102
RTVSPropertyOp3
 70
     1
102
RTVSPropertyOp4
 70
     1
102
RTVSPropertyOp5
 70
     1
102
RTVSPropertyOp6
 70
     1
102
RTVSPropertyOp7
 70
     1
102
RTVSPropertyOp8
 70
     1
102
RTVSPropertyOp9
 70
     1
102
RTVSPropertyOp10
 70
     1
102
RTVSPropertyOp11
 70
     1
102
RTVSPropertyOp12
 70
     1
102
RTVSPropertyOp13
 70
     1
102
RTVSPropertyOp14
 70
     1
102
RTVSPropertyOp15
 70
     1
102
RTVSPropertyOp16
 70
     1
102
RTVSPropertyOp17
 70
     1
102
RTVSPropertyOp18
 70
     1
102
RTVSPropertyOp19
 70
     1
102
RTVSPropertyOp20
 70
     1
102
RTVSPropertyOp21
 70
     1
102
RTVSPropertyOp22
 70
     1
102
RTVSPropertyOp23
 70
     1
102
RTVSPropertyOp24
 70
     1
102
RTVSPropertyOp25
 70
     1
102
RTVSPropertyOp26
 70
     1
102
RTVSPropertyOp27
 70
     1
102
RTVSPropertyOp28
 70
     1
102
RTVSPropertyOp29
 70
     1
102
RTVSPropertyOp30
 70
     1
102
RTVSPropertyOp31
 70
     1
102
RTVSPropertyOp32
 70
     1
102
RTVSPropertyOp33
 70
     1
102
RTVSPropertyOp34
 70
     1
102
RTVSPropertyOp35
 70
     1
102
RTVSPropertyOp36
 70
     1
102
RTVSPropertyOp37
 70
     1
102
RTVSPropertyOp38
 70
     1
102
RTVSPropertyOp39
 70
     1
102
RTVSPropertyOp40
 70
     1
102
RTVSPropertyOp41
 70
     1
102
RTVSPropertyOp42
 70
     1
102
RTVSPropertyOp43
 70
     1
102
RTVSPropertyOp44
 70
     1
102
RTVSPropertyOp45
 70
     1
102
RTVSPropertyOp46
 70
     1
102
RTVSPropertyOp47
 70
     1
102
RTVSPropertyOp48
 70
     1
102
RTVSPropertyOp49
 70
     1
102
RTVSPropertyOp50
 70
     1
102
RTVSPropertyOp51
 70
     0
102
RTVSPropertyOp52
 70
     0
102
RTVSPropertyOp53
 70
     1
102
RTVSPropertyOp54
 70
     1
102
RTVSPropertyOp55
 70
     1
102
RTVSPropertyOp56
 70
     1
102
RTVSPropertyOp57
 70
     1
102
RTVSPost2010Prop28
280
     0
102
RTVSPost2010PropOp28
 70
     1
102
RTVSPost2010Prop29
280
     1
102
RTVSPost2010PropOp29
 70
     1
102
RTVSPost2010Prop30
280
     1
102
RTVSPost2010PropOp30
 70
     1
102
RTVSPost2010Prop31
280
     0
102
RTVSPost2010PropOp31
 70
     1
102
RTVSPost2010Prop32
280
     0
102
RTVSPost2010PropOp32
 70
     1
102
RTVSPost2010Prop33
280
     0
102
RTVSPost2010PropOp33
 70
     1
102
RTVSPost2010Prop34
280
     0
102
RTVSPost2010PropOp34
 70
     1
102
RTVSPost2010Prop35
280
     0
102
RTVSPost2010PropOp35
 70
     1
102
RTVSPost2010Prop36
280
     0
102
RTVSPost2010PropOp36
 70
     1
102
RTVSPost2010Prop37
 90
       50
102
RTVSPost2010PropOp37
 70
     1
102
RTVSPost2010Prop38
140
0.0
102
RTVSPost2010PropOp38
 70
     1
102
RTVSPost2010Prop39
140
1.0
102
RTVSPost2010PropOp39
 70
     1
102
RTVSPost2010Prop40
 90
        0
102
RTVSPost2010PropOp40
 70
     1
102
RTVSPost2010Prop41ColorIndex
 90
       18
102
RTVSPost2010Prop41ColorRGB
 90
        0
102
RTVSPost2010PropOp41
 70
     1
102
RTVSPost2010Prop42
 90
       50
102
RTVSPost2010PropOp42
 70
     1
102
RTVSPost2010Prop43
 90
        3
102
RTVSPost2010PropOp43
 70
     1
102
RTVSPost2010Prop44ColorIndex
 90
        5
102
RTVSPost2010Prop44ColorRGB
 90
      255
102
RTVSPost2010PropOp44
 70
     1
102
RTVSPost2010Prop45
280
     0
102
RTVSPost2010PropOp45
 70
     1
102
RTVSPost2010Prop46
 90
       50
102
RTVSPost2010PropOp46
 70
     1
102
RTVSPost2010Prop47
 90
       50
102
RTVSPost2010PropOp47
 70
     1
102
RTVSPost2010Prop48
 90
       50
102
RTVSPost2010PropOp48
 70
     1
102
RTVSPost2010Prop49
280
     0
102
RTVSPost2010PropOp49
 70
     1
102
RTVSPost2010Prop50
 90
       50
102
RTVSPost2010PropOp50
 70
     1
102
RTVSPost2010Prop51ColorIndex
 90
      256
102
RTVSPost2010Prop51ColorRGB
 90
-16777216
102
RTVSPost2010PropOp51
 70
     0
102
RTVSPost2010Prop52
140
1.0
102
RTVSPost2010PropOp52
 70
     0
102
RTVSPost2010Prop53
 90
        2
102
RTVSPost2010PropOp53
 70
     1
102
RTVSPost2010Prop54
  1
strokes_ogs.tif
102
RTVSPost2010PropOp54
 70
     1
102
RTVSPost2010Prop55
280
     0
102
RTVSPost2010PropOp55
 70
     1
102
RTVSPost2010Prop56
140
1.0
102
RTVSPost2010PropOp56
 70
     1
102
RTVSPost2010Prop57
140
1.0
102
RTVSPost2010PropOp57
 70
     1
  0
XRECORD
  5
361D
102
{ACAD_REACTORS
330
33D0
102
}
330
33D0
100
AcDbXrecord
280
     1
102
RTVSPropertyOp0
 70
     1
102
RTVSPropertyOp1
 70
     1
102
RTVSPropertyOp2
 70
     1
102
RTVSPropertyOp3
 70
     1
102
RTVSPropertyOp4
 70
     1
102
RTVSPropertyOp5
 70
     1
102
RTVSPropertyOp6
 70
     1
102
RTVSPropertyOp7
 70
     1
102
RTVSPropertyOp8
 70
     1
102
RTVSPropertyOp9
 70
     1
102
RTVSPropertyOp10
 70
     1
102
RTVSPropertyOp11
 70
     1
102
RTVSPropertyOp12
 70
     1
102
RTVSPropertyOp13
 70
     1
102
RTVSPropertyOp14
 70
     1
102
RTVSPropertyOp15
 70
     1
102
RTVSPropertyOp16
 70
     1
102
RTVSPropertyOp17
 70
     1
102
RTVSPropertyOp18
 70
     1
102
RTVSPropertyOp19
 70
     1
102
RTVSPropertyOp20
 70
     1
102
RTVSPropertyOp21
 70
     1
102
RTVSPropertyOp22
 70
     1
102
RTVSPropertyOp23
 70
     1
102
RTVSPropertyOp24
 70
     1
102
RTVSPropertyOp25
 70
     1
102
RTVSPropertyOp26
 70
     1
102
RTVSPropertyOp27
 70
     1
102
RTVSPropertyOp28
 70
     1
102
RTVSPropertyOp29
 70
     1
102
RTVSPropertyOp30
 70
     1
102
RTVSPropertyOp31
 70
     1
102
RTVSPropertyOp32
 70
     1
102
RTVSPropertyOp33
 70
     1
102
RTVSPropertyOp34
 70
     1
102
RTVSPropertyOp35
 70
     1
102
RTVSPropertyOp36
 70
     1
102
RTVSPropertyOp37
 70
     1
102
RTVSPropertyOp38
 70
     1
102
RTVSPropertyOp39
 70
     1
102
RTVSPropertyOp40
 70
     1
102
RTVSPropertyOp41
 70
     1
102
RTVSPropertyOp42
 70
     1
102
RTVSPropertyOp43
 70
     1
102
RTVSPropertyOp44
 70
     1
102
RTVSPropertyOp45
 70
     1
102
RTVSPropertyOp46
 70
     1
102
RTVSPropertyOp47
 70
     1
102
RTVSPropertyOp48
 70
     1
102
RTVSPropertyOp49
 70
     1
102
RTVSPropertyOp50
 70
     1
102
RTVSPropertyOp51
 70
     0
102
RTVSPropertyOp52
 70
     0
102
RTVSPropertyOp53
 70
     1
102
RTVSPropertyOp54
 70
     1
102
RTVSPropertyOp55
 70
     1
102
RTVSPropertyOp56
 70
     1
102
RTVSPropertyOp57
 70
     1
102
RTVSPost2010Prop28
280
     0
102
RTVSPost2010PropOp28
 70
     1
102
RTVSPost2010Prop29
280
     1
102
RTVSPost2010PropOp29
 70
     1
102
RTVSPost2010Prop30
280
     1
102
RTVSPost2010PropOp30
 70
     1
102
RTVSPost2010Prop31
280
     0
102
RTVSPost2010PropOp31
 70
     1
102
RTVSPost2010Prop32
280
     0
102
RTVSPost2010PropOp32
 70
     1
102
RTVSPost2010Prop33
280
     0
102
RTVSPost2010PropOp33
 70
     1
102
RTVSPost2010Prop34
280
     0
102
RTVSPost2010PropOp34
 70
     1
102
RTVSPost2010Prop35
280
     0
102
RTVSPost2010PropOp35
 70
     1
102
RTVSPost2010Prop36
280
     0
102
RTVSPost2010PropOp36
 70
     1
102
RTVSPost2010Prop37
 90
       50
102
RTVSPost2010PropOp37
 70
     1
102
RTVSPost2010Prop38
140
0.0
102
RTVSPost2010PropOp38
 70
     1
102
RTVSPost2010Prop39
140
1.0
102
RTVSPost2010PropOp39
 70
     1
102
RTVSPost2010Prop40
 90
        0
102
RTVSPost2010PropOp40
 70
     1
102
RTVSPost2010Prop41ColorIndex
 90
       18
102
RTVSPost2010Prop41ColorRGB
 90
        0
102
RTVSPost2010PropOp41
 70
     1
102
RTVSPost2010Prop42
 90
       50
102
RTVSPost2010PropOp42
 70
     1
102
RTVSPost2010Prop43
 90
        3
102
RTVSPost2010PropOp43
 70
     1
102
RTVSPost2010Prop44ColorIndex
 90
        5
102
RTVSPost2010Prop44ColorRGB
 90
      255
102
RTVSPost2010PropOp44
 70
     1
102
RTVSPost2010Prop45
280
     0
102
RTVSPost2010PropOp45
 70
     1
102
RTVSPost2010Prop46
 90
       50
102
RTVSPost2010PropOp46
 70
     1
102
RTVSPost2010Prop47
 90
       50
102
RTVSPost2010PropOp47
 70
     1
102
RTVSPost2010Prop48
 90
       50
102
RTVSPost2010PropOp48
 70
     1
102
RTVSPost2010Prop49
280
     0
102
RTVSPost2010PropOp49
 70
     1
102
RTVSPost2010Prop50
 90
       50
102
RTVSPost2010PropOp50
 70
     1
102
RTVSPost2010Prop51ColorIndex
 90
      256
102
RTVSPost2010Prop51ColorRGB
 90
-16777216
102
RTVSPost2010PropOp51
 70
     0
102
RTVSPost2010Prop52
140
1.0
102
RTVSPost2010PropOp52
 70
     0
102
RTVSPost2010Prop53
 90
        2
102
RTVSPost2010PropOp53
 70
     1
102
RTVSPost2010Prop54
  1
strokes_ogs.tif
102
RTVSPost2010PropOp54
 70
     1
102
RTVSPost2010Prop55
280
     0
102
RTVSPost2010PropOp55
 70
     1
102
RTVSPost2010Prop56
140
1.0
102
RTVSPost2010PropOp56
 70
     1
102
RTVSPost2010Prop57
140
1.0
102
RTVSPost2010PropOp57
 70
     1
  0
XRECORD
  5
361E
102
{ACAD_REACTORS
330
33D2
102
}
330
33D2
100
AcDbXrecord
280
     1
102
RTVSPropertyOp0
 70
     1
102
RTVSPropertyOp1
 70
     1
102
RTVSPropertyOp2
 70
     1
102
RTVSPropertyOp3
 70
     1
102
RTVSPropertyOp4
 70
     1
102
RTVSPropertyOp5
 70
     1
102
RTVSPropertyOp6
 70
     1
102
RTVSPropertyOp7
 70
     1
102
RTVSPropertyOp8
 70
     1
102
RTVSPropertyOp9
 70
     1
102
RTVSPropertyOp10
 70
     1
102
RTVSPropertyOp11
 70
     1
102
RTVSPropertyOp12
 70
     1
102
RTVSPropertyOp13
 70
     1
102
RTVSPropertyOp14
 70
     1
102
RTVSPropertyOp15
 70
     1
102
RTVSPropertyOp16
 70
     1
102
RTVSPropertyOp17
 70
     1
102
RTVSPropertyOp18
 70
     1
102
RTVSPropertyOp19
 70
     1
102
RTVSPropertyOp20
 70
     1
102
RTVSPropertyOp21
 70
     1
102
RTVSPropertyOp22
 70
     1
102
RTVSPropertyOp23
 70
     1
102
RTVSPropertyOp24
 70
     1
102
RTVSPropertyOp25
 70
     1
102
RTVSPropertyOp26
 70
     1
102
RTVSPropertyOp27
 70
     1
102
RTVSPropertyOp28
 70
     1
102
RTVSPropertyOp29
 70
     1
102
RTVSPropertyOp30
 70
     1
102
RTVSPropertyOp31
 70
     1
102
RTVSPropertyOp32
 70
     1
102
RTVSPropertyOp33
 70
     1
102
RTVSPropertyOp34
 70
     1
102
RTVSPropertyOp35
 70
     1
102
RTVSPropertyOp36
 70
     1
102
RTVSPropertyOp37
 70
     1
102
RTVSPropertyOp38
 70
     1
102
RTVSPropertyOp39
 70
     1
102
RTVSPropertyOp40
 70
     1
102
RTVSPropertyOp41
 70
     1
102
RTVSPropertyOp42
 70
     1
102
RTVSPropertyOp43
 70
     1
102
RTVSPropertyOp44
 70
     1
102
RTVSPropertyOp45
 70
     1
102
RTVSPropertyOp46
 70
     1
102
RTVSPropertyOp47
 70
     1
102
RTVSPropertyOp48
 70
     1
102
RTVSPropertyOp49
 70
     1
102
RTVSPropertyOp50
 70
     1
102
RTVSPropertyOp51
 70
     0
102
RTVSPropertyOp52
 70
     0
102
RTVSPropertyOp53
 70
     1
102
RTVSPropertyOp54
 70
     1
102
RTVSPropertyOp55
 70
     1
102
RTVSPropertyOp56
 70
     1
102
RTVSPropertyOp57
 70
     1
102
RTVSPost2010Prop28
280
     0
102
RTVSPost2010PropOp28
 70
     1
102
RTVSPost2010Prop29
280
     1
102
RTVSPost2010PropOp29
 70
     1
102
RTVSPost2010Prop30
280
     1
102
RTVSPost2010PropOp30
 70
     1
102
RTVSPost2010Prop31
280
     0
102
RTVSPost2010PropOp31
 70
     1
102
RTVSPost2010Prop32
280
     0
102
RTVSPost2010PropOp32
 70
     1
102
RTVSPost2010Prop33
280
     0
102
RTVSPost2010PropOp33
 70
     1
102
RTVSPost2010Prop34
280
     0
102
RTVSPost2010PropOp34
 70
     1
102
RTVSPost2010Prop35
280
     0
102
RTVSPost2010PropOp35
 70
     1
102
RTVSPost2010Prop36
280
     0
102
RTVSPost2010PropOp36
 70
     1
102
RTVSPost2010Prop37
 90
       50
102
RTVSPost2010PropOp37
 70
     1
102
RTVSPost2010Prop38
140
0.0
102
RTVSPost2010PropOp38
 70
     1
102
RTVSPost2010Prop39
140
1.0
102
RTVSPost2010PropOp39
 70
     1
102
RTVSPost2010Prop40
 90
        0
102
RTVSPost2010PropOp40
 70
     1
102
RTVSPost2010Prop41ColorIndex
 90
       18
102
RTVSPost2010Prop41ColorRGB
 90
        0
102
RTVSPost2010PropOp41
 70
     1
102
RTVSPost2010Prop42
 90
       50
102
RTVSPost2010PropOp42
 70
     1
102
RTVSPost2010Prop43
 90
        3
102
RTVSPost2010PropOp43
 70
     1
102
RTVSPost2010Prop44ColorIndex
 90
        5
102
RTVSPost2010Prop44ColorRGB
 90
      255
102
RTVSPost2010PropOp44
 70
     1
102
RTVSPost2010Prop45
280
     0
102
RTVSPost2010PropOp45
 70
     1
102
RTVSPost2010Prop46
 90
       50
102
RTVSPost2010PropOp46
 70
     1
102
RTVSPost2010Prop47
 90
       50
102
RTVSPost2010PropOp47
 70
     1
102
RTVSPost2010Prop48
 90
       50
102
RTVSPost2010PropOp48
 70
     1
102
RTVSPost2010Prop49
280
     0
102
RTVSPost2010PropOp49
 70
     1
102
RTVSPost2010Prop50
 90
       50
102
RTVSPost2010PropOp50
 70
     1
102
RTVSPost2010Prop51ColorIndex
 90
      256
102
RTVSPost2010Prop51ColorRGB
 90
-16777216
102
RTVSPost2010PropOp51
 70
     0
102
RTVSPost2010Prop52
140
1.0
102
RTVSPost2010PropOp52
 70
     0
102
RTVSPost2010Prop53
 90
        2
102
RTVSPost2010PropOp53
 70
     1
102
RTVSPost2010Prop54
  1
strokes_ogs.tif
102
RTVSPost2010PropOp54
 70
     1
102
RTVSPost2010Prop55
280
     0
102
RTVSPost2010PropOp55
 70
     1
102
RTVSPost2010Prop56
140
1.0
102
RTVSPost2010PropOp56
 70
     1
102
RTVSPost2010Prop57
140
1.0
102
RTVSPost2010PropOp57
 70
     1
  0
XRECORD
  5
361F
102
{ACAD_REACTORS
330
33D4
102
}
330
33D4
100
AcDbXrecord
280
     1
102
RTVSPropertyOp0
 70
     1
102
RTVSPropertyOp1
 70
     1
102
RTVSPropertyOp2
 70
     1
102
RTVSPropertyOp3
 70
     1
102
RTVSPropertyOp4
 70
     1
102
RTVSPropertyOp5
 70
     1
102
RTVSPropertyOp6
 70
     1
102
RTVSPropertyOp7
 70
     1
102
RTVSPropertyOp8
 70
     1
102
RTVSPropertyOp9
 70
     1
102
RTVSPropertyOp10
 70
     1
102
RTVSPropertyOp11
 70
     1
102
RTVSPropertyOp12
 70
     1
102
RTVSPropertyOp13
 70
     1
102
RTVSPropertyOp14
 70
     1
102
RTVSPropertyOp15
 70
     1
102
RTVSPropertyOp16
 70
     1
102
RTVSPropertyOp17
 70
     1
102
RTVSPropertyOp18
 70
     1
102
RTVSPropertyOp19
 70
     1
102
RTVSPropertyOp20
 70
     1
102
RTVSPropertyOp21
 70
     1
102
RTVSPropertyOp22
 70
     1
102
RTVSPropertyOp23
 70
     1
102
RTVSPropertyOp24
 70
     1
102
RTVSPropertyOp25
 70
     1
102
RTVSPropertyOp26
 70
     1
102
RTVSPropertyOp27
 70
     1
102
RTVSPropertyOp28
 70
     1
102
RTVSPropertyOp29
 70
     1
102
RTVSPropertyOp30
 70
     1
102
RTVSPropertyOp31
 70
     1
102
RTVSPropertyOp32
 70
     1
102
RTVSPropertyOp33
 70
     1
102
RTVSPropertyOp34
 70
     1
102
RTVSPropertyOp35
 70
     1
102
RTVSPropertyOp36
 70
     1
102
RTVSPropertyOp37
 70
     1
102
RTVSPropertyOp38
 70
     1
102
RTVSPropertyOp39
 70
     1
102
RTVSPropertyOp40
 70
     1
102
RTVSPropertyOp41
 70
     1
102
RTVSPropertyOp42
 70
     1
102
RTVSPropertyOp43
 70
     1
102
RTVSPropertyOp44
 70
     1
102
RTVSPropertyOp45
 70
     1
102
RTVSPropertyOp46
 70
     1
102
RTVSPropertyOp47
 70
     1
102
RTVSPropertyOp48
 70
     1
102
RTVSPropertyOp49
 70
     1
102
RTVSPropertyOp50
 70
     1
102
RTVSPropertyOp51
 70
     0
102
RTVSPropertyOp52
 70
     0
102
RTVSPropertyOp53
 70
     1
102
RTVSPropertyOp54
 70
     1
102
RTVSPropertyOp55
 70
     1
102
RTVSPropertyOp56
 70
     1
102
RTVSPropertyOp57
 70
     1
102
RTVSPost2010Prop28
280
     0
102
RTVSPost2010PropOp28
 70
     1
102
RTVSPost2010Prop29
280
     1
102
RTVSPost2010PropOp29
 70
     1
102
RTVSPost2010Prop30
280
     1
102
RTVSPost2010PropOp30
 70
     1
102
RTVSPost2010Prop31
280
     0
102
RTVSPost2010PropOp31
 70
     1
102
RTVSPost2010Prop32
280
     0
102
RTVSPost2010PropOp32
 70
     1
102
RTVSPost2010Prop33
280
     0
102
RTVSPost2010PropOp33
 70
     1
102
RTVSPost2010Prop34
280
     0
102
RTVSPost2010PropOp34
 70
     1
102
RTVSPost2010Prop35
280
     0
102
RTVSPost2010PropOp35
 70
     1
102
RTVSPost2010Prop36
280
     0
102
RTVSPost2010PropOp36
 70
     1
102
RTVSPost2010Prop37
 90
       50
102
RTVSPost2010PropOp37
 70
     1
102
RTVSPost2010Prop38
140
0.0
102
RTVSPost2010PropOp38
 70
     1
102
RTVSPost2010Prop39
140
1.0
102
RTVSPost2010PropOp39
 70
     1
102
RTVSPost2010Prop40
 90
        0
102
RTVSPost2010PropOp40
 70
     1
102
RTVSPost2010Prop41ColorIndex
 90
       18
102
RTVSPost2010Prop41ColorRGB
 90
        0
102
RTVSPost2010PropOp41
 70
     1
102
RTVSPost2010Prop42
 90
       50
102
RTVSPost2010PropOp42
 70
     1
102
RTVSPost2010Prop43
 90
        3
102
RTVSPost2010PropOp43
 70
     1
102
RTVSPost2010Prop44ColorIndex
 90
        5
102
RTVSPost2010Prop44ColorRGB
 90
      255
102
RTVSPost2010PropOp44
 70
     1
102
RTVSPost2010Prop45
280
     0
102
RTVSPost2010PropOp45
 70
     1
102
RTVSPost2010Prop46
 90
       50
102
RTVSPost2010PropOp46
 70
     1
102
RTVSPost2010Prop47
 90
       50
102
RTVSPost2010PropOp47
 70
     1
102
RTVSPost2010Prop48
 90
       50
102
RTVSPost2010PropOp48
 70
     1
102
RTVSPost2010Prop49
280
     0
102
RTVSPost2010PropOp49
 70
     1
102
RTVSPost2010Prop50
 90
       50
102
RTVSPost2010PropOp50
 70
     1
102
RTVSPost2010Prop51ColorIndex
 90
      256
102
RTVSPost2010Prop51ColorRGB
 90
-16777216
102
RTVSPost2010PropOp51
 70
     0
102
RTVSPost2010Prop52
140
1.0
102
RTVSPost2010PropOp52
 70
     0
102
RTVSPost2010Prop53
 90
        2
102
RTVSPost2010PropOp53
 70
     1
102
RTVSPost2010Prop54
  1
strokes_ogs.tif
102
RTVSPost2010PropOp54
 70
     1
102
RTVSPost2010Prop55
280
     0
102
RTVSPost2010PropOp55
 70
     1
102
RTVSPost2010Prop56
140
1.0
102
RTVSPost2010PropOp56
 70
     1
102
RTVSPost2010Prop57
140
1.0
102
RTVSPost2010PropOp57
 70
     1
  0
XRECORD
  5
3620
102
{ACAD_REACTORS
330
33D6
102
}
330
33D6
100
AcDbXrecord
280
     1
102
RTVSPropertyOp0
 70
     1
102
RTVSPropertyOp1
 70
     1
102
RTVSPropertyOp2
 70
     1
102
RTVSPropertyOp3
 70
     1
102
RTVSPropertyOp4
 70
     1
102
RTVSPropertyOp5
 70
     1
102
RTVSPropertyOp6
 70
     1
102
RTVSPropertyOp7
 70
     1
102
RTVSPropertyOp8
 70
     1
102
RTVSPropertyOp9
 70
     1
102
RTVSPropertyOp10
 70
     1
102
RTVSPropertyOp11
 70
     1
102
RTVSPropertyOp12
 70
     1
102
RTVSPropertyOp13
 70
     1
102
RTVSPropertyOp14
 70
     1
102
RTVSPropertyOp15
 70
     1
102
RTVSPropertyOp16
 70
     1
102
RTVSPropertyOp17
 70
     1
102
RTVSPropertyOp18
 70
     1
102
RTVSPropertyOp19
 70
     1
102
RTVSPropertyOp20
 70
     1
102
RTVSPropertyOp21
 70
     1
102
RTVSPropertyOp22
 70
     1
102
RTVSPropertyOp23
 70
     1
102
RTVSPropertyOp24
 70
     1
102
RTVSPropertyOp25
 70
     1
102
RTVSPropertyOp26
 70
     1
102
RTVSPropertyOp27
 70
     1
102
RTVSPropertyOp28
 70
     1
102
RTVSPropertyOp29
 70
     1
102
RTVSPropertyOp30
 70
     1
102
RTVSPropertyOp31
 70
     1
102
RTVSPropertyOp32
 70
     1
102
RTVSPropertyOp33
 70
     1
102
RTVSPropertyOp34
 70
     1
102
RTVSPropertyOp35
 70
     1
102
RTVSPropertyOp36
 70
     1
102
RTVSPropertyOp37
 70
     1
102
RTVSPropertyOp38
 70
     1
102
RTVSPropertyOp39
 70
     1
102
RTVSPropertyOp40
 70
     1
102
RTVSPropertyOp41
 70
     1
102
RTVSPropertyOp42
 70
     1
102
RTVSPropertyOp43
 70
     1
102
RTVSPropertyOp44
 70
     1
102
RTVSPropertyOp45
 70
     1
102
RTVSPropertyOp46
 70
     1
102
RTVSPropertyOp47
 70
     1
102
RTVSPropertyOp48
 70
     1
102
RTVSPropertyOp49
 70
     1
102
RTVSPropertyOp50
 70
     1
102
RTVSPropertyOp51
 70
     0
102
RTVSPropertyOp52
 70
     0
102
RTVSPropertyOp53
 70
     1
102
RTVSPropertyOp54
 70
     1
102
RTVSPropertyOp55
 70
     1
102
RTVSPropertyOp56
 70
     1
102
RTVSPropertyOp57
 70
     1
102
RTVSPost2010Prop28
280
     0
102
RTVSPost2010PropOp28
 70
     1
102
RTVSPost2010Prop29
280
     1
102
RTVSPost2010PropOp29
 70
     1
102
RTVSPost2010Prop30
280
     1
102
RTVSPost2010PropOp30
 70
     1
102
RTVSPost2010Prop31
280
     0
102
RTVSPost2010PropOp31
 70
     1
102
RTVSPost2010Prop32
280
     0
102
RTVSPost2010PropOp32
 70
     1
102
RTVSPost2010Prop33
280
     0
102
RTVSPost2010PropOp33
 70
     1
102
RTVSPost2010Prop34
280
     0
102
RTVSPost2010PropOp34
 70
     1
102
RTVSPost2010Prop35
280
     0
102
RTVSPost2010PropOp35
 70
     1
102
RTVSPost2010Prop36
280
     0
102
RTVSPost2010PropOp36
 70
     1
102
RTVSPost2010Prop37
 90
       50
102
RTVSPost2010PropOp37
 70
     1
102
RTVSPost2010Prop38
140
0.0
102
RTVSPost2010PropOp38
 70
     1
102
RTVSPost2010Prop39
140
1.0
102
RTVSPost2010PropOp39
 70
     1
102
RTVSPost2010Prop40
 90
        0
102
RTVSPost2010PropOp40
 70
     1
102
RTVSPost2010Prop41ColorIndex
 90
       18
102
RTVSPost2010Prop41ColorRGB
 90
        0
102
RTVSPost2010PropOp41
 70
     1
102
RTVSPost2010Prop42
 90
       50
102
RTVSPost2010PropOp42
 70
     1
102
RTVSPost2010Prop43
 90
        3
102
RTVSPost2010PropOp43
 70
     1
102
RTVSPost2010Prop44ColorIndex
 90
        5
102
RTVSPost2010Prop44ColorRGB
 90
      255
102
RTVSPost2010PropOp44
 70
     1
102
RTVSPost2010Prop45
280
     0
102
RTVSPost2010PropOp45
 70
     1
102
RTVSPost2010Prop46
 90
       50
102
RTVSPost2010PropOp46
 70
     1
102
RTVSPost2010Prop47
 90
       50
102
RTVSPost2010PropOp47
 70
     1
102
RTVSPost2010Prop48
 90
       50
102
RTVSPost2010PropOp48
 70
     1
102
RTVSPost2010Prop49
280
     0
102
RTVSPost2010PropOp49
 70
     1
102
RTVSPost2010Prop50
 90
       50
102
RTVSPost2010PropOp50
 70
     1
102
RTVSPost2010Prop51ColorIndex
 90
      256
102
RTVSPost2010Prop51ColorRGB
 90
-16777216
102
RTVSPost2010PropOp51
 70
     0
102
RTVSPost2010Prop52
140
1.0
102
RTVSPost2010PropOp52
 70
     0
102
RTVSPost2010Prop53
 90
        2
102
RTVSPost2010PropOp53
 70
     1
102
RTVSPost2010Prop54
  1
strokes_ogs.tif
102
RTVSPost2010PropOp54
 70
     1
102
RTVSPost2010Prop55
280
     0
102
RTVSPost2010PropOp55
 70
     1
102
RTVSPost2010Prop56
140
1.0
102
RTVSPost2010PropOp56
 70
     1
102
RTVSPost2010Prop57
140
1.0
102
RTVSPost2010PropOp57
 70
     1
  0
XRECORD
  5
3621
102
{ACAD_REACTORS
330
33D8
102
}
330
33D8
100
AcDbXrecord
280
     1
102
RTVSPropertyOp0
 70
     1
102
RTVSPropertyOp1
 70
     1
102
RTVSPropertyOp2
 70
     1
102
RTVSPropertyOp3
 70
     1
102
RTVSPropertyOp4
 70
     1
102
RTVSPropertyOp5
 70
     1
102
RTVSPropertyOp6
 70
     1
102
RTVSPropertyOp7
 70
     1
102
RTVSPropertyOp8
 70
     1
102
RTVSPropertyOp9
 70
     1
102
RTVSPropertyOp10
 70
     1
102
RTVSPropertyOp11
 70
     1
102
RTVSPropertyOp12
 70
     1
102
RTVSPropertyOp13
 70
     1
102
RTVSPropertyOp14
 70
     1
102
RTVSPropertyOp15
 70
     1
102
RTVSPropertyOp16
 70
     1
102
RTVSPropertyOp17
 70
     1
102
RTVSPropertyOp18
 70
     1
102
RTVSPropertyOp19
 70
     1
102
RTVSPropertyOp20
 70
     1
102
RTVSPropertyOp21
 70
     1
102
RTVSPropertyOp22
 70
     1
102
RTVSPropertyOp23
 70
     1
102
RTVSPropertyOp24
 70
     1
102
RTVSPropertyOp25
 70
     1
102
RTVSPropertyOp26
 70
     1
102
RTVSPropertyOp27
 70
     1
102
RTVSPropertyOp28
 70
     1
102
RTVSPropertyOp29
 70
     1
102
RTVSPropertyOp30
 70
     1
102
RTVSPropertyOp31
 70
     1
102
RTVSPropertyOp32
 70
     1
102
RTVSPropertyOp33
 70
     1
102
RTVSPropertyOp34
 70
     1
102
RTVSPropertyOp35
 70
     1
102
RTVSPropertyOp36
 70
     1
102
RTVSPropertyOp37
 70
     1
102
RTVSPropertyOp38
 70
     1
102
RTVSPropertyOp39
 70
     1
102
RTVSPropertyOp40
 70
     1
102
RTVSPropertyOp41
 70
     1
102
RTVSPropertyOp42
 70
     1
102
RTVSPropertyOp43
 70
     1
102
RTVSPropertyOp44
 70
     1
102
RTVSPropertyOp45
 70
     1
102
RTVSPropertyOp46
 70
     1
102
RTVSPropertyOp47
 70
     1
102
RTVSPropertyOp48
 70
     1
102
RTVSPropertyOp49
 70
     1
102
RTVSPropertyOp50
 70
     1
102
RTVSPropertyOp51
 70
     0
102
RTVSPropertyOp52
 70
     0
102
RTVSPropertyOp53
 70
     1
102
RTVSPropertyOp54
 70
     1
102
RTVSPropertyOp55
 70
     1
102
RTVSPropertyOp56
 70
     1
102
RTVSPropertyOp57
 70
     1
102
RTVSPost2010Prop28
280
     0
102
RTVSPost2010PropOp28
 70
     1
102
RTVSPost2010Prop29
280
     1
102
RTVSPost2010PropOp29
 70
     1
102
RTVSPost2010Prop30
280
     1
102
RTVSPost2010PropOp30
 70
     1
102
RTVSPost2010Prop31
280
     0
102
RTVSPost2010PropOp31
 70
     1
102
RTVSPost2010Prop32
280
     0
102
RTVSPost2010PropOp32
 70
     1
102
RTVSPost2010Prop33
280
     0
102
RTVSPost2010PropOp33
 70
     1
102
RTVSPost2010Prop34
280
     0
102
RTVSPost2010PropOp34
 70
     1
102
RTVSPost2010Prop35
280
     0
102
RTVSPost2010PropOp35
 70
     1
102
RTVSPost2010Prop36
280
     0
102
RTVSPost2010PropOp36
 70
     1
102
RTVSPost2010Prop37
 90
       50
102
RTVSPost2010PropOp37
 70
     1
102
RTVSPost2010Prop38
140
0.0
102
RTVSPost2010PropOp38
 70
     1
102
RTVSPost2010Prop39
140
1.0
102
RTVSPost2010PropOp39
 70
     1
102
RTVSPost2010Prop40
 90
        0
102
RTVSPost2010PropOp40
 70
     1
102
RTVSPost2010Prop41ColorIndex
 90
       18
102
RTVSPost2010Prop41ColorRGB
 90
        0
102
RTVSPost2010PropOp41
 70
     1
102
RTVSPost2010Prop42
 90
       50
102
RTVSPost2010PropOp42
 70
     1
102
RTVSPost2010Prop43
 90
        3
102
RTVSPost2010PropOp43
 70
     1
102
RTVSPost2010Prop44ColorIndex
 90
        5
102
RTVSPost2010Prop44ColorRGB
 90
      255
102
RTVSPost2010PropOp44
 70
     1
102
RTVSPost2010Prop45
280
     0
102
RTVSPost2010PropOp45
 70
     1
102
RTVSPost2010Prop46
 90
       50
102
RTVSPost2010PropOp46
 70
     1
102
RTVSPost2010Prop47
 90
       50
102
RTVSPost2010PropOp47
 70
     1
102
RTVSPost2010Prop48
 90
       50
102
RTVSPost2010PropOp48
 70
     1
102
RTVSPost2010Prop49
280
     0
102
RTVSPost2010PropOp49
 70
     1
102
RTVSPost2010Prop50
 90
       50
102
RTVSPost2010PropOp50
 70
     1
102
RTVSPost2010Prop51ColorIndex
 90
      256
102
RTVSPost2010Prop51ColorRGB
 90
-16777216
102
RTVSPost2010PropOp51
 70
     0
102
RTVSPost2010Prop52
140
1.0
102
RTVSPost2010PropOp52
 70
     0
102
RTVSPost2010Prop53
 90
        2
102
RTVSPost2010PropOp53
 70
     1
102
RTVSPost2010Prop54
  1
strokes_ogs.tif
102
RTVSPost2010PropOp54
 70
     1
102
RTVSPost2010Prop55
280
     0
102
RTVSPost2010PropOp55
 70
     1
102
RTVSPost2010Prop56
140
1.0
102
RTVSPost2010PropOp56
 70
     1
102
RTVSPost2010Prop57
140
1.0
102
RTVSPost2010PropOp57
 70
     1
  0
XRECORD
  5
3622
102
{ACAD_REACTORS
330
33DA
102
}
330
33DA
100
AcDbXrecord
280
     1
102
RTVSPropertyOp0
 70
     1
102
RTVSPropertyOp1
 70
     1
102
RTVSPropertyOp2
 70
     1
102
RTVSPropertyOp3
 70
     1
102
RTVSPropertyOp4
 70
     1
102
RTVSPropertyOp5
 70
     1
102
RTVSPropertyOp6
 70
     1
102
RTVSPropertyOp7
 70
     1
102
RTVSPropertyOp8
 70
     1
102
RTVSPropertyOp9
 70
     1
102
RTVSPropertyOp10
 70
     1
102
RTVSPropertyOp11
 70
     1
102
RTVSPropertyOp12
 70
     1
102
RTVSPropertyOp13
 70
     1
102
RTVSPropertyOp14
 70
     1
102
RTVSPropertyOp15
 70
     1
102
RTVSPropertyOp16
 70
     1
102
RTVSPropertyOp17
 70
     1
102
RTVSPropertyOp18
 70
     1
102
RTVSPropertyOp19
 70
     1
102
RTVSPropertyOp20
 70
     1
102
RTVSPropertyOp21
 70
     1
102
RTVSPropertyOp22
 70
     1
102
RTVSPropertyOp23
 70
     1
102
RTVSPropertyOp24
 70
     1
102
RTVSPropertyOp25
 70
     1
102
RTVSPropertyOp26
 70
     1
102
RTVSPropertyOp27
 70
     1
102
RTVSPropertyOp28
 70
     1
102
RTVSPropertyOp29
 70
     1
102
RTVSPropertyOp30
 70
     1
102
RTVSPropertyOp31
 70
     1
102
RTVSPropertyOp32
 70
     1
102
RTVSPropertyOp33
 70
     1
102
RTVSPropertyOp34
 70
     1
102
RTVSPropertyOp35
 70
     1
102
RTVSPropertyOp36
 70
     1
102
RTVSPropertyOp37
 70
     1
102
RTVSPropertyOp38
 70
     1
102
RTVSPropertyOp39
 70
     1
102
RTVSPropertyOp40
 70
     1
102
RTVSPropertyOp41
 70
     1
102
RTVSPropertyOp42
 70
     1
102
RTVSPropertyOp43
 70
     1
102
RTVSPropertyOp44
 70
     1
102
RTVSPropertyOp45
 70
     1
102
RTVSPropertyOp46
 70
     1
102
RTVSPropertyOp47
 70
     1
102
RTVSPropertyOp48
 70
     1
102
RTVSPropertyOp49
 70
     1
102
RTVSPropertyOp50
 70
     1
102
RTVSPropertyOp51
 70
     0
102
RTVSPropertyOp52
 70
     0
102
RTVSPropertyOp53
 70
     1
102
RTVSPropertyOp54
 70
     1
102
RTVSPropertyOp55
 70
     1
102
RTVSPropertyOp56
 70
     1
102
RTVSPropertyOp57
 70
     1
102
RTVSPost2010Prop28
280
     0
102
RTVSPost2010PropOp28
 70
     1
102
RTVSPost2010Prop29
280
     1
102
RTVSPost2010PropOp29
 70
     1
102
RTVSPost2010Prop30
280
     1
102
RTVSPost2010PropOp30
 70
     1
102
RTVSPost2010Prop31
280
     0
102
RTVSPost2010PropOp31
 70
     1
102
RTVSPost2010Prop32
280
     0
102
RTVSPost2010PropOp32
 70
     1
102
RTVSPost2010Prop33
280
     0
102
RTVSPost2010PropOp33
 70
     1
102
RTVSPost2010Prop34
280
     0
102
RTVSPost2010PropOp34
 70
     1
102
RTVSPost2010Prop35
280
     0
102
RTVSPost2010PropOp35
 70
     1
102
RTVSPost2010Prop36
280
     0
102
RTVSPost2010PropOp36
 70
     1
102
RTVSPost2010Prop37
 90
       50
102
RTVSPost2010PropOp37
 70
     1
102
RTVSPost2010Prop38
140
0.0
102
RTVSPost2010PropOp38
 70
     1
102
RTVSPost2010Prop39
140
1.0
102
RTVSPost2010PropOp39
 70
     1
102
RTVSPost2010Prop40
 90
        0
102
RTVSPost2010PropOp40
 70
     1
102
RTVSPost2010Prop41ColorIndex
 90
       18
102
RTVSPost2010Prop41ColorRGB
 90
        0
102
RTVSPost2010PropOp41
 70
     1
102
RTVSPost2010Prop42
 90
       50
102
RTVSPost2010PropOp42
 70
     1
102
RTVSPost2010Prop43
 90
        3
102
RTVSPost2010PropOp43
 70
     1
102
RTVSPost2010Prop44ColorIndex
 90
        5
102
RTVSPost2010Prop44ColorRGB
 90
      255
102
RTVSPost2010PropOp44
 70
     1
102
RTVSPost2010Prop45
280
     0
102
RTVSPost2010PropOp45
 70
     1
102
RTVSPost2010Prop46
 90
       50
102
RTVSPost2010PropOp46
 70
     1
102
RTVSPost2010Prop47
 90
       50
102
RTVSPost2010PropOp47
 70
     1
102
RTVSPost2010Prop48
 90
       50
102
RTVSPost2010PropOp48
 70
     1
102
RTVSPost2010Prop49
280
     0
102
RTVSPost2010PropOp49
 70
     1
102
RTVSPost2010Prop50
 90
       50
102
RTVSPost2010PropOp50
 70
     1
102
RTVSPost2010Prop51ColorIndex
 90
      256
102
RTVSPost2010Prop51ColorRGB
 90
-16777216
102
RTVSPost2010PropOp51
 70
     0
102
RTVSPost2010Prop52
140
1.0
102
RTVSPost2010PropOp52
 70
     0
102
RTVSPost2010Prop53
 90
        2
102
RTVSPost2010PropOp53
 70
     1
102
RTVSPost2010Prop54
  1
strokes_ogs.tif
102
RTVSPost2010PropOp54
 70
     1
102
RTVSPost2010Prop55
280
     0
102
RTVSPost2010PropOp55
 70
     1
102
RTVSPost2010Prop56
140
1.0
102
RTVSPost2010PropOp56
 70
     1
102
RTVSPost2010Prop57
140
1.0
102
RTVSPost2010PropOp57
 70
     1
  0
ENDSEC
  0
EOF
