  0
SECTION
  2
HEADER
  9
$ACADVER
  1
AC1032
  9
$ACADMAINTVER
 90
        4
  9
$DWGCODEPAGE
  3
ANSI_936
  9
$LASTSAVEDBY
  1
Austin.Wang
  9
$REQUIREDVERSIONS
160
                 0
  9
$INSBASE
 10
0.0
 20
0.0
 30
0.0
  9
$EXTMIN
 10
-11438.06846117738
 20
-92110.00481576974
 30
0.0
  9
$EXTMAX
 10
-10502.51169972852
 20
-90345.26783270665
 30
0.0
  9
$LIMMIN
 10
0.0
 20
0.0
  9
$LIMMAX
 10
420.0
 20
297.0
  9
$ORTHOMODE
 70
     1
  9
$REGENMODE
 70
     1
  9
$FILLMODE
 70
     1
  9
$QTEXTMODE
 70
     0
  9
$MIRRTEXT
 70
     0
  9
$LTSCALE
 40
1.0
  9
$ATTMODE
 70
     1
  9
$TEXTSIZE
 40
2.5
  9
$TRACEWID
 40
1.0
  9
$TEXTSTYLE
  7
Standard
  9
$CLAYER
  8
0
  9
$CELTYPE
  6
ByLayer
  9
$CECOLOR
 62
   256
  9
$CELTSCALE
 40
1.0
  9
$DISPSILH
 70
     0
  9
$DIMSCALE
 40
3.0
  9
$DIMASZ
 40
2.5
  9
$DIMEXO
 40
0.0
  9
$DIMDLI
 40
3.75
  9
$DIMRND
 40
0.0
  9
$DIMDLE
 40
0.0
  9
$DIMEXE
 40
2.0
  9
$DIMTP
 40
0.0
  9
$DIMTM
 40
0.0
  9
$DIMTXT
 40
3.0
  9
$DIMCEN
 40
0.0
  9
$DIMTSZ
 40
0.0
  9
$DIMTOL
 70
     0
  9
$DIMLIM
 70
     0
  9
$DIMTIH
 70
     0
  9
$DIMTOH
 70
     1
  9
$DIMSE1
 70
     0
  9
$DIMSE2
 70
     0
  9
$DIMTAD
 70
     0
  9
$DIMZIN
 70
     8
  9
$DIMBLK
  1

  9
$DIMASO
 70
     1
  9
$DIMSHO
 70
     1
  9
$DIMPOST
  1

  9
$DIMAPOST
  1

  9
$DIMALT
 70
     0
  9
$DIMALTD
 70
     3
  9
$DIMALTF
 40
0.03937007874016
  9
$DIMLFAC
 40
1.0
  9
$DIMTOFL
 70
     0
  9
$DIMTVP
 40
0.0
  9
$DIMTIX
 70
     0
  9
$DIMSOXD
 70
     0
  9
$DIMSAH
 70
     0
  9
$DIMBLK1
  1

  9
$DIMBLK2
  1

  9
$DIMSTYLE
  2
副本 3.0
  9
$DIMCLRD
 70
     0
  9
$DIMCLRE
 70
     7
  9
$DIMCLRT
 70
     0
  9
$DIMTFAC
 40
1.0
  9
$DIMGAP
 40
0.8
  9
$DIMJUST
 70
     0
  9
$DIMSD1
 70
     0
  9
$DIMSD2
 70
     0
  9
$DIMTOLJ
 70
     0
  9
$DIMTZIN
 70
     8
  9
$DIMALTZ
 70
     0
  9
$DIMALTTZ
 70
     0
  9
$DIMUPT
 70
     0
  9
$DIMDEC
 70
     0
  9
$DIMTDEC
 70
     0
  9
$DIMALTU
 70
     2
  9
$DIMALTTD
 70
     3
  9
$DIMTXSTY
  7
Standard
  9
$DIMAUNIT
 70
     0
  9
$DIMADEC
 70
     0
  9
$DIMALTRND
 40
0.0
  9
$DIMAZIN
 70
     0
  9
$DIMDSEP
 70
    44
  9
$DIMATFIT
 70
     3
  9
$DIMFRAC
 70
     0
  9
$DIMLDRBLK
  1

  9
$DIMLUNIT
 70
     2
  9
$DIMLWD
 70
    -2
  9
$DIMLWE
 70
    -2
  9
$DIMTMOVE
 70
     0
  9
$DIMFXL
 40
1.0
  9
$DIMFXLON
 70
     0
  9
$DIMJOGANG
 40
0.7853981633974483
  9
$DIMTFILL
 70
     0
  9
$DIMTFILLCLR
 70
     0
  9
$DIMARCSYM
 70
     0
  9
$DIMLTYPE
  6

  9
$DIMLTEX1
  6

  9
$DIMLTEX2
  6

  9
$DIMTXTDIRECTION
 70
     0
  9
$LUNITS
 70
     2
  9
$LUPREC
 70
     4
  9
$SKETCHINC
 40
1.0
  9
$FILLETRAD
 40
1.5
  9
$AUNITS
 70
     0
  9
$AUPREC
 70
     0
  9
$MENU
  1
.
  9
$ELEVATION
 40
0.0
  9
$PELEVATION
 40
0.0
  9
$THICKNESS
 40
0.0
  9
$LIMCHECK
 70
     0
  9
$CHAMFERA
 40
0.0
  9
$CHAMFERB
 40
0.0
  9
$CHAMFERC
 40
0.0
  9
$CHAMFERD
 40
0.0
  9
$SKPOLY
 70
     0
  9
$TDCREATE
 40
2453354.050451389
  9
$TDUCREATE
 40
2453353.717125822
  9
$TDUPDATE
 40
2460793.607268518
  9
$TDUUPDATE
 40
2460793.273935185
  9
$TDINDWG
 40
4290.1884734491
  9
$TDUSRTIMER
 40
4290.1884714120
  9
$USRTIMER
 70
     1
  9
$ANGBASE
 50
0.0
  9
$ANGDIR
 70
     0
  9
$PDMODE
 70
     0
  9
$PDSIZE
 40
0.0
  9
$PLINEWID
 40
0.0
  9
$SPLFRAME
 70
     0
  9
$SPLINETYPE
 70
     6
  9
$SPLINESEGS
 70
     8
  9
$HANDSEED
  5
20E6
  9
$SURFTAB1
 70
     6
  9
$SURFTAB2
 70
     6
  9
$SURFTYPE
 70
     6
  9
$SURFU
 70
     6
  9
$SURFV
 70
     6
  9
$UCSBASE
  2

  9
$UCSNAME
  2

  9
$UCSORG
 10
0.0
 20
0.0
 30
0.0
  9
$UCSXDIR
 10
1.0
 20
0.0
 30
0.0
  9
$UCSYDIR
 10
0.0
 20
1.0
 30
0.0
  9
$UCSORTHOREF
  2

  9
$UCSORTHOVIEW
 70
     0
  9
$UCSORGTOP
 10
0.0
 20
0.0
 30
0.0
  9
$UCSORGBOTTOM
 10
0.0
 20
0.0
 30
0.0
  9
$UCSORGLEFT
 10
0.0
 20
0.0
 30
0.0
  9
$UCSORGRIGHT
 10
0.0
 20
0.0
 30
0.0
  9
$UCSORGFRONT
 10
0.0
 20
0.0
 30
0.0
  9
$UCSORGBACK
 10
0.0
 20
0.0
 30
0.0
  9
$PUCSBASE
  2

  9
$PUCSNAME
  2

  9
$PUCSORG
 10
0.0
 20
0.0
 30
0.0
  9
$PUCSXDIR
 10
1.0
 20
0.0
 30
0.0
  9
$PUCSYDIR
 10
0.0
 20
1.0
 30
0.0
  9
$PUCSORTHOREF
  2

  9
$PUCSORTHOVIEW
 70
     0
  9
$PUCSORGTOP
 10
0.0
 20
0.0
 30
0.0
  9
$PUCSORGBOTTOM
 10
0.0
 20
0.0
 30
0.0
  9
$PUCSORGLEFT
 10
0.0
 20
0.0
 30
0.0
  9
$PUCSORGRIGHT
 10
0.0
 20
0.0
 30
0.0
  9
$PUCSORGFRONT
 10
0.0
 20
0.0
 30
0.0
  9
$PUCSORGBACK
 10
0.0
 20
0.0
 30
0.0
  9
$USERI1
 70
     2
  9
$USERI2
 70
     0
  9
$USERI3
 70
     0
  9
$USERI4
 70
     0
  9
$USERI5
 70
     0
  9
$USERR1
 40
100.0
  9
$USERR2
 40
0.0
  9
$USERR3
 40
0.0
  9
$USERR4
 40
0.0
  9
$USERR5
 40
0.0
  9
$WORLDVIEW
 70
     1
  9
$SHADEDGE
 70
     3
  9
$SHADEDIF
 70
    70
  9
$TILEMODE
 70
     1
  9
$MAXACTVP
 70
    64
  9
$PINSBASE
 10
0.0
 20
0.0
 30
0.0
  9
$PLIMCHECK
 70
     0
  9
$PEXTMIN
 10
0.0
 20
0.0
 30
0.0
  9
$PEXTMAX
 10
0.0
 20
0.0
 30
0.0
  9
$PLIMMIN
 10
0.0
 20
0.0
  9
$PLIMMAX
 10
12.0
 20
9.0
  9
$UNITMODE
 70
     0
  9
$VISRETAIN
 70
     1
  9
$PLINEGEN
 70
     0
  9
$PSLTSCALE
 70
     1
  9
$TREEDEPTH
 70
  3020
  9
$CMLSTYLE
  2
Standard
  9
$CMLJUST
 70
     0
  9
$CMLSCALE
 40
20.0
  9
$PROXYGRAPHICS
 70
     1
  9
$MEASUREMENT
 70
     1
  9
$CELWEIGHT
370
    -1
  9
$ENDCAPS
280
     0
  9
$JOINSTYLE
280
     0
  9
$LWDISPLAY
290
     0
  9
$INSUNITS
 70
     4
  9
$HYPERLINKBASE
  1

  9
$STYLESHEET
  1

  9
$XEDIT
290
     1
  9
$CEPSNTYPE
380
     0
  9
$PSTYLEMODE
290
     1
  9
$FINGERPRINTGUID
  2
{938E95E8-385B-479D-9FDE-D533A5566982}
  9
$VERSIONGUID
  2
{5B1CD4CD-3A16-B64F-9D6A-5557938F3489}
  9
$EXTNAMES
290
     1
  9
$PSVPSCALE
 40
0.0
  9
$OLESTARTUP
290
     0
  9
$SORTENTS
280
   127
  9
$INDEXCTL
280
     0
  9
$HIDETEXT
280
     1
  9
$XCLIPFRAME
280
     2
  9
$HALOGAP
280
     0
  9
$OBSCOLOR
 70
   257
  9
$OBSLTYPE
280
     0
  9
$INTERSECTIONDISPLAY
280
     0
  9
$INTERSECTIONCOLOR
 70
   257
  9
$DIMASSOC
280
     2
  9
$PROJECTNAME
  1

  9
$CAMERADISPLAY
290
     0
  9
$LENSLENGTH
 40
50.0
  9
$CAMERAHEIGHT
 40
0.0
  9
$STEPSPERSEC
 40
2.0
  9
$STEPSIZE
 40
6.0
  9
$3DDWFPREC
 40
2.0
  9
$PSOLWIDTH
 40
0.25
  9
$PSOLHEIGHT
 40
4.0
  9
$LOFTANG1
 40
1.570796326794896
  9
$LOFTANG2
 40
1.570796326794896
  9
$LOFTMAG1
 40
0.0
  9
$LOFTMAG2
 40
0.0
  9
$LOFTPARAM
 70
     7
  9
$LOFTNORMALS
280
     1
  9
$LATITUDE
 40
37.795
  9
$LONGITUDE
 40
-122.394
  9
$NORTHDIRECTION
 40
0.0
  9
$TIMEZONE
 70
 -8000
  9
$LIGHTGLYPHDISPLAY
280
     1
  9
$TILEMODELIGHTSYNCH
280
     1
  9
$CMATERIAL
347
41
  9
$SOLIDHIST
280
     1
  9
$SHOWHIST
280
     1
  9
$DWFFRAME
280
     2
  9
$DGNFRAME
280
     2
  9
$REALWORLDSCALE
290
     1
  9
$INTERFERECOLOR
 62
   256
  9
$INTERFEREOBJVS
345
4E
  9
$INTERFEREVPVS
346
20C9
  9
$CSHADOW
280
     0
  9
$SHADOWPLANELOCATION
 40
0.0
  0
ENDSEC
  0
SECTION
  2
CLASSES
  0
CLASS
  1
ACDBDICTIONARYWDFLT
  2
AcDbDictionaryWithDefault
  3
ObjectDBX Classes
 90
        0
 91
        1
280
     0
281
     0
  0
CLASS
  1
ACDBPLACEHOLDER
  2
AcDbPlaceHolder
  3
ObjectDBX Classes
 90
        0
 91
        1
280
     0
281
     0
  0
CLASS
  1
LAYOUT
  2
AcDbLayout
  3
ObjectDBX Classes
 90
        0
 91
        2
280
     0
281
     0
  0
CLASS
  1
DICTIONARYVAR
  2
AcDbDictionaryVar
  3
ObjectDBX Classes
 90
        0
 91
       12
280
     0
281
     0
  0
CLASS
  1
TABLESTYLE
  2
AcDbTableStyle
  3
ObjectDBX Classes
 90
     4095
 91
        2
280
     0
281
     0
  0
CLASS
  1
MATERIAL
  2
AcDbMaterial
  3
ObjectDBX Classes
 90
     1153
 91
        3
280
     0
281
     0
  0
CLASS
  1
CELLSTYLEMAP
  2
AcDbCellStyleMap
  3
ObjectDBX Classes
 90
     1152
 91
        4
280
     1
281
     0
  0
CLASS
  1
MLEADERSTYLE
  2
AcDbMLeaderStyle
  3
ACDB_MLEADERSTYLE_CLASS
 90
     4095
 91
        3
280
     1
281
     0
  0
CLASS
  1
SCALE
  2
AcDbScale
  3
ObjectDBX Classes
 90
     1153
 91
       34
280
     1
281
     0
  0
CLASS
  1
VISUALSTYLE
  2
AcDbVisualStyle
  3
ObjectDBX Classes
 90
     4095
 91
       26
280
     0
281
     0
  0
CLASS
  1
SORTENTSTABLE
  2
AcDbSortentsTable
  3
ObjectDBX Classes
 90
        0
 91
        1
280
     0
281
     0
  0
CLASS
  1
ACDBSECTIONVIEWSTYLE
  2
AcDbSectionViewStyle
  3
ObjectDBX Classes
 90
     1025
 91
        1
280
     0
281
     0
  0
CLASS
  1
ACDBDETAILVIEWSTYLE
  2
AcDbDetailViewStyle
  3
ObjectDBX Classes
 90
     1025
 91
        1
280
     0
281
     0
  0
ENDSEC
  0
SECTION
  2
TABLES
  0
TABLE
  2
VPORT
  5
8
330
0
100
AcDbSymbolTable
 70
     1
  0
VPORT
  5
97
330
8
100
AcDbSymbolTableRecord
100
AcDbViewportTableRecord
  2
*Active
 70
     0
 10
0.0
 20
0.0
 11
1.0
 21
1.0
 12
-33267.07786703011
 22
-28668.06259116397
 13
0.0
 23
0.0
 14
10.0
 24
10.0
 15
10.0
 25
10.0
 16
0.0
 26
0.0
 36
1567.560529781698
 17
22263.9010231428
 27
-62230.55161862387
 37
0.0
 40
800.6073609753293
 41
2.166342412451361
 42
50.0
 43
0.0
 44
0.0
 50
0.0
 51
0.0
 71
    16
 72
  1000
 73
     1
 74
     1
 75
     0
 76
     0
 77
     0
 78
     2
281
     3
 65
     1
110
0.0
120
0.0
130
0.0
111
1.0
121
0.0
131
0.0
112
0.0
122
1.0
132
0.0
 79
     0
146
0.0
348
2E
 60
     3
 61
     5
292
     1
282
     1
141
0.0
142
0.0
1001
ACAD_NAV_VCDISPLAY
1070
     3
  0
ENDTAB
  0
TABLE
  2
LTYPE
  5
5
330
0
100
AcDbSymbolTable
 70
     2
  0
LTYPE
  5
14
330
5
100
AcDbSymbolTableRecord
100
AcDbLinetypeTableRecord
  2
ByBlock
 70
     0
  3

 72
    65
 73
     0
 40
0.0
  0
LTYPE
  5
15
330
5
100
AcDbSymbolTableRecord
100
AcDbLinetypeTableRecord
  2
ByLayer
 70
     0
  3

 72
    65
 73
     0
 40
0.0
  0
LTYPE
  5
16
330
5
100
AcDbSymbolTableRecord
100
AcDbLinetypeTableRecord
  2
Continuous
 70
     0
  3
Solid line
 72
    65
 73
     0
 40
0.0
  0
ENDTAB
  0
TABLE
  2
LAYER
  5
2
330
0
100
AcDbSymbolTable
 70
     3
  0
LAYER
  5
10
102
{ACAD_XDICTIONARY
360
205E
102
}
330
2
100
AcDbSymbolTableRecord
100
AcDbLayerTableRecord
  2
0
 70
     0
 62
     7
  6
Continuous
370
    -3
390
F
347
3D0
348
0
  0
LAYER
  5
6F
330
2
100
AcDbSymbolTableRecord
100
AcDbLayerTableRecord
  2
Defpoints
 70
     0
 62
     7
  6
Continuous
290
     0
370
    -3
390
F
347
3D0
348
0
  0
LAYER
  5
44F
330
2
100
AcDbSymbolTableRecord
100
AcDbLayerTableRecord
  2
方框
 70
     0
 62
     1
  6
Continuous
290
     0
370
    -3
390
F
347
3D0
348
0
  0
ENDTAB
  0
TABLE
  2
STYLE
  5
3
330
0
100
AcDbSymbolTable
 70
     1
  0
STYLE
  5
11
330
3
100
AcDbSymbolTableRecord
100
AcDbTextStyleTableRecord
  2
Standard
 70
     0
 40
0.0
 41
1.0
 50
0.0
 71
     0
 42
2.5
  3
arial.ttf
  4

1001
ACAD
1000
Arial
1071
       34
  0
ENDTAB
  0
TABLE
  2
VIEW
  5
6
330
0
100
AcDbSymbolTable
 70
     0
  0
ENDTAB
  0
TABLE
  2
UCS
  5
7
330
0
100
AcDbSymbolTable
 70
     0
  0
ENDTAB
  0
TABLE
  2
APPID
  5
9
330
0
100
AcDbSymbolTable
 70
     8
  0
APPID
  5
12
330
9
100
AcDbSymbolTableRecord
100
AcDbRegAppTableRecord
  2
ACAD
 70
     0
  0
APPID
  5
2057
330
9
100
AcDbSymbolTableRecord
100
AcDbRegAppTableRecord
  2
ACAD_PSEXT
 70
     0
  0
APPID
  5
2058
330
9
100
AcDbSymbolTableRecord
100
AcDbRegAppTableRecord
  2
ACAD_DSTYLE_DIMJAG
 70
     0
  0
APPID
  5
2059
330
9
100
AcDbSymbolTableRecord
100
AcDbRegAppTableRecord
  2
ACAD_DSTYLE_DIMTALN
 70
     0
  0
APPID
  5
205A
330
9
100
AcDbSymbolTableRecord
100
AcDbRegAppTableRecord
  2
ACAD_NAV_VCDISPLAY
 70
     0
  0
APPID
  5
205B
330
9
100
AcDbSymbolTableRecord
100
AcDbRegAppTableRecord
  2
ACAD_DSTYLE_DIMBREAK
 70
     0
  0
APPID
  5
205C
330
9
100
AcDbSymbolTableRecord
100
AcDbRegAppTableRecord
  2
AcadStringInfo
 70
     0
  0
APPID
  5
205D
330
9
100
AcDbSymbolTableRecord
100
AcDbRegAppTableRecord
  2
ACAD_MLEADERVER
 70
     0
  0
ENDTAB
  0
TABLE
  2
DIMSTYLE
  5
A
330
0
100
AcDbSymbolTable
 70
     5
100
AcDbDimStyleTable
 71
     0
  0
DIMSTYLE
105
27
330
A
100
AcDbSymbolTableRecord
100
AcDbDimStyleTableRecord
  2
Standard
 70
     0
 41
2.5
 42
0.625
 43
3.75
 44
1.25
 73
     0
 74
     0
 78
     8
140
2.5
141
2.5
147
0.625
272
     2
274
     3
283
     0
284
     8
340
11
  0
DIMSTYLE
105
35
102
{ACAD_REACTORS
330
65
330
448
330
82
330
CDB
330
CEA
330
CFB
330
107A
330
108B
330
109E
330
128B
330
129C
330
12AF
330
160D
330
161C
330
162D
330
165F
330
166E
330
167E
330
171F
330
172E
330
173F
330
1753
330
1762
330
1772
330
18AC
330
18BD
330
18D0
330
18E0
330
18F1
330
1902
330
1996
330
19A7
330
19B9
330
19C9
330
19DA
330
19EA
330
73
102
}
330
A
100
AcDbSymbolTableRecord
100
AcDbDimStyleTableRecord
  2
副本 3.0
 70
     0
 40
3.0
 41
2.5
 42
0.0
 43
3.75
 44
2.0
 73
     0
 78
     8
140
3.0
141
0.0
143
0.03937007874016
147
0.8
171
     3
177
     7
271
     0
272
     2
274
     3
278
    44
283
     0
284
     8
340
11
1001
ACAD_DSTYLE_DIMBREAK
1070
   391
1040
3.75
1001
ACAD_DSTYLE_DIMJAG
1070
   388
1040
1.5
1001
ACAD_DSTYLE_DIMTALN
1070
   392
1070
     0
  0
DIMSTYLE
105
450
330
A
100
AcDbSymbolTableRecord
100
AcDbDimStyleTableRecord
  2
SCALE 6
 70
     0
 41
7.599999999999999
 42
0.0
 43
0.3800000000000001
 44
4.0
 78
     8
140
8.0
141
0.09
147
2.0
271
     1
340
11
  0
DIMSTYLE
105
496
330
A
100
AcDbSymbolTableRecord
100
AcDbDimStyleTableRecord
  2
SCALE 5
 70
     0
 41
5.4
 42
0.0
 43
0.3800000000000001
 44
3.0
 78
     8
140
6.0
141
0.09
147
1.5
271
     1
340
11
  0
ENDTAB
  0
TABLE
  2
BLOCK_RECORD
  5
1
330
0
100
AcDbSymbolTable
 70
    41
  0
BLOCK_RECORD
  5
1F
102
{ACAD_XDICTIONARY
360
20C6
102
}
330
1
100
AcDbSymbolTableRecord
100
AcDbBlockTableRecord
  2
*Model_Space
340
22
 70
     0
280
     1
281
     0
  0
BLOCK_RECORD
  5
73
330
1
100
AcDbSymbolTableRecord
100
AcDbBlockTableRecord
  2
*Paper_Space
340
3ED
 70
     0
280
     1
281
     0
  0
BLOCK_RECORD
  5
1D46
330
1
100
AcDbSymbolTableRecord
100
AcDbBlockTableRecord
  2
*D0
340
0
 70
     0
280
     1
281
     0
  0
BLOCK_RECORD
  5
1D54
330
1
100
AcDbSymbolTableRecord
100
AcDbBlockTableRecord
  2
*D1
340
0
 70
     0
280
     1
281
     0
  0
BLOCK_RECORD
  5
1D62
330
1
100
AcDbSymbolTableRecord
100
AcDbBlockTableRecord
  2
*D2
340
0
 70
     0
280
     1
281
     0
  0
BLOCK_RECORD
  5
1D70
330
1
100
AcDbSymbolTableRecord
100
AcDbBlockTableRecord
  2
*D3
340
0
 70
     0
280
     1
281
     0
  0
BLOCK_RECORD
  5
1D7E
330
1
100
AcDbSymbolTableRecord
100
AcDbBlockTableRecord
  2
*D4
340
0
 70
     0
280
     1
281
     0
  0
BLOCK_RECORD
  5
1D8C
330
1
100
AcDbSymbolTableRecord
100
AcDbBlockTableRecord
  2
*D5
340
0
 70
     0
280
     1
281
     0
  0
BLOCK_RECORD
  5
1D9A
330
1
100
AcDbSymbolTableRecord
100
AcDbBlockTableRecord
  2
*D6
340
0
 70
     0
280
     1
281
     0
  0
BLOCK_RECORD
  5
1DA8
330
1
100
AcDbSymbolTableRecord
100
AcDbBlockTableRecord
  2
*D7
340
0
 70
     0
280
     1
281
     0
  0
BLOCK_RECORD
  5
1DB6
330
1
100
AcDbSymbolTableRecord
100
AcDbBlockTableRecord
  2
*D8
340
0
 70
     0
280
     1
281
     0
  0
BLOCK_RECORD
  5
1DC4
330
1
100
AcDbSymbolTableRecord
100
AcDbBlockTableRecord
  2
*D9
340
0
 70
     0
280
     1
281
     0
  0
BLOCK_RECORD
  5
1DD2
330
1
100
AcDbSymbolTableRecord
100
AcDbBlockTableRecord
  2
*D10
340
0
 70
     0
280
     1
281
     0
  0
BLOCK_RECORD
  5
1DE0
330
1
100
AcDbSymbolTableRecord
100
AcDbBlockTableRecord
  2
*D11
340
0
 70
     0
280
     1
281
     0
  0
BLOCK_RECORD
  5
1DEE
330
1
100
AcDbSymbolTableRecord
100
AcDbBlockTableRecord
  2
*D12
340
0
 70
     0
280
     1
281
     0
  0
BLOCK_RECORD
  5
1DFC
330
1
100
AcDbSymbolTableRecord
100
AcDbBlockTableRecord
  2
*D13
340
0
 70
     0
280
     1
281
     0
  0
BLOCK_RECORD
  5
1E0A
330
1
100
AcDbSymbolTableRecord
100
AcDbBlockTableRecord
  2
*D14
340
0
 70
     0
280
     1
281
     0
  0
BLOCK_RECORD
  5
1E18
330
1
100
AcDbSymbolTableRecord
100
AcDbBlockTableRecord
  2
*D15
340
0
 70
     0
280
     1
281
     0
  0
BLOCK_RECORD
  5
1E26
330
1
100
AcDbSymbolTableRecord
100
AcDbBlockTableRecord
  2
*D16
340
0
 70
     0
280
     1
281
     0
  0
BLOCK_RECORD
  5
1E34
330
1
100
AcDbSymbolTableRecord
100
AcDbBlockTableRecord
  2
*D17
340
0
 70
     0
280
     1
281
     0
  0
BLOCK_RECORD
  5
1E42
330
1
100
AcDbSymbolTableRecord
100
AcDbBlockTableRecord
  2
*D18
340
0
 70
     0
280
     1
281
     0
  0
BLOCK_RECORD
  5
1E50
330
1
100
AcDbSymbolTableRecord
100
AcDbBlockTableRecord
  2
*D19
340
0
 70
     0
280
     1
281
     0
  0
BLOCK_RECORD
  5
1E5E
330
1
100
AcDbSymbolTableRecord
100
AcDbBlockTableRecord
  2
*D20
340
0
 70
     0
280
     1
281
     0
  0
BLOCK_RECORD
  5
1E6C
330
1
100
AcDbSymbolTableRecord
100
AcDbBlockTableRecord
  2
*D21
340
0
 70
     0
280
     1
281
     0
  0
BLOCK_RECORD
  5
1E7A
330
1
100
AcDbSymbolTableRecord
100
AcDbBlockTableRecord
  2
*D22
340
0
 70
     0
280
     1
281
     0
  0
BLOCK_RECORD
  5
1E88
330
1
100
AcDbSymbolTableRecord
100
AcDbBlockTableRecord
  2
*D23
340
0
 70
     0
280
     1
281
     0
  0
BLOCK_RECORD
  5
1E96
330
1
100
AcDbSymbolTableRecord
100
AcDbBlockTableRecord
  2
*D24
340
0
 70
     0
280
     1
281
     0
  0
BLOCK_RECORD
  5
1EA4
330
1
100
AcDbSymbolTableRecord
100
AcDbBlockTableRecord
  2
*D25
340
0
 70
     0
280
     1
281
     0
  0
BLOCK_RECORD
  5
1EB2
330
1
100
AcDbSymbolTableRecord
100
AcDbBlockTableRecord
  2
*D26
340
0
 70
     0
280
     1
281
     0
  0
BLOCK_RECORD
  5
1EC0
330
1
100
AcDbSymbolTableRecord
100
AcDbBlockTableRecord
  2
*D27
340
0
 70
     0
280
     1
281
     0
  0
BLOCK_RECORD
  5
1ECE
330
1
100
AcDbSymbolTableRecord
100
AcDbBlockTableRecord
  2
*D28
340
0
 70
     0
280
     1
281
     0
  0
BLOCK_RECORD
  5
1EDC
330
1
100
AcDbSymbolTableRecord
100
AcDbBlockTableRecord
  2
*D29
340
0
 70
     0
280
     1
281
     0
  0
BLOCK_RECORD
  5
1EEA
330
1
100
AcDbSymbolTableRecord
100
AcDbBlockTableRecord
  2
*D30
340
0
 70
     0
280
     1
281
     0
  0
BLOCK_RECORD
  5
1EF8
330
1
100
AcDbSymbolTableRecord
100
AcDbBlockTableRecord
  2
*D31
340
0
 70
     0
280
     1
281
     0
  0
BLOCK_RECORD
  5
1F06
330
1
100
AcDbSymbolTableRecord
100
AcDbBlockTableRecord
  2
*D32
340
0
 70
     0
280
     1
281
     0
  0
BLOCK_RECORD
  5
1F14
330
1
100
AcDbSymbolTableRecord
100
AcDbBlockTableRecord
  2
*D33
340
0
 70
     0
280
     1
281
     0
  0
BLOCK_RECORD
  5
1F22
330
1
100
AcDbSymbolTableRecord
100
AcDbBlockTableRecord
  2
*D34
340
0
 70
     0
280
     1
281
     0
  0
BLOCK_RECORD
  5
1F30
330
1
100
AcDbSymbolTableRecord
100
AcDbBlockTableRecord
  2
*D35
340
0
 70
     0
280
     1
281
     0
  0
BLOCK_RECORD
  5
1F3E
330
1
100
AcDbSymbolTableRecord
100
AcDbBlockTableRecord
  2
*D36
340
0
 70
     0
280
     1
281
     0
  0
BLOCK_RECORD
  5
1F4C
330
1
100
AcDbSymbolTableRecord
100
AcDbBlockTableRecord
  2
*D37
340
0
 70
     0
280
     1
281
     0
  0
BLOCK_RECORD
  5
1F5A
330
1
100
AcDbSymbolTableRecord
100
AcDbBlockTableRecord
  2
*D38
340
0
 70
     0
280
     1
281
     0
  0
BLOCK_RECORD
  5
1F68
330
1
100
AcDbSymbolTableRecord
100
AcDbBlockTableRecord
  2
*D39
340
0
 70
     0
280
     1
281
     0
  0
ENDTAB
  0
ENDSEC
  0
SECTION
  2
BLOCKS
  0
BLOCK
  5
20
330
1F
100
AcDbEntity
  8
0
100
AcDbBlockBegin
  2
*Model_Space
 70
     0
 10
0.0
 20
0.0
 30
0.0
  3
*Model_Space
  1

  0
ENDBLK
  5
21
330
1F
100
AcDbEntity
  8
0
100
AcDbBlockEnd
  0
BLOCK
  5
75
330
73
100
AcDbEntity
 67
     1
  8
0
100
AcDbBlockBegin
  2
*Paper_Space
 70
     0
 10
0.0
 20
0.0
 30
0.0
  3
*Paper_Space
  1

  0
ENDBLK
  5
76
330
73
100
AcDbEntity
 67
     1
  8
0
100
AcDbBlockEnd
  0
BLOCK
  5
2076
330
1D46
100
AcDbEntity
  8
Defpoints
100
AcDbBlockBegin
  2
*D0
 70
     1
 10
0.0
 20
0.0
 30
0.0
  3
*D0
  1

  0
POINT
  5
1D3C
330
1D46
100
AcDbEntity
  8
Defpoints
  6
ByBlock
440
 16777216
100
AcDbPoint
 10
-11088.06846117738
 20
-91303.39712962598
 30
0.0
  0
POINT
  5
1D3D
330
1D46
100
AcDbEntity
  8
Defpoints
  6
ByBlock
440
 16777216
100
AcDbPoint
 10
-11088.06846117738
 20
-91503.39712962598
 30
0.0
  0
LINE
  5
1D3E
330
1D46
100
AcDbEntity
  8
Defpoints
  6
ByBlock
 62
     0
440
 16777216
370
    -2
100
AcDbLine
 10
-11088.06846117738
 20
-91303.39712962598
 30
0.0
 11
-11032.33816046164
 21
-91303.39712962598
 31
0.0
  0
LINE
  5
1D3F
330
1D46
100
AcDbEntity
  8
Defpoints
  6
ByBlock
 62
     0
440
 16777216
370
    -2
100
AcDbLine
 10
-11088.06846117738
 20
-91503.39712962598
 30
0.0
 11
-11032.33816046164
 21
-91503.39712962598
 31
0.0
  0
LINE
  5
1D40
330
1D46
100
AcDbEntity
  8
Defpoints
  6
ByBlock
 62
     0
440
 16777216
370
    -2
100
AcDbLine
 10
-11035.33816046164
 20
-91308.79712962597
 30
0.0
 11
-11035.33816046164
 21
-91398.89712962599
 31
0.0
  0
LINE
  5
1D41
330
1D46
100
AcDbEntity
  8
Defpoints
  6
ByBlock
 62
     0
440
 16777216
370
    -2
100
AcDbLine
 10
-11035.33816046164
 20
-91407.89712962599
 30
0.0
 11
-11035.33816046164
 21
-91497.99712962598
 31
0.0
  0
SOLID
  5
1D42
330
1D46
100
AcDbEntity
  8
Defpoints
  6
ByBlock
 62
     0
440
 16777216
100
AcDbTrace
 10
-11035.33816046164
 20
-91303.39712962598
 30
0.0
 11
-11036.23816046164
 21
-91308.79712962597
 31
0.0
 12
-11034.43816046164
 22
-91308.79712962597
 32
0.0
 13
-11034.43816046164
 23
-91308.79712962597
 33
0.0
  0
SOLID
  5
1D43
330
1D46
100
AcDbEntity
  8
Defpoints
  6
ByBlock
 62
     0
440
 16777216
100
AcDbTrace
 10
-11035.33816046164
 20
-91503.39712962598
 30
0.0
 11
-11036.23816046164
 21
-91497.99712962598
 31
0.0
 12
-11034.43816046164
 22
-91497.99712962598
 32
0.0
 13
-11034.43816046164
 23
-91497.99712962598
 33
0.0
  0
MTEXT
  5
1D44
330
1D46
100
AcDbEntity
  8
Defpoints
  6
ByBlock
 62
     0
440
 16777216
100
AcDbMText
 10
-11035.33816046164
 20
-91403.39712962598
 30
0.0
 40
6.0
 41
0.0
 46
0.0
 71
     5
 72
     1
  1
\A1;200
 73
     1
 44
1.0
  0
ENDBLK
  5
2077
330
1D46
100
AcDbEntity
  8
0
100
AcDbBlockEnd
  0
BLOCK
  5
2078
330
1D54
100
AcDbEntity
  8
Defpoints
100
AcDbBlockBegin
  2
*D1
 70
     1
 10
0.0
 20
0.0
 30
0.0
  3
*D1
  1

  0
POINT
  5
1D4A
330
1D54
100
AcDbEntity
  8
Defpoints
  6
ByBlock
440
 16777216
100
AcDbPoint
 10
-11088.06846117738
 20
-91503.39712962598
 30
0.0
  0
POINT
  5
1D4B
330
1D54
100
AcDbEntity
  8
Defpoints
  6
ByBlock
440
 16777216
100
AcDbPoint
 10
-11438.06846117738
 20
-91503.39712962598
 30
0.0
  0
LINE
  5
1D4C
330
1D54
100
AcDbEntity
  8
Defpoints
  6
ByBlock
 62
     0
440
 16777216
370
    -2
100
AcDbLine
 10
-11088.06846117738
 20
-91503.39712962598
 30
0.0
 11
-11088.06846117738
 21
-91544.05035344112
 31
0.0
  0
LINE
  5
1D4D
330
1D54
100
AcDbEntity
  8
Defpoints
  6
ByBlock
 62
     0
440
 16777216
370
    -2
100
AcDbLine
 10
-11438.06846117738
 20
-91503.39712962598
 30
0.0
 11
-11438.06846117738
 21
-91544.05035344112
 31
0.0
  0
LINE
  5
1D4E
330
1D54
100
AcDbEntity
  8
Defpoints
  6
ByBlock
 62
     0
440
 16777216
370
    -2
100
AcDbLine
 10
-11093.46846117738
 20
-91541.05035344111
 30
0.0
 11
-11254.57596458802
 21
-91541.05035344111
 31
0.0
  0
LINE
  5
1D4F
330
1D54
100
AcDbEntity
  8
Defpoints
  6
ByBlock
 62
     0
440
 16777216
370
    -2
100
AcDbLine
 10
-11271.56095776674
 20
-91541.05035344111
 30
0.0
 11
-11432.66846117738
 21
-91541.05035344111
 31
0.0
  0
SOLID
  5
1D50
330
1D54
100
AcDbEntity
  8
Defpoints
  6
ByBlock
 62
     0
440
 16777216
100
AcDbTrace
 10
-11088.06846117738
 20
-91541.05035344111
 30
0.0
 11
-11093.46846117738
 21
-91540.15035344112
 31
0.0
 12
-11093.46846117738
 22
-91541.95035344111
 32
0.0
 13
-11093.46846117738
 23
-91541.95035344111
 33
0.0
  0
SOLID
  5
1D51
330
1D54
100
AcDbEntity
  8
Defpoints
  6
ByBlock
 62
     0
440
 16777216
100
AcDbTrace
 10
-11438.06846117738
 20
-91541.05035344111
 30
0.0
 11
-11432.66846117738
 21
-91540.15035344112
 31
0.0
 12
-11432.66846117738
 22
-91541.95035344111
 32
0.0
 13
-11432.66846117738
 23
-91541.95035344111
 33
0.0
  0
MTEXT
  5
1D52
330
1D54
100
AcDbEntity
  8
Defpoints
  6
ByBlock
 62
     0
440
 16777216
100
AcDbMText
 10
-11263.06846117738
 20
-91541.05035344111
 30
0.0
 40
6.0
 41
0.0
 46
0.0
 71
     5
 72
     1
  1
\A1;350
 73
     1
 44
1.0
  0
ENDBLK
  5
2079
330
1D54
100
AcDbEntity
  8
0
100
AcDbBlockEnd
  0
BLOCK
  5
207A
330
1D62
100
AcDbEntity
  8
Defpoints
100
AcDbBlockBegin
  2
*D2
 70
     1
 10
0.0
 20
0.0
 30
0.0
  3
*D2
  1

  0
POINT
  5
1D58
330
1D62
100
AcDbEntity
  8
Defpoints
  6
ByBlock
440
 16777216
100
AcDbPoint
 10
-10670.04654406657
 20
-91450.90999938327
 30
0.0
  0
POINT
  5
1D59
330
1D62
100
AcDbEntity
  8
Defpoints
  6
ByBlock
440
 16777216
100
AcDbPoint
 10
-10760.04654406657
 20
-91450.90999938327
 30
0.0
  0
LINE
  5
1D5A
330
1D62
100
AcDbEntity
  8
Defpoints
  6
ByBlock
 62
     7
440
 16777216
370
    -2
100
AcDbLine
 10
-10670.04654406657
 20
-91450.90999938327
 30
0.0
 11
-10670.04654406657
 21
-91462.78073789229
 31
0.0
  0
LINE
  5
1D5B
330
1D62
100
AcDbEntity
  8
Defpoints
  6
ByBlock
 62
     7
440
 16777216
370
    -2
100
AcDbLine
 10
-10760.04654406657
 20
-91450.90999938327
 30
0.0
 11
-10760.04654406657
 21
-91462.78073789229
 31
0.0
  0
LINE
  5
1D5C
330
1D62
100
AcDbEntity
  8
Defpoints
  6
ByBlock
 62
     0
440
 16777216
370
    -2
100
AcDbLine
 10
-10677.54654406657
 20
-91456.78073789229
 30
0.0
 11
-10705.65404747721
 21
-91456.78073789229
 31
0.0
  0
LINE
  5
1D5D
330
1D62
100
AcDbEntity
  8
Defpoints
  6
ByBlock
 62
     0
440
 16777216
370
    -2
100
AcDbLine
 10
-10724.43904065592
 20
-91456.78073789229
 30
0.0
 11
-10752.54654406657
 21
-91456.78073789229
 31
0.0
  0
SOLID
  5
1D5E
330
1D62
100
AcDbEntity
  8
Defpoints
  6
ByBlock
 62
     0
440
 16777216
100
AcDbTrace
 10
-10670.04654406657
 20
-91456.78073789229
 30
0.0
 11
-10677.54654406657
 21
-91455.53073789228
 31
0.0
 12
-10677.54654406657
 22
-91458.03073789229
 32
0.0
 13
-10677.54654406657
 23
-91458.03073789229
 33
0.0
  0
SOLID
  5
1D5F
330
1D62
100
AcDbEntity
  8
Defpoints
  6
ByBlock
 62
     0
440
 16777216
100
AcDbTrace
 10
-10760.04654406657
 20
-91456.78073789229
 30
0.0
 11
-10752.54654406657
 21
-91455.53073789228
 31
0.0
 12
-10752.54654406657
 22
-91458.03073789229
 32
0.0
 13
-10752.54654406657
 23
-91458.03073789229
 33
0.0
  0
MTEXT
  5
1D60
330
1D62
100
AcDbEntity
  8
Defpoints
  6
ByBlock
 62
     0
440
 16777216
100
AcDbMText
 10
-10715.04654406657
 20
-91456.78073789229
 30
0.0
 40
9.0
 41
0.0
 46
0.0
 71
     5
 72
     1
  1
\A0;90
 73
     1
 44
1.0
  0
ENDBLK
  5
207B
330
1D62
100
AcDbEntity
  8
0
100
AcDbBlockEnd
  0
BLOCK
  5
207C
330
1D70
100
AcDbEntity
  8
Defpoints
100
AcDbBlockBegin
  2
*D3
 70
     1
 10
0.0
 20
0.0
 30
0.0
  3
*D3
  1

  0
POINT
  5
1D66
330
1D70
100
AcDbEntity
  8
Defpoints
  6
ByBlock
440
 16777216
100
AcDbPoint
 10
-10586.85744215192
 20
-91450.90999938327
 30
0.0
  0
POINT
  5
1D67
330
1D70
100
AcDbEntity
  8
Defpoints
  6
ByBlock
440
 16777216
100
AcDbPoint
 10
-10631.35744215192
 20
-91451.66109929832
 30
0.0
  0
LINE
  5
1D68
330
1D70
100
AcDbEntity
  8
Defpoints
  6
ByBlock
 62
     7
440
 16777216
370
    -2
100
AcDbLine
 10
-10586.85744215192
 20
-91450.90999938327
 30
0.0
 11
-10586.85744215192
 21
-91463.03580885428
 31
0.0
  0
LINE
  5
1D69
330
1D70
100
AcDbEntity
  8
Defpoints
  6
ByBlock
 62
     7
440
 16777216
370
    -2
100
AcDbLine
 10
-10631.35744215192
 20
-91451.66109929832
 30
0.0
 11
-10631.35744215192
 21
-91463.03580885428
 31
0.0
  0
LINE
  5
1D6A
330
1D70
100
AcDbEntity
  8
Defpoints
  6
ByBlock
 62
     0
440
 16777216
370
    -2
100
AcDbLine
 10
-10594.35744215192
 20
-91457.03580885427
 30
0.0
 11
-10599.71494556257
 21
-91457.03580885427
 31
0.0
  0
LINE
  5
1D6B
330
1D70
100
AcDbEntity
  8
Defpoints
  6
ByBlock
 62
     0
440
 16777216
370
    -2
100
AcDbLine
 10
-10618.49993874128
 20
-91457.03580885427
 30
0.0
 11
-10623.85744215192
 21
-91457.03580885427
 31
0.0
  0
SOLID
  5
1D6C
330
1D70
100
AcDbEntity
  8
Defpoints
  6
ByBlock
 62
     0
440
 16777216
100
AcDbTrace
 10
-10586.85744215192
 20
-91457.03580885427
 30
0.0
 11
-10594.35744215192
 21
-91455.78580885427
 31
0.0
 12
-10594.35744215192
 22
-91458.28580885426
 32
0.0
 13
-10594.35744215192
 23
-91458.28580885426
 33
0.0
  0
SOLID
  5
1D6D
330
1D70
100
AcDbEntity
  8
Defpoints
  6
ByBlock
 62
     0
440
 16777216
100
AcDbTrace
 10
-10631.35744215192
 20
-91457.03580885427
 30
0.0
 11
-10623.85744215192
 21
-91455.78580885427
 31
0.0
 12
-10623.85744215192
 22
-91458.28580885426
 32
0.0
 13
-10623.85744215192
 23
-91458.28580885426
 33
0.0
  0
MTEXT
  5
1D6E
330
1D70
100
AcDbEntity
  8
Defpoints
  6
ByBlock
 62
     0
440
 16777216
100
AcDbMText
 10
-10609.10744215192
 20
-91457.03580885427
 30
0.0
 40
9.0
 41
0.0
 46
0.0
 71
     5
 72
     1
  1
\A0;45
 73
     1
 44
1.0
  0
ENDBLK
  5
207D
330
1D70
100
AcDbEntity
  8
0
100
AcDbBlockEnd
  0
BLOCK
  5
207E
330
1D7E
100
AcDbEntity
  8
Defpoints
100
AcDbBlockBegin
  2
*D4
 70
     1
 10
0.0
 20
0.0
 30
0.0
  3
*D4
  1

  0
POINT
  5
1D74
330
1D7E
100
AcDbEntity
  8
Defpoints
  6
ByBlock
440
 16777216
100
AcDbPoint
 10
-10780.05080212181
 20
-91427.82840347871
 30
0.0
  0
POINT
  5
1D75
330
1D7E
100
AcDbEntity
  8
Defpoints
  6
ByBlock
440
 16777216
100
AcDbPoint
 10
-10780.05080212181
 20
-91337.82840347873
 30
0.0
  0
LINE
  5
1D76
330
1D7E
100
AcDbEntity
  8
Defpoints
  6
ByBlock
 62
     7
440
 16777216
370
    -2
100
AcDbLine
 10
-10780.05080212181
 20
-91427.82840347871
 30
0.0
 11
-10791.86926730279
 21
-91427.82840347871
 31
0.0
  0
LINE
  5
1D77
330
1D7E
100
AcDbEntity
  8
Defpoints
  6
ByBlock
 62
     7
440
 16777216
370
    -2
100
AcDbLine
 10
-10780.05080212181
 20
-91337.82840347873
 30
0.0
 11
-10791.86926730279
 21
-91337.82840347873
 31
0.0
  0
LINE
  5
1D78
330
1D7E
100
AcDbEntity
  8
Defpoints
  6
ByBlock
 62
     0
440
 16777216
370
    -2
100
AcDbLine
 10
-10785.86926730279
 20
-91420.32840347871
 30
0.0
 11
-10785.86926730279
 21
-91392.22090006807
 31
0.0
  0
LINE
  5
1D79
330
1D7E
100
AcDbEntity
  8
Defpoints
  6
ByBlock
 62
     0
440
 16777216
370
    -2
100
AcDbLine
 10
-10785.86926730279
 20
-91373.43590688937
 30
0.0
 11
-10785.86926730279
 21
-91345.32840347873
 31
0.0
  0
SOLID
  5
1D7A
330
1D7E
100
AcDbEntity
  8
Defpoints
  6
ByBlock
 62
     0
440
 16777216
100
AcDbTrace
 10
-10785.86926730279
 20
-91427.82840347871
 30
0.0
 11
-10784.61926730279
 21
-91420.32840347871
 31
0.0
 12
-10787.11926730279
 22
-91420.32840347871
 32
0.0
 13
-10787.11926730279
 23
-91420.32840347871
 33
0.0
  0
SOLID
  5
1D7B
330
1D7E
100
AcDbEntity
  8
Defpoints
  6
ByBlock
 62
     0
440
 16777216
100
AcDbTrace
 10
-10785.86926730279
 20
-91337.82840347873
 30
0.0
 11
-10784.61926730279
 21
-91345.32840347873
 31
0.0
 12
-10787.11926730279
 22
-91345.32840347873
 32
0.0
 13
-10787.11926730279
 23
-91345.32840347873
 33
0.0
  0
MTEXT
  5
1D7C
330
1D7E
100
AcDbEntity
  8
Defpoints
  6
ByBlock
 62
     0
440
 16777216
100
AcDbMText
 10
-10785.86926730279
 20
-91382.82840347873
 30
0.0
 40
9.0
 41
0.0
 46
0.0
 71
     5
 72
     1
  1
\A0;90
 11
0.0000000000000001
 21
1.0
 31
0.0
 73
     1
 44
1.0
  0
ENDBLK
  5
207F
330
1D7E
100
AcDbEntity
  8
0
100
AcDbBlockEnd
  0
BLOCK
  5
2080
330
1D8C
100
AcDbEntity
  8
Defpoints
100
AcDbBlockBegin
  2
*D5
 70
     1
 10
0.0
 20
0.0
 30
0.0
  3
*D5
  1

  0
POINT
  5
1D82
330
1D8C
100
AcDbEntity
  8
Defpoints
  6
ByBlock
440
 16777216
100
AcDbPoint
 10
-11242.87260464243
 20
-91443.38412189643
 30
0.0
  0
POINT
  5
1D83
330
1D8C
100
AcDbEntity
  8
Defpoints
  6
ByBlock
440
 16777216
100
AcDbPoint
 10
-11332.87260464243
 20
-91443.38412189643
 30
0.0
  0
LINE
  5
1D84
330
1D8C
100
AcDbEntity
  8
Defpoints
  6
ByBlock
 62
     7
440
 16777216
370
    -2
100
AcDbLine
 10
-11242.87260464243
 20
-91443.38412189643
 30
0.0
 11
-11242.87260464243
 21
-91455.25486040545
 31
0.0
  0
LINE
  5
1D85
330
1D8C
100
AcDbEntity
  8
Defpoints
  6
ByBlock
 62
     7
440
 16777216
370
    -2
100
AcDbLine
 10
-11332.87260464243
 20
-91443.38412189643
 30
0.0
 11
-11332.87260464243
 21
-91455.25486040545
 31
0.0
  0
LINE
  5
1D86
330
1D8C
100
AcDbEntity
  8
Defpoints
  6
ByBlock
 62
     0
440
 16777216
370
    -2
100
AcDbLine
 10
-11250.37260464243
 20
-91449.25486040547
 30
0.0
 11
-11278.48010805307
 21
-91449.25486040547
 31
0.0
  0
LINE
  5
1D87
330
1D8C
100
AcDbEntity
  8
Defpoints
  6
ByBlock
 62
     0
440
 16777216
370
    -2
100
AcDbLine
 10
-11297.26510123179
 20
-91449.25486040547
 30
0.0
 11
-11325.37260464243
 21
-91449.25486040547
 31
0.0
  0
SOLID
  5
1D88
330
1D8C
100
AcDbEntity
  8
Defpoints
  6
ByBlock
 62
     0
440
 16777216
100
AcDbTrace
 10
-11242.87260464243
 20
-91449.25486040547
 30
0.0
 11
-11250.37260464243
 21
-91448.00486040546
 31
0.0
 12
-11250.37260464243
 22
-91450.50486040545
 32
0.0
 13
-11250.37260464243
 23
-91450.50486040545
 33
0.0
  0
SOLID
  5
1D89
330
1D8C
100
AcDbEntity
  8
Defpoints
  6
ByBlock
 62
     0
440
 16777216
100
AcDbTrace
 10
-11332.87260464243
 20
-91449.25486040547
 30
0.0
 11
-11325.37260464243
 21
-91448.00486040546
 31
0.0
 12
-11325.37260464243
 22
-91450.50486040545
 32
0.0
 13
-11325.37260464243
 23
-91450.50486040545
 33
0.0
  0
MTEXT
  5
1D8A
330
1D8C
100
AcDbEntity
  8
Defpoints
  6
ByBlock
 62
     0
440
 16777216
100
AcDbMText
 10
-11287.87260464243
 20
-91449.25486040547
 30
0.0
 40
9.0
 41
0.0
 46
0.0
 71
     5
 72
     1
  1
\A0;90
 73
     1
 44
1.0
  0
ENDBLK
  5
2081
330
1D8C
100
AcDbEntity
  8
0
100
AcDbBlockEnd
  0
BLOCK
  5
2082
330
1D9A
100
AcDbEntity
  8
Defpoints
100
AcDbBlockBegin
  2
*D6
 70
     1
 10
0.0
 20
0.0
 30
0.0
  3
*D6
  1

  0
POINT
  5
1D90
330
1D9A
100
AcDbEntity
  8
Defpoints
  6
ByBlock
440
 16777216
100
AcDbPoint
 10
-11159.68350272779
 20
-91443.38412189643
 30
0.0
  0
POINT
  5
1D91
330
1D9A
100
AcDbEntity
  8
Defpoints
  6
ByBlock
440
 16777216
100
AcDbPoint
 10
-11204.18350272779
 20
-91444.1352218115
 30
0.0
  0
LINE
  5
1D92
330
1D9A
100
AcDbEntity
  8
Defpoints
  6
ByBlock
 62
     7
440
 16777216
370
    -2
100
AcDbLine
 10
-11159.68350272779
 20
-91443.38412189643
 30
0.0
 11
-11159.68350272779
 21
-91455.50993136744
 31
0.0
  0
LINE
  5
1D93
330
1D9A
100
AcDbEntity
  8
Defpoints
  6
ByBlock
 62
     7
440
 16777216
370
    -2
100
AcDbLine
 10
-11204.18350272779
 20
-91444.1352218115
 30
0.0
 11
-11204.18350272779
 21
-91455.50993136744
 31
0.0
  0
LINE
  5
1D94
330
1D9A
100
AcDbEntity
  8
Defpoints
  6
ByBlock
 62
     0
440
 16777216
370
    -2
100
AcDbLine
 10
-11167.18350272779
 20
-91449.50993136744
 30
0.0
 11
-11172.54100613843
 21
-91449.50993136744
 31
0.0
  0
LINE
  5
1D95
330
1D9A
100
AcDbEntity
  8
Defpoints
  6
ByBlock
 62
     0
440
 16777216
370
    -2
100
AcDbLine
 10
-11191.32599931715
 20
-91449.50993136744
 30
0.0
 11
-11196.68350272779
 21
-91449.50993136744
 31
0.0
  0
SOLID
  5
1D96
330
1D9A
100
AcDbEntity
  8
Defpoints
  6
ByBlock
 62
     0
440
 16777216
100
AcDbTrace
 10
-11159.68350272779
 20
-91449.50993136744
 30
0.0
 11
-11167.18350272779
 21
-91448.25993136745
 31
0.0
 12
-11167.18350272779
 22
-91450.75993136744
 32
0.0
 13
-11167.18350272779
 23
-91450.75993136744
 33
0.0
  0
SOLID
  5
1D97
330
1D9A
100
AcDbEntity
  8
Defpoints
  6
ByBlock
 62
     0
440
 16777216
100
AcDbTrace
 10
-11204.18350272779
 20
-91449.50993136744
 30
0.0
 11
-11196.68350272779
 21
-91448.25993136745
 31
0.0
 12
-11196.68350272779
 22
-91450.75993136744
 32
0.0
 13
-11196.68350272779
 23
-91450.75993136744
 33
0.0
  0
MTEXT
  5
1D98
330
1D9A
100
AcDbEntity
  8
Defpoints
  6
ByBlock
 62
     0
440
 16777216
100
AcDbMText
 10
-11181.93350272779
 20
-91449.50993136744
 30
0.0
 40
9.0
 41
0.0
 46
0.0
 71
     5
 72
     1
  1
\A0;45
 73
     1
 44
1.0
  0
ENDBLK
  5
2083
330
1D9A
100
AcDbEntity
  8
0
100
AcDbBlockEnd
  0
BLOCK
  5
2084
330
1DA8
100
AcDbEntity
  8
Defpoints
100
AcDbBlockBegin
  2
*D7
 70
     1
 10
0.0
 20
0.0
 30
0.0
  3
*D7
  1

  0
POINT
  5
1D9E
330
1DA8
100
AcDbEntity
  8
Defpoints
  6
ByBlock
440
 16777216
100
AcDbPoint
 10
-11352.87686269767
 20
-91420.30252599189
 30
0.0
  0
POINT
  5
1D9F
330
1DA8
100
AcDbEntity
  8
Defpoints
  6
ByBlock
440
 16777216
100
AcDbPoint
 10
-11352.87686269767
 20
-91330.30252599189
 30
0.0
  0
LINE
  5
1DA0
330
1DA8
100
AcDbEntity
  8
Defpoints
  6
ByBlock
 62
     7
440
 16777216
370
    -2
100
AcDbLine
 10
-11352.87686269767
 20
-91420.30252599189
 30
0.0
 11
-11364.69532787866
 21
-91420.30252599189
 31
0.0
  0
LINE
  5
1DA1
330
1DA8
100
AcDbEntity
  8
Defpoints
  6
ByBlock
 62
     7
440
 16777216
370
    -2
100
AcDbLine
 10
-11352.87686269767
 20
-91330.30252599189
 30
0.0
 11
-11364.69532787866
 21
-91330.30252599189
 31
0.0
  0
LINE
  5
1DA2
330
1DA8
100
AcDbEntity
  8
Defpoints
  6
ByBlock
 62
     0
440
 16777216
370
    -2
100
AcDbLine
 10
-11358.69532787866
 20
-91412.80252599189
 30
0.0
 11
-11358.69532787866
 21
-91384.69502258125
 31
0.0
  0
LINE
  5
1DA3
330
1DA8
100
AcDbEntity
  8
Defpoints
  6
ByBlock
 62
     0
440
 16777216
370
    -2
100
AcDbLine
 10
-11358.69532787866
 20
-91365.91002940255
 30
0.0
 11
-11358.69532787866
 21
-91337.80252599189
 31
0.0
  0
SOLID
  5
1DA4
330
1DA8
100
AcDbEntity
  8
Defpoints
  6
ByBlock
 62
     0
440
 16777216
100
AcDbTrace
 10
-11358.69532787866
 20
-91420.30252599189
 30
0.0
 11
-11357.44532787866
 21
-91412.80252599189
 31
0.0
 12
-11359.94532787866
 22
-91412.80252599189
 32
0.0
 13
-11359.94532787866
 23
-91412.80252599189
 33
0.0
  0
SOLID
  5
1DA5
330
1DA8
100
AcDbEntity
  8
Defpoints
  6
ByBlock
 62
     0
440
 16777216
100
AcDbTrace
 10
-11358.69532787866
 20
-91330.30252599189
 30
0.0
 11
-11357.44532787866
 21
-91337.80252599189
 31
0.0
 12
-11359.94532787866
 22
-91337.80252599189
 32
0.0
 13
-11359.94532787866
 23
-91337.80252599189
 33
0.0
  0
MTEXT
  5
1DA6
330
1DA8
100
AcDbEntity
  8
Defpoints
  6
ByBlock
 62
     0
440
 16777216
100
AcDbMText
 10
-11358.69532787866
 20
-91375.30252599189
 30
0.0
 40
9.0
 41
0.0
 46
0.0
 71
     5
 72
     1
  1
\A0;90
 11
0.0000000000000001
 21
1.0
 31
0.0
 73
     1
 44
1.0
  0
ENDBLK
  5
2085
330
1DA8
100
AcDbEntity
  8
0
100
AcDbBlockEnd
  0
BLOCK
  5
2086
330
1DB6
100
AcDbEntity
  8
Defpoints
100
AcDbBlockBegin
  2
*D8
 70
     1
 10
0.0
 20
0.0
 30
0.0
  3
*D8
  1

  0
POINT
  5
1DAC
330
1DB6
100
AcDbEntity
  8
Defpoints
  6
ByBlock
440
 16777216
100
AcDbPoint
 10
-10666.41266842736
 20
-91774.22711086201
 30
0.0
  0
POINT
  5
1DAD
330
1DB6
100
AcDbEntity
  8
Defpoints
  6
ByBlock
440
 16777216
100
AcDbPoint
 10
-10756.41266842736
 20
-91774.22711086201
 30
0.0
  0
LINE
  5
1DAE
330
1DB6
100
AcDbEntity
  8
Defpoints
  6
ByBlock
 62
     7
440
 16777216
370
    -2
100
AcDbLine
 10
-10666.41266842736
 20
-91774.22711086201
 30
0.0
 11
-10666.41266842736
 21
-91786.09784937105
 31
0.0
  0
LINE
  5
1DAF
330
1DB6
100
AcDbEntity
  8
Defpoints
  6
ByBlock
 62
     7
440
 16777216
370
    -2
100
AcDbLine
 10
-10756.41266842736
 20
-91774.22711086201
 30
0.0
 11
-10756.41266842736
 21
-91786.09784937105
 31
0.0
  0
LINE
  5
1DB0
330
1DB6
100
AcDbEntity
  8
Defpoints
  6
ByBlock
 62
     0
440
 16777216
370
    -2
100
AcDbLine
 10
-10673.91266842736
 20
-91780.09784937104
 30
0.0
 11
-10702.020171838
 21
-91780.09784937104
 31
0.0
  0
LINE
  5
1DB1
330
1DB6
100
AcDbEntity
  8
Defpoints
  6
ByBlock
 62
     0
440
 16777216
370
    -2
100
AcDbLine
 10
-10720.80516501672
 20
-91780.09784937104
 30
0.0
 11
-10748.91266842736
 21
-91780.09784937104
 31
0.0
  0
SOLID
  5
1DB2
330
1DB6
100
AcDbEntity
  8
Defpoints
  6
ByBlock
 62
     0
440
 16777216
100
AcDbTrace
 10
-10666.41266842736
 20
-91780.09784937104
 30
0.0
 11
-10673.91266842736
 21
-91778.84784937104
 31
0.0
 12
-10673.91266842736
 22
-91781.34784937105
 32
0.0
 13
-10673.91266842736
 23
-91781.34784937105
 33
0.0
  0
SOLID
  5
1DB3
330
1DB6
100
AcDbEntity
  8
Defpoints
  6
ByBlock
 62
     0
440
 16777216
100
AcDbTrace
 10
-10756.41266842736
 20
-91780.09784937104
 30
0.0
 11
-10748.91266842736
 21
-91778.84784937104
 31
0.0
 12
-10748.91266842736
 22
-91781.34784937105
 32
0.0
 13
-10748.91266842736
 23
-91781.34784937105
 33
0.0
  0
MTEXT
  5
1DB4
330
1DB6
100
AcDbEntity
  8
Defpoints
  6
ByBlock
 62
     0
440
 16777216
100
AcDbMText
 10
-10711.41266842736
 20
-91780.09784937104
 30
0.0
 40
9.0
 41
0.0
 46
0.0
 71
     5
 72
     1
  1
\A0;90
 73
     1
 44
1.0
  0
ENDBLK
  5
2087
330
1DB6
100
AcDbEntity
  8
0
100
AcDbBlockEnd
  0
BLOCK
  5
2088
330
1DC4
100
AcDbEntity
  8
Defpoints
100
AcDbBlockBegin
  2
*D9
 70
     1
 10
0.0
 20
0.0
 30
0.0
  3
*D9
  1

  0
POINT
  5
1DBA
330
1DC4
100
AcDbEntity
  8
Defpoints
  6
ByBlock
440
 16777216
100
AcDbPoint
 10
-10583.22356651272
 20
-91774.22711086201
 30
0.0
  0
POINT
  5
1DBB
330
1DC4
100
AcDbEntity
  8
Defpoints
  6
ByBlock
440
 16777216
100
AcDbPoint
 10
-10627.72356651272
 20
-91774.97821077707
 30
0.0
  0
LINE
  5
1DBC
330
1DC4
100
AcDbEntity
  8
Defpoints
  6
ByBlock
 62
     7
440
 16777216
370
    -2
100
AcDbLine
 10
-10583.22356651272
 20
-91774.22711086201
 30
0.0
 11
-10583.22356651272
 21
-91786.35292033302
 31
0.0
  0
LINE
  5
1DBD
330
1DC4
100
AcDbEntity
  8
Defpoints
  6
ByBlock
 62
     7
440
 16777216
370
    -2
100
AcDbLine
 10
-10627.72356651272
 20
-91774.97821077707
 30
0.0
 11
-10627.72356651272
 21
-91786.35292033302
 31
0.0
  0
LINE
  5
1DBE
330
1DC4
100
AcDbEntity
  8
Defpoints
  6
ByBlock
 62
     0
440
 16777216
370
    -2
100
AcDbLine
 10
-10590.72356651272
 20
-91780.35292033303
 30
0.0
 11
-10596.08106992336
 21
-91780.35292033303
 31
0.0
  0
LINE
  5
1DBF
330
1DC4
100
AcDbEntity
  8
Defpoints
  6
ByBlock
 62
     0
440
 16777216
370
    -2
100
AcDbLine
 10
-10614.86606310208
 20
-91780.35292033303
 30
0.0
 11
-10620.22356651272
 21
-91780.35292033303
 31
0.0
  0
SOLID
  5
1DC0
330
1DC4
100
AcDbEntity
  8
Defpoints
  6
ByBlock
 62
     0
440
 16777216
100
AcDbTrace
 10
-10583.22356651272
 20
-91780.35292033303
 30
0.0
 11
-10590.72356651272
 21
-91779.10292033303
 31
0.0
 12
-10590.72356651272
 22
-91781.60292033302
 32
0.0
 13
-10590.72356651272
 23
-91781.60292033302
 33
0.0
  0
SOLID
  5
1DC1
330
1DC4
100
AcDbEntity
  8
Defpoints
  6
ByBlock
 62
     0
440
 16777216
100
AcDbTrace
 10
-10627.72356651272
 20
-91780.35292033303
 30
0.0
 11
-10620.22356651272
 21
-91779.10292033303
 31
0.0
 12
-10620.22356651272
 22
-91781.60292033302
 32
0.0
 13
-10620.22356651272
 23
-91781.60292033302
 33
0.0
  0
MTEXT
  5
1DC2
330
1DC4
100
AcDbEntity
  8
Defpoints
  6
ByBlock
 62
     0
440
 16777216
100
AcDbMText
 10
-10605.47356651272
 20
-91780.35292033303
 30
0.0
 40
9.0
 41
0.0
 46
0.0
 71
     5
 72
     1
  1
\A0;45
 73
     1
 44
1.0
  0
ENDBLK
  5
2089
330
1DC4
100
AcDbEntity
  8
0
100
AcDbBlockEnd
  0
BLOCK
  5
208A
330
1DD2
100
AcDbEntity
  8
Defpoints
100
AcDbBlockBegin
  2
*D10
 70
     1
 10
0.0
 20
0.0
 30
0.0
  3
*D10
  1

  0
POINT
  5
1DC8
330
1DD2
100
AcDbEntity
  8
Defpoints
  6
ByBlock
440
 16777216
100
AcDbPoint
 10
-10776.4169264826
 20
-91751.14551495747
 30
0.0
  0
POINT
  5
1DC9
330
1DD2
100
AcDbEntity
  8
Defpoints
  6
ByBlock
440
 16777216
100
AcDbPoint
 10
-10776.4169264826
 20
-91661.14551495747
 30
0.0
  0
LINE
  5
1DCA
330
1DD2
100
AcDbEntity
  8
Defpoints
  6
ByBlock
 62
     7
440
 16777216
370
    -2
100
AcDbLine
 10
-10776.4169264826
 20
-91751.14551495747
 30
0.0
 11
-10788.23539166359
 21
-91751.14551495747
 31
0.0
  0
LINE
  5
1DCB
330
1DD2
100
AcDbEntity
  8
Defpoints
  6
ByBlock
 62
     7
440
 16777216
370
    -2
100
AcDbLine
 10
-10776.4169264826
 20
-91661.14551495747
 30
0.0
 11
-10788.23539166359
 21
-91661.14551495747
 31
0.0
  0
LINE
  5
1DCC
330
1DD2
100
AcDbEntity
  8
Defpoints
  6
ByBlock
 62
     0
440
 16777216
370
    -2
100
AcDbLine
 10
-10782.23539166359
 20
-91743.64551495747
 30
0.0
 11
-10782.23539166359
 21
-91715.53801154683
 31
0.0
  0
LINE
  5
1DCD
330
1DD2
100
AcDbEntity
  8
Defpoints
  6
ByBlock
 62
     0
440
 16777216
370
    -2
100
AcDbLine
 10
-10782.23539166359
 20
-91696.75301836813
 30
0.0
 11
-10782.23539166359
 21
-91668.64551495747
 31
0.0
  0
SOLID
  5
1DCE
330
1DD2
100
AcDbEntity
  8
Defpoints
  6
ByBlock
 62
     0
440
 16777216
100
AcDbTrace
 10
-10782.23539166359
 20
-91751.14551495747
 30
0.0
 11
-10780.98539166359
 21
-91743.64551495747
 31
0.0
 12
-10783.48539166359
 22
-91743.64551495747
 32
0.0
 13
-10783.48539166359
 23
-91743.64551495747
 33
0.0
  0
SOLID
  5
1DCF
330
1DD2
100
AcDbEntity
  8
Defpoints
  6
ByBlock
 62
     0
440
 16777216
100
AcDbTrace
 10
-10782.23539166359
 20
-91661.14551495747
 30
0.0
 11
-10780.98539166359
 21
-91668.64551495747
 31
0.0
 12
-10783.48539166359
 22
-91668.64551495747
 32
0.0
 13
-10783.48539166359
 23
-91668.64551495747
 33
0.0
  0
MTEXT
  5
1DD0
330
1DD2
100
AcDbEntity
  8
Defpoints
  6
ByBlock
 62
     0
440
 16777216
100
AcDbMText
 10
-10782.23539166359
 20
-91706.14551495747
 30
0.0
 40
9.0
 41
0.0
 46
0.0
 71
     5
 72
     1
  1
\A0;90
 11
0.0000000000000001
 21
1.0
 31
0.0
 73
     1
 44
1.0
  0
ENDBLK
  5
208B
330
1DD2
100
AcDbEntity
  8
0
100
AcDbBlockEnd
  0
BLOCK
  5
208C
330
1DE0
100
AcDbEntity
  8
Defpoints
100
AcDbBlockBegin
  2
*D11
 70
     1
 10
0.0
 20
0.0
 30
0.0
  3
*D11
  1

  0
POINT
  5
1DD6
330
1DE0
100
AcDbEntity
  8
Defpoints
  6
ByBlock
440
 16777216
100
AcDbPoint
 10
-11239.23872900323
 20
-91766.70123337519
 30
0.0
  0
POINT
  5
1DD7
330
1DE0
100
AcDbEntity
  8
Defpoints
  6
ByBlock
440
 16777216
100
AcDbPoint
 10
-11329.23872900323
 20
-91766.70123337519
 30
0.0
  0
LINE
  5
1DD8
330
1DE0
100
AcDbEntity
  8
Defpoints
  6
ByBlock
 62
     7
440
 16777216
370
    -2
100
AcDbLine
 10
-11239.23872900323
 20
-91766.70123337519
 30
0.0
 11
-11239.23872900323
 21
-91778.57197188421
 31
0.0
  0
LINE
  5
1DD9
330
1DE0
100
AcDbEntity
  8
Defpoints
  6
ByBlock
 62
     7
440
 16777216
370
    -2
100
AcDbLine
 10
-11329.23872900323
 20
-91766.70123337519
 30
0.0
 11
-11329.23872900323
 21
-91778.57197188421
 31
0.0
  0
LINE
  5
1DDA
330
1DE0
100
AcDbEntity
  8
Defpoints
  6
ByBlock
 62
     0
440
 16777216
370
    -2
100
AcDbLine
 10
-11246.73872900323
 20
-91772.57197188421
 30
0.0
 11
-11274.84623241387
 21
-91772.57197188421
 31
0.0
  0
LINE
  5
1DDB
330
1DE0
100
AcDbEntity
  8
Defpoints
  6
ByBlock
 62
     0
440
 16777216
370
    -2
100
AcDbLine
 10
-11293.63122559259
 20
-91772.57197188421
 30
0.0
 11
-11321.73872900323
 21
-91772.57197188421
 31
0.0
  0
SOLID
  5
1DDC
330
1DE0
100
AcDbEntity
  8
Defpoints
  6
ByBlock
 62
     0
440
 16777216
100
AcDbTrace
 10
-11239.23872900323
 20
-91772.57197188421
 30
0.0
 11
-11246.73872900323
 21
-91771.32197188422
 31
0.0
 12
-11246.73872900323
 22
-91773.82197188421
 32
0.0
 13
-11246.73872900323
 23
-91773.82197188421
 33
0.0
  0
SOLID
  5
1DDD
330
1DE0
100
AcDbEntity
  8
Defpoints
  6
ByBlock
 62
     0
440
 16777216
100
AcDbTrace
 10
-11329.23872900323
 20
-91772.57197188421
 30
0.0
 11
-11321.73872900323
 21
-91771.32197188422
 31
0.0
 12
-11321.73872900323
 22
-91773.82197188421
 32
0.0
 13
-11321.73872900323
 23
-91773.82197188421
 33
0.0
  0
MTEXT
  5
1DDE
330
1DE0
100
AcDbEntity
  8
Defpoints
  6
ByBlock
 62
     0
440
 16777216
100
AcDbMText
 10
-11284.23872900323
 20
-91772.57197188421
 30
0.0
 40
9.0
 41
0.0
 46
0.0
 71
     5
 72
     1
  1
\A0;90
 73
     1
 44
1.0
  0
ENDBLK
  5
208D
330
1DE0
100
AcDbEntity
  8
0
100
AcDbBlockEnd
  0
BLOCK
  5
208E
330
1DEE
100
AcDbEntity
  8
Defpoints
100
AcDbBlockBegin
  2
*D12
 70
     1
 10
0.0
 20
0.0
 30
0.0
  3
*D12
  1

  0
POINT
  5
1DE4
330
1DEE
100
AcDbEntity
  8
Defpoints
  6
ByBlock
440
 16777216
100
AcDbPoint
 10
-11156.04962708859
 20
-91766.70123337519
 30
0.0
  0
POINT
  5
1DE5
330
1DEE
100
AcDbEntity
  8
Defpoints
  6
ByBlock
440
 16777216
100
AcDbPoint
 10
-11200.54962708859
 20
-91767.45233329025
 30
0.0
  0
LINE
  5
1DE6
330
1DEE
100
AcDbEntity
  8
Defpoints
  6
ByBlock
 62
     7
440
 16777216
370
    -2
100
AcDbLine
 10
-11156.04962708859
 20
-91766.70123337519
 30
0.0
 11
-11156.04962708859
 21
-91778.8270428462
 31
0.0
  0
LINE
  5
1DE7
330
1DEE
100
AcDbEntity
  8
Defpoints
  6
ByBlock
 62
     7
440
 16777216
370
    -2
100
AcDbLine
 10
-11200.54962708859
 20
-91767.45233329025
 30
0.0
 11
-11200.54962708859
 21
-91778.8270428462
 31
0.0
  0
LINE
  5
1DE8
330
1DEE
100
AcDbEntity
  8
Defpoints
  6
ByBlock
 62
     0
440
 16777216
370
    -2
100
AcDbLine
 10
-11163.54962708859
 20
-91772.82704284619
 30
0.0
 11
-11168.90713049923
 21
-91772.82704284619
 31
0.0
  0
LINE
  5
1DE9
330
1DEE
100
AcDbEntity
  8
Defpoints
  6
ByBlock
 62
     0
440
 16777216
370
    -2
100
AcDbLine
 10
-11187.69212367795
 20
-91772.82704284619
 30
0.0
 11
-11193.04962708859
 21
-91772.82704284619
 31
0.0
  0
SOLID
  5
1DEA
330
1DEE
100
AcDbEntity
  8
Defpoints
  6
ByBlock
 62
     0
440
 16777216
100
AcDbTrace
 10
-11156.04962708859
 20
-91772.82704284619
 30
0.0
 11
-11163.54962708859
 21
-91771.57704284621
 31
0.0
 12
-11163.54962708859
 22
-91774.0770428462
 32
0.0
 13
-11163.54962708859
 23
-91774.0770428462
 33
0.0
  0
SOLID
  5
1DEB
330
1DEE
100
AcDbEntity
  8
Defpoints
  6
ByBlock
 62
     0
440
 16777216
100
AcDbTrace
 10
-11200.54962708859
 20
-91772.82704284619
 30
0.0
 11
-11193.04962708859
 21
-91771.57704284621
 31
0.0
 12
-11193.04962708859
 22
-91774.0770428462
 32
0.0
 13
-11193.04962708859
 23
-91774.0770428462
 33
0.0
  0
MTEXT
  5
1DEC
330
1DEE
100
AcDbEntity
  8
Defpoints
  6
ByBlock
 62
     0
440
 16777216
100
AcDbMText
 10
-11178.29962708859
 20
-91772.82704284619
 30
0.0
 40
9.0
 41
0.0
 46
0.0
 71
     5
 72
     1
  1
\A0;45
 73
     1
 44
1.0
  0
ENDBLK
  5
208F
330
1DEE
100
AcDbEntity
  8
0
100
AcDbBlockEnd
  0
BLOCK
  5
2090
330
1DFC
100
AcDbEntity
  8
Defpoints
100
AcDbBlockBegin
  2
*D13
 70
     1
 10
0.0
 20
0.0
 30
0.0
  3
*D13
  1

  0
POINT
  5
1DF2
330
1DFC
100
AcDbEntity
  8
Defpoints
  6
ByBlock
440
 16777216
100
AcDbPoint
 10
-11349.24298705847
 20
-91743.61963747065
 30
0.0
  0
POINT
  5
1DF3
330
1DFC
100
AcDbEntity
  8
Defpoints
  6
ByBlock
440
 16777216
100
AcDbPoint
 10
-11349.24298705847
 20
-91653.61963747065
 30
0.0
  0
LINE
  5
1DF4
330
1DFC
100
AcDbEntity
  8
Defpoints
  6
ByBlock
 62
     7
440
 16777216
370
    -2
100
AcDbLine
 10
-11349.24298705847
 20
-91743.61963747065
 30
0.0
 11
-11361.06145223946
 21
-91743.61963747065
 31
0.0
  0
LINE
  5
1DF5
330
1DFC
100
AcDbEntity
  8
Defpoints
  6
ByBlock
 62
     7
440
 16777216
370
    -2
100
AcDbLine
 10
-11349.24298705847
 20
-91653.61963747065
 30
0.0
 11
-11361.06145223946
 21
-91653.61963747065
 31
0.0
  0
LINE
  5
1DF6
330
1DFC
100
AcDbEntity
  8
Defpoints
  6
ByBlock
 62
     0
440
 16777216
370
    -2
100
AcDbLine
 10
-11355.06145223945
 20
-91736.11963747065
 30
0.0
 11
-11355.06145223945
 21
-91708.01213406001
 31
0.0
  0
LINE
  5
1DF7
330
1DFC
100
AcDbEntity
  8
Defpoints
  6
ByBlock
 62
     0
440
 16777216
370
    -2
100
AcDbLine
 10
-11355.06145223945
 20
-91689.22714088129
 30
0.0
 11
-11355.06145223945
 21
-91661.11963747065
 31
0.0
  0
SOLID
  5
1DF8
330
1DFC
100
AcDbEntity
  8
Defpoints
  6
ByBlock
 62
     0
440
 16777216
100
AcDbTrace
 10
-11355.06145223945
 20
-91743.61963747065
 30
0.0
 11
-11353.81145223945
 21
-91736.11963747065
 31
0.0
 12
-11356.31145223946
 22
-91736.11963747065
 32
0.0
 13
-11356.31145223946
 23
-91736.11963747065
 33
0.0
  0
SOLID
  5
1DF9
330
1DFC
100
AcDbEntity
  8
Defpoints
  6
ByBlock
 62
     0
440
 16777216
100
AcDbTrace
 10
-11355.06145223945
 20
-91653.61963747065
 30
0.0
 11
-11353.81145223945
 21
-91661.11963747065
 31
0.0
 12
-11356.31145223946
 22
-91661.11963747065
 32
0.0
 13
-11356.31145223946
 23
-91661.11963747065
 33
0.0
  0
MTEXT
  5
1DFA
330
1DFC
100
AcDbEntity
  8
Defpoints
  6
ByBlock
 62
     0
440
 16777216
100
AcDbMText
 10
-11355.06145223945
 20
-91698.61963747065
 30
0.0
 40
9.0
 41
0.0
 46
0.0
 71
     5
 72
     1
  1
\A0;90
 11
0.0000000000000001
 21
1.0
 31
0.0
 73
     1
 44
1.0
  0
ENDBLK
  5
2091
330
1DFC
100
AcDbEntity
  8
0
100
AcDbBlockEnd
  0
BLOCK
  5
2092
330
1E0A
100
AcDbEntity
  8
Defpoints
100
AcDbBlockBegin
  2
*D14
 70
     1
 10
0.0
 20
0.0
 30
0.0
  3
*D14
  1

  0
POINT
  5
1E00
330
1E0A
100
AcDbEntity
  8
Defpoints
  6
ByBlock
440
 16777216
100
AcDbPoint
 10
-10665.27977631169
 20
-92049.93339118727
 30
0.0
  0
POINT
  5
1E01
330
1E0A
100
AcDbEntity
  8
Defpoints
  6
ByBlock
440
 16777216
100
AcDbPoint
 10
-10755.27977631169
 20
-92049.93339118727
 30
0.0
  0
LINE
  5
1E02
330
1E0A
100
AcDbEntity
  8
Defpoints
  6
ByBlock
 62
     7
440
 16777216
370
    -2
100
AcDbLine
 10
-10665.27977631169
 20
-92049.93339118727
 30
0.0
 11
-10665.27977631169
 21
-92061.80412969629
 31
0.0
  0
LINE
  5
1E03
330
1E0A
100
AcDbEntity
  8
Defpoints
  6
ByBlock
 62
     7
440
 16777216
370
    -2
100
AcDbLine
 10
-10755.27977631169
 20
-92049.93339118727
 30
0.0
 11
-10755.27977631169
 21
-92061.80412969629
 31
0.0
  0
LINE
  5
1E04
330
1E0A
100
AcDbEntity
  8
Defpoints
  6
ByBlock
 62
     0
440
 16777216
370
    -2
100
AcDbLine
 10
-10672.77977631169
 20
-92055.80412969629
 30
0.0
 11
-10700.88727972233
 21
-92055.80412969629
 31
0.0
  0
LINE
  5
1E05
330
1E0A
100
AcDbEntity
  8
Defpoints
  6
ByBlock
 62
     0
440
 16777216
370
    -2
100
AcDbLine
 10
-10719.67227290105
 20
-92055.80412969629
 30
0.0
 11
-10747.77977631169
 21
-92055.80412969629
 31
0.0
  0
SOLID
  5
1E06
330
1E0A
100
AcDbEntity
  8
Defpoints
  6
ByBlock
 62
     0
440
 16777216
100
AcDbTrace
 10
-10665.27977631169
 20
-92055.80412969629
 30
0.0
 11
-10672.77977631169
 21
-92054.55412969628
 31
0.0
 12
-10672.77977631169
 22
-92057.0541296963
 32
0.0
 13
-10672.77977631169
 23
-92057.0541296963
 33
0.0
  0
SOLID
  5
1E07
330
1E0A
100
AcDbEntity
  8
Defpoints
  6
ByBlock
 62
     0
440
 16777216
100
AcDbTrace
 10
-10755.27977631169
 20
-92055.80412969629
 30
0.0
 11
-10747.77977631169
 21
-92054.55412969628
 31
0.0
 12
-10747.77977631169
 22
-92057.0541296963
 32
0.0
 13
-10747.77977631169
 23
-92057.0541296963
 33
0.0
  0
MTEXT
  5
1E08
330
1E0A
100
AcDbEntity
  8
Defpoints
  6
ByBlock
 62
     0
440
 16777216
100
AcDbMText
 10
-10710.27977631169
 20
-92055.80412969629
 30
0.0
 40
9.0
 41
0.0
 46
0.0
 71
     5
 72
     1
  1
\A0;90
 73
     1
 44
1.0
  0
ENDBLK
  5
2093
330
1E0A
100
AcDbEntity
  8
0
100
AcDbBlockEnd
  0
BLOCK
  5
2094
330
1E18
100
AcDbEntity
  8
Defpoints
100
AcDbBlockBegin
  2
*D15
 70
     1
 10
0.0
 20
0.0
 30
0.0
  3
*D15
  1

  0
POINT
  5
1E0E
330
1E18
100
AcDbEntity
  8
Defpoints
  6
ByBlock
440
 16777216
100
AcDbPoint
 10
-10582.09067439705
 20
-92049.93339118727
 30
0.0
  0
POINT
  5
1E0F
330
1E18
100
AcDbEntity
  8
Defpoints
  6
ByBlock
440
 16777216
100
AcDbPoint
 10
-10626.59067439705
 20
-92050.68449110232
 30
0.0
  0
LINE
  5
1E10
330
1E18
100
AcDbEntity
  8
Defpoints
  6
ByBlock
 62
     7
440
 16777216
370
    -2
100
AcDbLine
 10
-10582.09067439705
 20
-92049.93339118727
 30
0.0
 11
-10582.09067439705
 21
-92062.05920065828
 31
0.0
  0
LINE
  5
1E11
330
1E18
100
AcDbEntity
  8
Defpoints
  6
ByBlock
 62
     7
440
 16777216
370
    -2
100
AcDbLine
 10
-10626.59067439705
 20
-92050.68449110232
 30
0.0
 11
-10626.59067439705
 21
-92062.05920065828
 31
0.0
  0
LINE
  5
1E12
330
1E18
100
AcDbEntity
  8
Defpoints
  6
ByBlock
 62
     0
440
 16777216
370
    -2
100
AcDbLine
 10
-10589.59067439705
 20
-92056.05920065828
 30
0.0
 11
-10594.94817780769
 21
-92056.05920065828
 31
0.0
  0
LINE
  5
1E13
330
1E18
100
AcDbEntity
  8
Defpoints
  6
ByBlock
 62
     0
440
 16777216
370
    -2
100
AcDbLine
 10
-10613.73317098641
 20
-92056.05920065828
 30
0.0
 11
-10619.09067439705
 21
-92056.05920065828
 31
0.0
  0
SOLID
  5
1E14
330
1E18
100
AcDbEntity
  8
Defpoints
  6
ByBlock
 62
     0
440
 16777216
100
AcDbTrace
 10
-10582.09067439705
 20
-92056.05920065828
 30
0.0
 11
-10589.59067439705
 21
-92054.80920065827
 31
0.0
 12
-10589.59067439705
 22
-92057.30920065827
 32
0.0
 13
-10589.59067439705
 23
-92057.30920065827
 33
0.0
  0
SOLID
  5
1E15
330
1E18
100
AcDbEntity
  8
Defpoints
  6
ByBlock
 62
     0
440
 16777216
100
AcDbTrace
 10
-10626.59067439705
 20
-92056.05920065828
 30
0.0
 11
-10619.09067439705
 21
-92054.80920065827
 31
0.0
 12
-10619.09067439705
 22
-92057.30920065827
 32
0.0
 13
-10619.09067439705
 23
-92057.30920065827
 33
0.0
  0
MTEXT
  5
1E16
330
1E18
100
AcDbEntity
  8
Defpoints
  6
ByBlock
 62
     0
440
 16777216
100
AcDbMText
 10
-10604.34067439705
 20
-92056.05920065828
 30
0.0
 40
9.0
 41
0.0
 46
0.0
 71
     5
 72
     1
  1
\A0;45
 73
     1
 44
1.0
  0
ENDBLK
  5
2095
330
1E18
100
AcDbEntity
  8
0
100
AcDbBlockEnd
  0
BLOCK
  5
2096
330
1E26
100
AcDbEntity
  8
Defpoints
100
AcDbBlockBegin
  2
*D16
 70
     1
 10
0.0
 20
0.0
 30
0.0
  3
*D16
  1

  0
POINT
  5
1E1C
330
1E26
100
AcDbEntity
  8
Defpoints
  6
ByBlock
440
 16777216
100
AcDbPoint
 10
-10775.28403436693
 20
-92026.85179528272
 30
0.0
  0
POINT
  5
1E1D
330
1E26
100
AcDbEntity
  8
Defpoints
  6
ByBlock
440
 16777216
100
AcDbPoint
 10
-10775.28403436693
 20
-91936.85179528273
 30
0.0
  0
LINE
  5
1E1E
330
1E26
100
AcDbEntity
  8
Defpoints
  6
ByBlock
 62
     7
440
 16777216
370
    -2
100
AcDbLine
 10
-10775.28403436693
 20
-92026.85179528272
 30
0.0
 11
-10787.10249954792
 21
-92026.85179528272
 31
0.0
  0
LINE
  5
1E1F
330
1E26
100
AcDbEntity
  8
Defpoints
  6
ByBlock
 62
     7
440
 16777216
370
    -2
100
AcDbLine
 10
-10775.28403436693
 20
-91936.85179528273
 30
0.0
 11
-10787.10249954792
 21
-91936.85179528273
 31
0.0
  0
LINE
  5
1E20
330
1E26
100
AcDbEntity
  8
Defpoints
  6
ByBlock
 62
     0
440
 16777216
370
    -2
100
AcDbLine
 10
-10781.10249954791
 20
-92019.35179528272
 30
0.0
 11
-10781.10249954791
 21
-91991.24429187207
 31
0.0
  0
LINE
  5
1E21
330
1E26
100
AcDbEntity
  8
Defpoints
  6
ByBlock
 62
     0
440
 16777216
370
    -2
100
AcDbLine
 10
-10781.10249954791
 20
-91972.45929869337
 30
0.0
 11
-10781.10249954791
 21
-91944.35179528273
 31
0.0
  0
SOLID
  5
1E22
330
1E26
100
AcDbEntity
  8
Defpoints
  6
ByBlock
 62
     0
440
 16777216
100
AcDbTrace
 10
-10781.10249954791
 20
-92026.85179528272
 30
0.0
 11
-10779.85249954791
 21
-92019.35179528272
 31
0.0
 12
-10782.35249954792
 22
-92019.35179528272
 32
0.0
 13
-10782.35249954792
 23
-92019.35179528272
 33
0.0
  0
SOLID
  5
1E23
330
1E26
100
AcDbEntity
  8
Defpoints
  6
ByBlock
 62
     0
440
 16777216
100
AcDbTrace
 10
-10781.10249954791
 20
-91936.85179528273
 30
0.0
 11
-10779.85249954791
 21
-91944.35179528273
 31
0.0
 12
-10782.35249954792
 22
-91944.35179528273
 32
0.0
 13
-10782.35249954792
 23
-91944.35179528273
 33
0.0
  0
MTEXT
  5
1E24
330
1E26
100
AcDbEntity
  8
Defpoints
  6
ByBlock
 62
     0
440
 16777216
100
AcDbMText
 10
-10781.10249954791
 20
-91981.85179528273
 30
0.0
 40
9.0
 41
0.0
 46
0.0
 71
     5
 72
     1
  1
\A0;90
 11
0.0000000000000001
 21
1.0
 31
0.0
 73
     1
 44
1.0
  0
ENDBLK
  5
2097
330
1E26
100
AcDbEntity
  8
0
100
AcDbBlockEnd
  0
BLOCK
  5
2098
330
1E34
100
AcDbEntity
  8
Defpoints
100
AcDbBlockBegin
  2
*D17
 70
     1
 10
0.0
 20
0.0
 30
0.0
  3
*D17
  1

  0
POINT
  5
1E2A
330
1E34
100
AcDbEntity
  8
Defpoints
  6
ByBlock
440
 16777216
100
AcDbPoint
 10
-11238.10583688755
 20
-92042.40751370043
 30
0.0
  0
POINT
  5
1E2B
330
1E34
100
AcDbEntity
  8
Defpoints
  6
ByBlock
440
 16777216
100
AcDbPoint
 10
-11328.10583688755
 20
-92042.40751370043
 30
0.0
  0
LINE
  5
1E2C
330
1E34
100
AcDbEntity
  8
Defpoints
  6
ByBlock
 62
     7
440
 16777216
370
    -2
100
AcDbLine
 10
-11238.10583688755
 20
-92042.40751370043
 30
0.0
 11
-11238.10583688755
 21
-92054.27825220946
 31
0.0
  0
LINE
  5
1E2D
330
1E34
100
AcDbEntity
  8
Defpoints
  6
ByBlock
 62
     7
440
 16777216
370
    -2
100
AcDbLine
 10
-11328.10583688755
 20
-92042.40751370043
 30
0.0
 11
-11328.10583688755
 21
-92054.27825220946
 31
0.0
  0
LINE
  5
1E2E
330
1E34
100
AcDbEntity
  8
Defpoints
  6
ByBlock
 62
     0
440
 16777216
370
    -2
100
AcDbLine
 10
-11245.60583688755
 20
-92048.27825220947
 30
0.0
 11
-11273.7133402982
 21
-92048.27825220947
 31
0.0
  0
LINE
  5
1E2F
330
1E34
100
AcDbEntity
  8
Defpoints
  6
ByBlock
 62
     0
440
 16777216
370
    -2
100
AcDbLine
 10
-11292.49833347691
 20
-92048.27825220947
 30
0.0
 11
-11320.60583688755
 21
-92048.27825220947
 31
0.0
  0
SOLID
  5
1E30
330
1E34
100
AcDbEntity
  8
Defpoints
  6
ByBlock
 62
     0
440
 16777216
100
AcDbTrace
 10
-11238.10583688755
 20
-92048.27825220947
 30
0.0
 11
-11245.60583688755
 21
-92047.02825220946
 31
0.0
 12
-11245.60583688755
 22
-92049.52825220946
 32
0.0
 13
-11245.60583688755
 23
-92049.52825220946
 33
0.0
  0
SOLID
  5
1E31
330
1E34
100
AcDbEntity
  8
Defpoints
  6
ByBlock
 62
     0
440
 16777216
100
AcDbTrace
 10
-11328.10583688755
 20
-92048.27825220947
 30
0.0
 11
-11320.60583688755
 21
-92047.02825220946
 31
0.0
 12
-11320.60583688755
 22
-92049.52825220946
 32
0.0
 13
-11320.60583688755
 23
-92049.52825220946
 33
0.0
  0
MTEXT
  5
1E32
330
1E34
100
AcDbEntity
  8
Defpoints
  6
ByBlock
 62
     0
440
 16777216
100
AcDbMText
 10
-11283.10583688755
 20
-92048.27825220947
 30
0.0
 40
9.0
 41
0.0
 46
0.0
 71
     5
 72
     1
  1
\A0;90
 73
     1
 44
1.0
  0
ENDBLK
  5
2099
330
1E34
100
AcDbEntity
  8
0
100
AcDbBlockEnd
  0
BLOCK
  5
209A
330
1E42
100
AcDbEntity
  8
Defpoints
100
AcDbBlockBegin
  2
*D18
 70
     1
 10
0.0
 20
0.0
 30
0.0
  3
*D18
  1

  0
POINT
  5
1E38
330
1E42
100
AcDbEntity
  8
Defpoints
  6
ByBlock
440
 16777216
100
AcDbPoint
 10
-11154.91673497291
 20
-92042.40751370043
 30
0.0
  0
POINT
  5
1E39
330
1E42
100
AcDbEntity
  8
Defpoints
  6
ByBlock
440
 16777216
100
AcDbPoint
 10
-11199.41673497291
 20
-92043.1586136155
 30
0.0
  0
LINE
  5
1E3A
330
1E42
100
AcDbEntity
  8
Defpoints
  6
ByBlock
 62
     7
440
 16777216
370
    -2
100
AcDbLine
 10
-11154.91673497291
 20
-92042.40751370043
 30
0.0
 11
-11154.91673497291
 21
-92054.53332317144
 31
0.0
  0
LINE
  5
1E3B
330
1E42
100
AcDbEntity
  8
Defpoints
  6
ByBlock
 62
     7
440
 16777216
370
    -2
100
AcDbLine
 10
-11199.41673497291
 20
-92043.1586136155
 30
0.0
 11
-11199.41673497291
 21
-92054.53332317144
 31
0.0
  0
LINE
  5
1E3C
330
1E42
100
AcDbEntity
  8
Defpoints
  6
ByBlock
 62
     0
440
 16777216
370
    -2
100
AcDbLine
 10
-11162.41673497291
 20
-92048.53332317144
 30
0.0
 11
-11167.77423838355
 21
-92048.53332317144
 31
0.0
  0
LINE
  5
1E3D
330
1E42
100
AcDbEntity
  8
Defpoints
  6
ByBlock
 62
     0
440
 16777216
370
    -2
100
AcDbLine
 10
-11186.55923156227
 20
-92048.53332317144
 30
0.0
 11
-11191.91673497291
 21
-92048.53332317144
 31
0.0
  0
SOLID
  5
1E3E
330
1E42
100
AcDbEntity
  8
Defpoints
  6
ByBlock
 62
     0
440
 16777216
100
AcDbTrace
 10
-11154.91673497291
 20
-92048.53332317144
 30
0.0
 11
-11162.41673497291
 21
-92047.28332317145
 31
0.0
 12
-11162.41673497291
 22
-92049.78332317145
 32
0.0
 13
-11162.41673497291
 23
-92049.78332317145
 33
0.0
  0
SOLID
  5
1E3F
330
1E42
100
AcDbEntity
  8
Defpoints
  6
ByBlock
 62
     0
440
 16777216
100
AcDbTrace
 10
-11199.41673497291
 20
-92048.53332317144
 30
0.0
 11
-11191.91673497291
 21
-92047.28332317145
 31
0.0
 12
-11191.91673497291
 22
-92049.78332317145
 32
0.0
 13
-11191.91673497291
 23
-92049.78332317145
 33
0.0
  0
MTEXT
  5
1E40
330
1E42
100
AcDbEntity
  8
Defpoints
  6
ByBlock
 62
     0
440
 16777216
100
AcDbMText
 10
-11177.16673497291
 20
-92048.53332317144
 30
0.0
 40
9.0
 41
0.0
 46
0.0
 71
     5
 72
     1
  1
\A0;45
 73
     1
 44
1.0
  0
ENDBLK
  5
209B
330
1E42
100
AcDbEntity
  8
0
100
AcDbBlockEnd
  0
BLOCK
  5
209C
330
1E50
100
AcDbEntity
  8
Defpoints
100
AcDbBlockBegin
  2
*D19
 70
     1
 10
0.0
 20
0.0
 30
0.0
  3
*D19
  1

  0
POINT
  5
1E46
330
1E50
100
AcDbEntity
  8
Defpoints
  6
ByBlock
440
 16777216
100
AcDbPoint
 10
-11348.11009494279
 20
-92019.32591779589
 30
0.0
  0
POINT
  5
1E47
330
1E50
100
AcDbEntity
  8
Defpoints
  6
ByBlock
440
 16777216
100
AcDbPoint
 10
-11348.11009494279
 20
-91929.32591779589
 30
0.0
  0
LINE
  5
1E48
330
1E50
100
AcDbEntity
  8
Defpoints
  6
ByBlock
 62
     7
440
 16777216
370
    -2
100
AcDbLine
 10
-11348.11009494279
 20
-92019.32591779589
 30
0.0
 11
-11359.92856012378
 21
-92019.32591779589
 31
0.0
  0
LINE
  5
1E49
330
1E50
100
AcDbEntity
  8
Defpoints
  6
ByBlock
 62
     7
440
 16777216
370
    -2
100
AcDbLine
 10
-11348.11009494279
 20
-91929.32591779589
 30
0.0
 11
-11359.92856012378
 21
-91929.32591779589
 31
0.0
  0
LINE
  5
1E4A
330
1E50
100
AcDbEntity
  8
Defpoints
  6
ByBlock
 62
     0
440
 16777216
370
    -2
100
AcDbLine
 10
-11353.92856012378
 20
-92011.82591779589
 30
0.0
 11
-11353.92856012378
 21
-91983.71841438525
 31
0.0
  0
LINE
  5
1E4B
330
1E50
100
AcDbEntity
  8
Defpoints
  6
ByBlock
 62
     0
440
 16777216
370
    -2
100
AcDbLine
 10
-11353.92856012378
 20
-91964.93342120655
 30
0.0
 11
-11353.92856012378
 21
-91936.82591779589
 31
0.0
  0
SOLID
  5
1E4C
330
1E50
100
AcDbEntity
  8
Defpoints
  6
ByBlock
 62
     0
440
 16777216
100
AcDbTrace
 10
-11353.92856012378
 20
-92019.32591779589
 30
0.0
 11
-11352.67856012378
 21
-92011.82591779589
 31
0.0
 12
-11355.17856012378
 22
-92011.82591779589
 32
0.0
 13
-11355.17856012378
 23
-92011.82591779589
 33
0.0
  0
SOLID
  5
1E4D
330
1E50
100
AcDbEntity
  8
Defpoints
  6
ByBlock
 62
     0
440
 16777216
100
AcDbTrace
 10
-11353.92856012378
 20
-91929.32591779589
 30
0.0
 11
-11352.67856012378
 21
-91936.82591779589
 31
0.0
 12
-11355.17856012378
 22
-91936.82591779589
 32
0.0
 13
-11355.17856012378
 23
-91936.82591779589
 33
0.0
  0
MTEXT
  5
1E4E
330
1E50
100
AcDbEntity
  8
Defpoints
  6
ByBlock
 62
     0
440
 16777216
100
AcDbMText
 10
-11353.92856012378
 20
-91974.32591779589
 30
0.0
 40
9.0
 41
0.0
 46
0.0
 71
     5
 72
     1
  1
\A0;90
 11
0.0000000000000001
 21
1.0
 31
0.0
 73
     1
 44
1.0
  0
ENDBLK
  5
209D
330
1E50
100
AcDbEntity
  8
0
100
AcDbBlockEnd
  0
BLOCK
  5
209E
330
1E5E
100
AcDbEntity
  8
0
100
AcDbBlockBegin
  2
*D20
 70
     1
 10
0.0
 20
0.0
 30
0.0
  3
*D20
  1

  0
POINT
  5
1E54
330
1E5E
100
AcDbEntity
  8
Defpoints
  6
ByBlock
440
 16777216
100
AcDbPoint
 10
-11228.32235614531
 20
-90489.7186910901
 30
0.0
  0
POINT
  5
1E55
330
1E5E
100
AcDbEntity
  8
Defpoints
  6
ByBlock
440
 16777216
100
AcDbPoint
 10
-11314.32235614531
 20
-90489.7186910901
 30
0.0
  0
LINE
  5
1E56
330
1E5E
100
AcDbEntity
  8
0
  6
ByBlock
 62
     7
440
 16777216
370
    -2
100
AcDbLine
 10
-11228.32235614531
 20
-90489.7186910901
 30
0.0
 11
-11228.32235614531
 21
-90502.44648703731
 31
0.0
  0
LINE
  5
1E57
330
1E5E
100
AcDbEntity
  8
0
  6
ByBlock
 62
     7
440
 16777216
370
    -2
100
AcDbLine
 10
-11314.32235614531
 20
-90489.7186910901
 30
0.0
 11
-11314.32235614531
 21
-90502.44648703731
 31
0.0
  0
LINE
  5
1E58
330
1E5E
100
AcDbEntity
  8
0
  6
ByBlock
 62
     0
440
 16777216
370
    -2
100
AcDbLine
 10
-11235.82235614531
 20
-90496.44648703733
 30
0.0
 11
-11261.92985955596
 21
-90496.44648703733
 31
0.0
  0
LINE
  5
1E59
330
1E5E
100
AcDbEntity
  8
0
  6
ByBlock
 62
     0
440
 16777216
370
    -2
100
AcDbLine
 10
-11280.71485273467
 20
-90496.44648703733
 30
0.0
 11
-11306.82235614531
 21
-90496.44648703733
 31
0.0
  0
SOLID
  5
1E5A
330
1E5E
100
AcDbEntity
  8
0
  6
ByBlock
 62
     0
440
 16777216
100
AcDbTrace
 10
-11228.32235614531
 20
-90496.44648703733
 30
0.0
 11
-11235.82235614531
 21
-90495.19648703732
 31
0.0
 12
-11235.82235614531
 22
-90497.69648703732
 32
0.0
 13
-11235.82235614531
 23
-90497.69648703732
 33
0.0
  0
SOLID
  5
1E5B
330
1E5E
100
AcDbEntity
  8
0
  6
ByBlock
 62
     0
440
 16777216
100
AcDbTrace
 10
-11314.32235614531
 20
-90496.44648703733
 30
0.0
 11
-11306.82235614531
 21
-90495.19648703732
 31
0.0
 12
-11306.82235614531
 22
-90497.69648703732
 32
0.0
 13
-11306.82235614531
 23
-90497.69648703732
 33
0.0
  0
MTEXT
  5
1E5C
330
1E5E
100
AcDbEntity
  8
0
  6
ByBlock
 62
     0
440
 16777216
100
AcDbMText
 10
-11271.32235614531
 20
-90496.44648703733
 30
0.0
 40
9.0
 41
0.0
 46
0.0
 71
     5
 72
     1
  1
\A0;86
 73
     1
 44
1.0
  0
ENDBLK
  5
209F
330
1E5E
100
AcDbEntity
  8
0
100
AcDbBlockEnd
  0
BLOCK
  5
20A0
330
1E6C
100
AcDbEntity
  8
0
100
AcDbBlockBegin
  2
*D21
 70
     1
 10
0.0
 20
0.0
 30
0.0
  3
*D21
  1

  0
POINT
  5
1E62
330
1E6C
100
AcDbEntity
  8
Defpoints
  6
ByBlock
440
 16777216
100
AcDbPoint
 10
-11336.83997187219
 20
-90464.63709518556
 30
0.0
  0
POINT
  5
1E63
330
1E6C
100
AcDbEntity
  8
Defpoints
  6
ByBlock
440
 16777216
100
AcDbPoint
 10
-11335.62739692496
 20
-90378.63709518557
 30
0.0
  0
LINE
  5
1E64
330
1E6C
100
AcDbEntity
  8
0
  6
ByBlock
 62
     7
440
 16777216
370
    -2
100
AcDbLine
 10
-11336.83997187219
 20
-90464.63709518556
 30
0.0
 11
-11347.96642845006
 21
-90464.63709518556
 31
0.0
  0
LINE
  5
1E65
330
1E6C
100
AcDbEntity
  8
0
  6
ByBlock
 62
     7
440
 16777216
370
    -2
100
AcDbLine
 10
-11335.62739692496
 20
-90378.63709518557
 30
0.0
 11
-11347.96642845006
 21
-90378.63709518557
 31
0.0
  0
LINE
  5
1E66
330
1E6C
100
AcDbEntity
  8
0
  6
ByBlock
 62
     0
440
 16777216
370
    -2
100
AcDbLine
 10
-11341.96642845006
 20
-90457.13709518556
 30
0.0
 11
-11341.96642845006
 21
-90431.02959177492
 31
0.0
  0
LINE
  5
1E67
330
1E6C
100
AcDbEntity
  8
0
  6
ByBlock
 62
     0
440
 16777216
370
    -2
100
AcDbLine
 10
-11341.96642845006
 20
-90412.24459859622
 30
0.0
 11
-11341.96642845006
 21
-90386.13709518557
 31
0.0
  0
SOLID
  5
1E68
330
1E6C
100
AcDbEntity
  8
0
  6
ByBlock
 62
     0
440
 16777216
100
AcDbTrace
 10
-11341.96642845006
 20
-90464.63709518556
 30
0.0
 11
-11340.71642845006
 21
-90457.13709518556
 31
0.0
 12
-11343.21642845006
 22
-90457.13709518556
 32
0.0
 13
-11343.21642845006
 23
-90457.13709518556
 33
0.0
  0
SOLID
  5
1E69
330
1E6C
100
AcDbEntity
  8
0
  6
ByBlock
 62
     0
440
 16777216
100
AcDbTrace
 10
-11341.96642845006
 20
-90378.63709518557
 30
0.0
 11
-11340.71642845006
 21
-90386.13709518557
 31
0.0
 12
-11343.21642845006
 22
-90386.13709518557
 32
0.0
 13
-11343.21642845006
 23
-90386.13709518557
 33
0.0
  0
MTEXT
  5
1E6A
330
1E6C
100
AcDbEntity
  8
0
  6
ByBlock
 62
     0
440
 16777216
100
AcDbMText
 10
-11341.96642845006
 20
-90421.63709518556
 30
0.0
 40
9.0
 41
0.0
 46
0.0
 71
     5
 72
     1
  1
\A0;86
 11
0.0000000000000001
 21
1.0
 31
0.0
 73
     1
 44
1.0
  0
ENDBLK
  5
20A1
330
1E6C
100
AcDbEntity
  8
0
100
AcDbBlockEnd
  0
BLOCK
  5
20A2
330
1E7A
100
AcDbEntity
  8
0
100
AcDbBlockBegin
  2
*D22
 70
     1
 10
0.0
 20
0.0
 30
0.0
  3
*D22
  1

  0
POINT
  5
1E70
330
1E7A
100
AcDbEntity
  8
Defpoints
  6
ByBlock
440
 16777216
100
AcDbPoint
 10
-11157.55242703622
 20
-90491.42481017224
 30
0.0
  0
POINT
  5
1E71
330
1E7A
100
AcDbEntity
  8
Defpoints
  6
ByBlock
440
 16777216
100
AcDbPoint
 10
-11187.63325423067
 20
-90490.91320576835
 30
0.0
  0
LINE
  5
1E72
330
1E7A
100
AcDbEntity
  8
0
  6
ByBlock
 62
     7
440
 16777216
370
    -2
100
AcDbLine
 10
-11157.55242703622
 20
-90491.42481017224
 30
0.0
 11
-11157.55242703622
 21
-90502.67816979063
 31
0.0
  0
LINE
  5
1E73
330
1E7A
100
AcDbEntity
  8
0
  6
ByBlock
 62
     7
440
 16777216
370
    -2
100
AcDbLine
 10
-11187.63325423067
 20
-90490.91320576835
 30
0.0
 11
-11187.63325423067
 21
-90502.67816979063
 31
0.0
  0
LINE
  5
1E74
330
1E7A
100
AcDbEntity
  8
0
  6
ByBlock
 62
     0
440
 16777216
370
    -2
100
AcDbLine
 10
-11165.05242703622
 20
-90496.67816979065
 30
0.0
 11
-11180.13325423067
 21
-90496.67816979065
 31
0.0
  0
LINE
  5
1E75
330
1E7A
100
AcDbEntity
  8
0
  6
ByBlock
 62
     0
440
 16777216
370
    -2
100
AcDbLine
 10
-11195.13325423067
 20
-90496.67816979065
 30
0.0
 11
-11180.13325423067
 21
-90496.67816979065
 31
0.0
  0
SOLID
  5
1E76
330
1E7A
100
AcDbEntity
  8
0
  6
ByBlock
 62
     0
440
 16777216
100
AcDbTrace
 10
-11157.55242703622
 20
-90496.67816979065
 30
0.0
 11
-11165.05242703622
 21
-90495.42816979064
 31
0.0
 12
-11165.05242703622
 22
-90497.92816979064
 32
0.0
 13
-11165.05242703622
 23
-90497.92816979064
 33
0.0
  0
SOLID
  5
1E77
330
1E7A
100
AcDbEntity
  8
0
  6
ByBlock
 62
     0
440
 16777216
100
AcDbTrace
 10
-11187.63325423067
 20
-90496.67816979065
 30
0.0
 11
-11180.13325423067
 21
-90495.42816979064
 31
0.0
 12
-11180.13325423067
 22
-90497.92816979064
 32
0.0
 13
-11180.13325423067
 23
-90497.92816979064
 33
0.0
  0
MTEXT
  5
1E78
330
1E7A
100
AcDbEntity
  8
0
  6
ByBlock
 62
     0
440
 16777216
100
AcDbMText
 10
-11204.52575082003
 20
-90496.67816979065
 30
0.0
 40
9.0
 41
0.0
 46
0.0
 71
     5
 72
     1
  1
\A0;30
 73
     1
 44
1.0
  0
ENDBLK
  5
20A3
330
1E7A
100
AcDbEntity
  8
0
100
AcDbBlockEnd
  0
BLOCK
  5
20A4
330
1E88
100
AcDbEntity
  8
0
100
AcDbBlockBegin
  2
*D23
 70
     1
 10
0.0
 20
0.0
 30
0.0
  3
*D23
  1

  0
POINT
  5
1E7E
330
1E88
100
AcDbEntity
  8
Defpoints
  6
ByBlock
440
 16777216
100
AcDbPoint
 10
-11083.44319076563
 20
-90345.26783270665
 30
0.0
  0
POINT
  5
1E7F
330
1E88
100
AcDbEntity
  8
Defpoints
  6
ByBlock
440
 16777216
100
AcDbPoint
 10
-11083.44319076563
 20
-90545.26783270665
 30
0.0
  0
LINE
  5
1E80
330
1E88
100
AcDbEntity
  8
0
  6
ByBlock
 62
     0
440
 16777216
370
    -2
100
AcDbLine
 10
-11083.44319076563
 20
-90345.26783270665
 30
0.0
 11
-11027.71289004989
 21
-90345.26783270665
 31
0.0
  0
LINE
  5
1E81
330
1E88
100
AcDbEntity
  8
0
  6
ByBlock
 62
     0
440
 16777216
370
    -2
100
AcDbLine
 10
-11083.44319076563
 20
-90545.26783270665
 30
0.0
 11
-11027.71289004989
 21
-90545.26783270665
 31
0.0
  0
LINE
  5
1E82
330
1E88
100
AcDbEntity
  8
0
  6
ByBlock
 62
     0
440
 16777216
370
    -2
100
AcDbLine
 10
-11030.71289004989
 20
-90350.66783270664
 30
0.0
 11
-11030.71289004989
 21
-90440.76783270666
 31
0.0
  0
LINE
  5
1E83
330
1E88
100
AcDbEntity
  8
0
  6
ByBlock
 62
     0
440
 16777216
370
    -2
100
AcDbLine
 10
-11030.71289004989
 20
-90449.76783270666
 30
0.0
 11
-11030.71289004989
 21
-90539.86783270666
 31
0.0
  0
SOLID
  5
1E84
330
1E88
100
AcDbEntity
  8
0
  6
ByBlock
 62
     0
440
 16777216
100
AcDbTrace
 10
-11030.71289004989
 20
-90345.26783270665
 30
0.0
 11
-11031.61289004989
 21
-90350.66783270664
 31
0.0
 12
-11029.81289004989
 22
-90350.66783270664
 32
0.0
 13
-11029.81289004989
 23
-90350.66783270664
 33
0.0
  0
SOLID
  5
1E85
330
1E88
100
AcDbEntity
  8
0
  6
ByBlock
 62
     0
440
 16777216
100
AcDbTrace
 10
-11030.71289004989
 20
-90545.26783270665
 30
0.0
 11
-11031.61289004989
 21
-90539.86783270666
 31
0.0
 12
-11029.81289004989
 22
-90539.86783270666
 32
0.0
 13
-11029.81289004989
 23
-90539.86783270666
 33
0.0
  0
MTEXT
  5
1E86
330
1E88
100
AcDbEntity
  8
0
  6
ByBlock
 62
     0
440
 16777216
100
AcDbMText
 10
-11030.71289004989
 20
-90445.26783270665
 30
0.0
 40
6.0
 41
0.0
 46
0.0
 71
     5
 72
     1
  1
\A1;200
 73
     1
 44
1.0
  0
ENDBLK
  5
20A5
330
1E88
100
AcDbEntity
  8
0
100
AcDbBlockEnd
  0
BLOCK
  5
20A6
330
1E96
100
AcDbEntity
  8
0
100
AcDbBlockBegin
  2
*D24
 70
     1
 10
0.0
 20
0.0
 30
0.0
  3
*D24
  1

  0
POINT
  5
1E8C
330
1E96
100
AcDbEntity
  8
Defpoints
  6
ByBlock
440
 16777216
100
AcDbPoint
 10
-11083.44319076563
 20
-90545.26783270665
 30
0.0
  0
POINT
  5
1E8D
330
1E96
100
AcDbEntity
  8
Defpoints
  6
ByBlock
440
 16777216
100
AcDbPoint
 10
-11433.44319076563
 20
-90545.26783270665
 30
0.0
  0
LINE
  5
1E8E
330
1E96
100
AcDbEntity
  8
0
  6
ByBlock
 62
     0
440
 16777216
370
    -2
100
AcDbLine
 10
-11083.44319076563
 20
-90545.26783270665
 30
0.0
 11
-11083.44319076563
 21
-90585.92105652177
 31
0.0
  0
LINE
  5
1E8F
330
1E96
100
AcDbEntity
  8
0
  6
ByBlock
 62
     0
440
 16777216
370
    -2
100
AcDbLine
 10
-11433.44319076563
 20
-90545.26783270665
 30
0.0
 11
-11433.44319076563
 21
-90585.92105652177
 31
0.0
  0
LINE
  5
1E90
330
1E96
100
AcDbEntity
  8
0
  6
ByBlock
 62
     0
440
 16777216
370
    -2
100
AcDbLine
 10
-11088.84319076563
 20
-90582.92105652178
 30
0.0
 11
-11249.95069417627
 21
-90582.92105652178
 31
0.0
  0
LINE
  5
1E91
330
1E96
100
AcDbEntity
  8
0
  6
ByBlock
 62
     0
440
 16777216
370
    -2
100
AcDbLine
 10
-11266.93568735499
 20
-90582.92105652178
 30
0.0
 11
-11428.04319076563
 21
-90582.92105652178
 31
0.0
  0
SOLID
  5
1E92
330
1E96
100
AcDbEntity
  8
0
  6
ByBlock
 62
     0
440
 16777216
100
AcDbTrace
 10
-11083.44319076563
 20
-90582.92105652178
 30
0.0
 11
-11088.84319076563
 21
-90582.02105652178
 31
0.0
 12
-11088.84319076563
 22
-90583.82105652178
 32
0.0
 13
-11088.84319076563
 23
-90583.82105652178
 33
0.0
  0
SOLID
  5
1E93
330
1E96
100
AcDbEntity
  8
0
  6
ByBlock
 62
     0
440
 16777216
100
AcDbTrace
 10
-11433.44319076563
 20
-90582.92105652178
 30
0.0
 11
-11428.04319076563
 21
-90582.02105652178
 31
0.0
 12
-11428.04319076563
 22
-90583.82105652178
 32
0.0
 13
-11428.04319076563
 23
-90583.82105652178
 33
0.0
  0
MTEXT
  5
1E94
330
1E96
100
AcDbEntity
  8
0
  6
ByBlock
 62
     0
440
 16777216
100
AcDbMText
 10
-11258.44319076563
 20
-90582.92105652178
 30
0.0
 40
6.0
 41
0.0
 46
0.0
 71
     5
 72
     1
  1
\A1;350
 73
     1
 44
1.0
  0
ENDBLK
  5
20A7
330
1E96
100
AcDbEntity
  8
0
100
AcDbBlockEnd
  0
BLOCK
  5
20A8
330
1EA4
100
AcDbEntity
  8
0
100
AcDbBlockBegin
  2
*D25
 70
     1
 10
0.0
 20
0.0
 30
0.0
  3
*D25
  1

  0
POINT
  5
1E9A
330
1EA4
100
AcDbEntity
  8
Defpoints
  6
ByBlock
440
 16777216
100
AcDbPoint
 10
-10658.28092888223
 20
-90498.16952281613
 30
0.0
  0
POINT
  5
1E9B
330
1EA4
100
AcDbEntity
  8
Defpoints
  6
ByBlock
440
 16777216
100
AcDbPoint
 10
-10744.28092888223
 20
-90498.16952281613
 30
0.0
  0
LINE
  5
1E9C
330
1EA4
100
AcDbEntity
  8
0
  6
ByBlock
 62
     7
440
 16777216
370
    -2
100
AcDbLine
 10
-10658.28092888223
 20
-90498.16952281613
 30
0.0
 11
-10658.28092888223
 21
-90510.90251552682
 31
0.0
  0
LINE
  5
1E9D
330
1EA4
100
AcDbEntity
  8
0
  6
ByBlock
 62
     7
440
 16777216
370
    -2
100
AcDbLine
 10
-10744.28092888223
 20
-90498.16952281613
 30
0.0
 11
-10744.28092888223
 21
-90510.90251552682
 31
0.0
  0
LINE
  5
1E9E
330
1EA4
100
AcDbEntity
  8
0
  6
ByBlock
 62
     0
440
 16777216
370
    -2
100
AcDbLine
 10
-10665.78092888223
 20
-90504.90251552682
 30
0.0
 11
-10691.88843229287
 21
-90504.90251552682
 31
0.0
  0
LINE
  5
1E9F
330
1EA4
100
AcDbEntity
  8
0
  6
ByBlock
 62
     0
440
 16777216
370
    -2
100
AcDbLine
 10
-10710.67342547158
 20
-90504.90251552682
 30
0.0
 11
-10736.78092888223
 21
-90504.90251552682
 31
0.0
  0
SOLID
  5
1EA0
330
1EA4
100
AcDbEntity
  8
0
  6
ByBlock
 62
     0
440
 16777216
100
AcDbTrace
 10
-10658.28092888223
 20
-90504.90251552682
 30
0.0
 11
-10665.78092888223
 21
-90503.65251552682
 31
0.0
 12
-10665.78092888223
 22
-90506.15251552681
 32
0.0
 13
-10665.78092888223
 23
-90506.15251552681
 33
0.0
  0
SOLID
  5
1EA1
330
1EA4
100
AcDbEntity
  8
0
  6
ByBlock
 62
     0
440
 16777216
100
AcDbTrace
 10
-10744.28092888223
 20
-90504.90251552682
 30
0.0
 11
-10736.78092888223
 21
-90503.65251552682
 31
0.0
 12
-10736.78092888223
 22
-90506.15251552681
 32
0.0
 13
-10736.78092888223
 23
-90506.15251552681
 33
0.0
  0
MTEXT
  5
1EA2
330
1EA4
100
AcDbEntity
  8
0
  6
ByBlock
 62
     0
440
 16777216
100
AcDbMText
 10
-10701.28092888223
 20
-90504.90251552682
 30
0.0
 40
9.0
 41
0.0
 46
0.0
 71
     5
 72
     1
  1
\A0;86
 73
     1
 44
1.0
  0
ENDBLK
  5
20A9
330
1EA4
100
AcDbEntity
  8
0
100
AcDbBlockEnd
  0
BLOCK
  5
20AA
330
1EB2
100
AcDbEntity
  8
0
100
AcDbBlockBegin
  2
*D26
 70
     1
 10
0.0
 20
0.0
 30
0.0
  3
*D26
  1

  0
POINT
  5
1EA8
330
1EB2
100
AcDbEntity
  8
Defpoints
  6
ByBlock
440
 16777216
100
AcDbPoint
 10
-10766.28518693746
 20
-90470.56695116134
 30
0.0
  0
POINT
  5
1EA9
330
1EB2
100
AcDbEntity
  8
Defpoints
  6
ByBlock
440
 16777216
100
AcDbPoint
 10
-10766.28518693746
 20
-90384.56695116135
 30
0.0
  0
LINE
  5
1EAA
330
1EB2
100
AcDbEntity
  8
0
  6
ByBlock
 62
     7
440
 16777216
370
    -2
100
AcDbLine
 10
-10766.28518693746
 20
-90470.56695116134
 30
0.0
 11
-10778.06755171549
 21
-90470.56695116134
 31
0.0
  0
LINE
  5
1EAB
330
1EB2
100
AcDbEntity
  8
0
  6
ByBlock
 62
     7
440
 16777216
370
    -2
100
AcDbLine
 10
-10766.28518693746
 20
-90384.56695116135
 30
0.0
 11
-10778.06755171549
 21
-90384.56695116135
 31
0.0
  0
LINE
  5
1EAC
330
1EB2
100
AcDbEntity
  8
0
  6
ByBlock
 62
     0
440
 16777216
370
    -2
100
AcDbLine
 10
-10772.06755171549
 20
-90463.06695116134
 30
0.0
 11
-10772.06755171549
 21
-90436.9594477507
 31
0.0
  0
LINE
  5
1EAD
330
1EB2
100
AcDbEntity
  8
0
  6
ByBlock
 62
     0
440
 16777216
370
    -2
100
AcDbLine
 10
-10772.06755171549
 20
-90418.174454572
 30
0.0
 11
-10772.06755171549
 21
-90392.06695116135
 31
0.0
  0
SOLID
  5
1EAE
330
1EB2
100
AcDbEntity
  8
0
  6
ByBlock
 62
     0
440
 16777216
100
AcDbTrace
 10
-10772.06755171549
 20
-90470.56695116134
 30
0.0
 11
-10770.81755171549
 21
-90463.06695116134
 31
0.0
 12
-10773.31755171549
 22
-90463.06695116134
 32
0.0
 13
-10773.31755171549
 23
-90463.06695116134
 33
0.0
  0
SOLID
  5
1EAF
330
1EB2
100
AcDbEntity
  8
0
  6
ByBlock
 62
     0
440
 16777216
100
AcDbTrace
 10
-10772.06755171549
 20
-90384.56695116135
 30
0.0
 11
-10770.81755171549
 21
-90392.06695116135
 31
0.0
 12
-10773.31755171549
 22
-90392.06695116135
 32
0.0
 13
-10773.31755171549
 23
-90392.06695116135
 33
0.0
  0
MTEXT
  5
1EB0
330
1EB2
100
AcDbEntity
  8
0
  6
ByBlock
 62
     0
440
 16777216
100
AcDbMText
 10
-10772.06755171549
 20
-90427.56695116136
 30
0.0
 40
9.0
 41
0.0
 46
0.0
 71
     5
 72
     1
  1
\A0;86
 11
0.0000000000000001
 21
1.0
 31
0.0
 73
     1
 44
1.0
  0
ENDBLK
  5
20AB
330
1EB2
100
AcDbEntity
  8
0
100
AcDbBlockEnd
  0
BLOCK
  5
20AC
330
1EC0
100
AcDbEntity
  8
0
100
AcDbBlockBegin
  2
*D27
 70
     1
 10
0.0
 20
0.0
 30
0.0
  3
*D27
  1

  0
POINT
  5
1EB6
330
1EC0
100
AcDbEntity
  8
Defpoints
  6
ByBlock
440
 16777216
100
AcDbPoint
 10
-10587.59013148743
 20
-90498.16952281613
 30
0.0
  0
POINT
  5
1EB7
330
1EC0
100
AcDbEntity
  8
Defpoints
  6
ByBlock
440
 16777216
100
AcDbPoint
 10
-10617.59013148743
 20
-90498.16952281613
 30
0.0
  0
LINE
  5
1EB8
330
1EC0
100
AcDbEntity
  8
0
  6
ByBlock
 62
     7
440
 16777216
370
    -2
100
AcDbLine
 10
-10587.59013148743
 20
-90498.16952281613
 30
0.0
 11
-10587.59013148743
 21
-90511.48739121524
 31
0.0
  0
LINE
  5
1EB9
330
1EC0
100
AcDbEntity
  8
0
  6
ByBlock
 62
     7
440
 16777216
370
    -2
100
AcDbLine
 10
-10617.59013148743
 20
-90498.16952281613
 30
0.0
 11
-10617.59013148743
 21
-90511.48739121524
 31
0.0
  0
LINE
  5
1EBA
330
1EC0
100
AcDbEntity
  8
0
  6
ByBlock
 62
     0
440
 16777216
370
    -2
100
AcDbLine
 10
-10595.09013148743
 20
-90505.48739121524
 30
0.0
 11
-10610.09013148743
 21
-90505.48739121524
 31
0.0
  0
LINE
  5
1EBB
330
1EC0
100
AcDbEntity
  8
0
  6
ByBlock
 62
     0
440
 16777216
370
    -2
100
AcDbLine
 10
-10625.09013148743
 20
-90505.48739121524
 30
0.0
 11
-10610.09013148743
 21
-90505.48739121524
 31
0.0
  0
SOLID
  5
1EBC
330
1EC0
100
AcDbEntity
  8
0
  6
ByBlock
 62
     0
440
 16777216
100
AcDbTrace
 10
-10587.59013148743
 20
-90505.48739121524
 30
0.0
 11
-10595.09013148743
 21
-90504.23739121525
 31
0.0
 12
-10595.09013148743
 22
-90506.73739121524
 32
0.0
 13
-10595.09013148743
 23
-90506.73739121524
 33
0.0
  0
SOLID
  5
1EBD
330
1EC0
100
AcDbEntity
  8
0
  6
ByBlock
 62
     0
440
 16777216
100
AcDbTrace
 10
-10617.59013148743
 20
-90505.48739121524
 30
0.0
 11
-10610.09013148743
 21
-90504.23739121525
 31
0.0
 12
-10610.09013148743
 22
-90506.73739121524
 32
0.0
 13
-10610.09013148743
 23
-90506.73739121524
 33
0.0
  0
MTEXT
  5
1EBE
330
1EC0
100
AcDbEntity
  8
0
  6
ByBlock
 62
     0
440
 16777216
100
AcDbMText
 10
-10634.48262807679
 20
-90505.48739121524
 30
0.0
 40
9.0
 41
0.0
 46
0.0
 71
     5
 72
     1
  1
\A0;30
 73
     1
 44
1.0
  0
ENDBLK
  5
20AD
330
1EC0
100
AcDbEntity
  8
0
100
AcDbBlockEnd
  0
BLOCK
  5
20AE
330
1ECE
100
AcDbEntity
  8
0
100
AcDbBlockBegin
  2
*D28
 70
     1
 10
0.0
 20
0.0
 30
0.0
  3
*D28
  1

  0
POINT
  5
1EC4
330
1ECE
100
AcDbEntity
  8
Defpoints
  6
ByBlock
440
 16777216
100
AcDbPoint
 10
-11226.08512033862
 20
-90836.69534376957
 30
0.0
  0
POINT
  5
1EC5
330
1ECE
100
AcDbEntity
  8
Defpoints
  6
ByBlock
440
 16777216
100
AcDbPoint
 10
-11312.08512033862
 20
-90836.69534376957
 30
0.0
  0
LINE
  5
1EC6
330
1ECE
100
AcDbEntity
  8
0
  6
ByBlock
 62
     7
440
 16777216
370
    -2
100
AcDbLine
 10
-11226.08512033862
 20
-90836.69534376957
 30
0.0
 11
-11226.08512033862
 21
-90849.42313971678
 31
0.0
  0
LINE
  5
1EC7
330
1ECE
100
AcDbEntity
  8
0
  6
ByBlock
 62
     7
440
 16777216
370
    -2
100
AcDbLine
 10
-11312.08512033862
 20
-90836.69534376957
 30
0.0
 11
-11312.08512033862
 21
-90849.42313971678
 31
0.0
  0
LINE
  5
1EC8
330
1ECE
100
AcDbEntity
  8
0
  6
ByBlock
 62
     0
440
 16777216
370
    -2
100
AcDbLine
 10
-11233.58512033862
 20
-90843.4231397168
 30
0.0
 11
-11259.69262374927
 21
-90843.4231397168
 31
0.0
  0
LINE
  5
1EC9
330
1ECE
100
AcDbEntity
  8
0
  6
ByBlock
 62
     0
440
 16777216
370
    -2
100
AcDbLine
 10
-11278.47761692798
 20
-90843.4231397168
 30
0.0
 11
-11304.58512033862
 21
-90843.4231397168
 31
0.0
  0
SOLID
  5
1ECA
330
1ECE
100
AcDbEntity
  8
0
  6
ByBlock
 62
     0
440
 16777216
100
AcDbTrace
 10
-11226.08512033862
 20
-90843.4231397168
 30
0.0
 11
-11233.58512033862
 21
-90842.17313971679
 31
0.0
 12
-11233.58512033862
 22
-90844.67313971678
 32
0.0
 13
-11233.58512033862
 23
-90844.67313971678
 33
0.0
  0
SOLID
  5
1ECB
330
1ECE
100
AcDbEntity
  8
0
  6
ByBlock
 62
     0
440
 16777216
100
AcDbTrace
 10
-11312.08512033862
 20
-90843.4231397168
 30
0.0
 11
-11304.58512033862
 21
-90842.17313971679
 31
0.0
 12
-11304.58512033862
 22
-90844.67313971678
 32
0.0
 13
-11304.58512033862
 23
-90844.67313971678
 33
0.0
  0
MTEXT
  5
1ECC
330
1ECE
100
AcDbEntity
  8
0
  6
ByBlock
 62
     0
440
 16777216
100
AcDbMText
 10
-11269.08512033862
 20
-90843.4231397168
 30
0.0
 40
9.0
 41
0.0
 46
0.0
 71
     5
 72
     1
  1
\A0;86
 73
     1
 44
1.0
  0
ENDBLK
  5
20AF
330
1ECE
100
AcDbEntity
  8
0
100
AcDbBlockEnd
  0
BLOCK
  5
20B0
330
1EDC
100
AcDbEntity
  8
0
100
AcDbBlockBegin
  2
*D29
 70
     1
 10
0.0
 20
0.0
 30
0.0
  3
*D29
  1

  0
POINT
  5
1ED2
330
1EDC
100
AcDbEntity
  8
Defpoints
  6
ByBlock
440
 16777216
100
AcDbPoint
 10
-11155.31519122953
 20
-90838.40146285171
 30
0.0
  0
POINT
  5
1ED3
330
1EDC
100
AcDbEntity
  8
Defpoints
  6
ByBlock
440
 16777216
100
AcDbPoint
 10
-11185.39601842398
 20
-90837.88985844782
 30
0.0
  0
LINE
  5
1ED4
330
1EDC
100
AcDbEntity
  8
0
  6
ByBlock
 62
     7
440
 16777216
370
    -2
100
AcDbLine
 10
-11155.31519122953
 20
-90838.40146285171
 30
0.0
 11
-11155.31519122953
 21
-90849.6548224701
 31
0.0
  0
LINE
  5
1ED5
330
1EDC
100
AcDbEntity
  8
0
  6
ByBlock
 62
     7
440
 16777216
370
    -2
100
AcDbLine
 10
-11185.39601842398
 20
-90837.88985844782
 30
0.0
 11
-11185.39601842398
 21
-90849.6548224701
 31
0.0
  0
LINE
  5
1ED6
330
1EDC
100
AcDbEntity
  8
0
  6
ByBlock
 62
     0
440
 16777216
370
    -2
100
AcDbLine
 10
-11162.81519122953
 20
-90843.65482247012
 30
0.0
 11
-11177.89601842398
 21
-90843.65482247012
 31
0.0
  0
LINE
  5
1ED7
330
1EDC
100
AcDbEntity
  8
0
  6
ByBlock
 62
     0
440
 16777216
370
    -2
100
AcDbLine
 10
-11192.89601842398
 20
-90843.65482247012
 30
0.0
 11
-11177.89601842398
 21
-90843.65482247012
 31
0.0
  0
SOLID
  5
1ED8
330
1EDC
100
AcDbEntity
  8
0
  6
ByBlock
 62
     0
440
 16777216
100
AcDbTrace
 10
-11155.31519122953
 20
-90843.65482247012
 30
0.0
 11
-11162.81519122953
 21
-90842.40482247011
 31
0.0
 12
-11162.81519122953
 22
-90844.9048224701
 32
0.0
 13
-11162.81519122953
 23
-90844.9048224701
 33
0.0
  0
SOLID
  5
1ED9
330
1EDC
100
AcDbEntity
  8
0
  6
ByBlock
 62
     0
440
 16777216
100
AcDbTrace
 10
-11185.39601842398
 20
-90843.65482247012
 30
0.0
 11
-11177.89601842398
 21
-90842.40482247011
 31
0.0
 12
-11177.89601842398
 22
-90844.9048224701
 32
0.0
 13
-11177.89601842398
 23
-90844.9048224701
 33
0.0
  0
MTEXT
  5
1EDA
330
1EDC
100
AcDbEntity
  8
0
  6
ByBlock
 62
     0
440
 16777216
100
AcDbMText
 10
-11202.28851501334
 20
-90843.65482247012
 30
0.0
 40
9.0
 41
0.0
 46
0.0
 71
     5
 72
     1
  1
\A0;30
 73
     1
 44
1.0
  0
ENDBLK
  5
20B1
330
1EDC
100
AcDbEntity
  8
0
100
AcDbBlockEnd
  0
BLOCK
  5
20B2
330
1EEA
100
AcDbEntity
  8
0
100
AcDbBlockBegin
  2
*D30
 70
     1
 10
0.0
 20
0.0
 30
0.0
  3
*D30
  1

  0
POINT
  5
1EE0
330
1EEA
100
AcDbEntity
  8
Defpoints
  6
ByBlock
440
 16777216
100
AcDbPoint
 10
-11334.6027360655
 20
-90811.61374786503
 30
0.0
  0
POINT
  5
1EE1
330
1EEA
100
AcDbEntity
  8
Defpoints
  6
ByBlock
440
 16777216
100
AcDbPoint
 10
-11333.39016111827
 20
-90725.61374786504
 30
0.0
  0
LINE
  5
1EE2
330
1EEA
100
AcDbEntity
  8
0
  6
ByBlock
 62
     7
440
 16777216
370
    -2
100
AcDbLine
 10
-11334.6027360655
 20
-90811.61374786503
 30
0.0
 11
-11345.72919264337
 21
-90811.61374786503
 31
0.0
  0
LINE
  5
1EE3
330
1EEA
100
AcDbEntity
  8
0
  6
ByBlock
 62
     7
440
 16777216
370
    -2
100
AcDbLine
 10
-11333.39016111827
 20
-90725.61374786504
 30
0.0
 11
-11345.72919264337
 21
-90725.61374786504
 31
0.0
  0
LINE
  5
1EE4
330
1EEA
100
AcDbEntity
  8
0
  6
ByBlock
 62
     0
440
 16777216
370
    -2
100
AcDbLine
 10
-11339.72919264337
 20
-90804.11374786503
 30
0.0
 11
-11339.72919264337
 21
-90778.00624445439
 31
0.0
  0
LINE
  5
1EE5
330
1EEA
100
AcDbEntity
  8
0
  6
ByBlock
 62
     0
440
 16777216
370
    -2
100
AcDbLine
 10
-11339.72919264337
 20
-90759.22125127569
 30
0.0
 11
-11339.72919264337
 21
-90733.11374786504
 31
0.0
  0
SOLID
  5
1EE6
330
1EEA
100
AcDbEntity
  8
0
  6
ByBlock
 62
     0
440
 16777216
100
AcDbTrace
 10
-11339.72919264337
 20
-90811.61374786503
 30
0.0
 11
-11338.47919264337
 21
-90804.11374786503
 31
0.0
 12
-11340.97919264337
 22
-90804.11374786503
 32
0.0
 13
-11340.97919264337
 23
-90804.11374786503
 33
0.0
  0
SOLID
  5
1EE7
330
1EEA
100
AcDbEntity
  8
0
  6
ByBlock
 62
     0
440
 16777216
100
AcDbTrace
 10
-11339.72919264337
 20
-90725.61374786504
 30
0.0
 11
-11338.47919264337
 21
-90733.11374786504
 31
0.0
 12
-11340.97919264337
 22
-90733.11374786504
 32
0.0
 13
-11340.97919264337
 23
-90733.11374786504
 33
0.0
  0
MTEXT
  5
1EE8
330
1EEA
100
AcDbEntity
  8
0
  6
ByBlock
 62
     0
440
 16777216
100
AcDbMText
 10
-11339.72919264337
 20
-90768.61374786503
 30
0.0
 40
9.0
 41
0.0
 46
0.0
 71
     5
 72
     1
  1
\A0;86
 11
0.0000000000000001
 21
1.0
 31
0.0
 73
     1
 44
1.0
  0
ENDBLK
  5
20B3
330
1EEA
100
AcDbEntity
  8
0
100
AcDbBlockEnd
  0
BLOCK
  5
20B4
330
1EF8
100
AcDbEntity
  8
0
100
AcDbBlockBegin
  2
*D31
 70
     1
 10
0.0
 20
0.0
 30
0.0
  3
*D31
  1

  0
POINT
  5
1EEE
330
1EF8
100
AcDbEntity
  8
Defpoints
  6
ByBlock
440
 16777216
100
AcDbPoint
 10
-10656.04369307554
 20
-90845.1461754956
 30
0.0
  0
POINT
  5
1EEF
330
1EF8
100
AcDbEntity
  8
Defpoints
  6
ByBlock
440
 16777216
100
AcDbPoint
 10
-10742.04369307554
 20
-90845.1461754956
 30
0.0
  0
LINE
  5
1EF0
330
1EF8
100
AcDbEntity
  8
0
  6
ByBlock
 62
     7
440
 16777216
370
    -2
100
AcDbLine
 10
-10656.04369307554
 20
-90845.1461754956
 30
0.0
 11
-10656.04369307554
 21
-90857.87916820629
 31
0.0
  0
LINE
  5
1EF1
330
1EF8
100
AcDbEntity
  8
0
  6
ByBlock
 62
     7
440
 16777216
370
    -2
100
AcDbLine
 10
-10742.04369307554
 20
-90845.1461754956
 30
0.0
 11
-10742.04369307554
 21
-90857.87916820629
 31
0.0
  0
LINE
  5
1EF2
330
1EF8
100
AcDbEntity
  8
0
  6
ByBlock
 62
     0
440
 16777216
370
    -2
100
AcDbLine
 10
-10663.54369307554
 20
-90851.87916820629
 30
0.0
 11
-10689.65119648618
 21
-90851.87916820629
 31
0.0
  0
LINE
  5
1EF3
330
1EF8
100
AcDbEntity
  8
0
  6
ByBlock
 62
     0
440
 16777216
370
    -2
100
AcDbLine
 10
-10708.4361896649
 20
-90851.87916820629
 30
0.0
 11
-10734.54369307554
 21
-90851.87916820629
 31
0.0
  0
SOLID
  5
1EF4
330
1EF8
100
AcDbEntity
  8
0
  6
ByBlock
 62
     0
440
 16777216
100
AcDbTrace
 10
-10656.04369307554
 20
-90851.87916820629
 30
0.0
 11
-10663.54369307554
 21
-90850.62916820628
 31
0.0
 12
-10663.54369307554
 22
-90853.12916820628
 32
0.0
 13
-10663.54369307554
 23
-90853.12916820628
 33
0.0
  0
SOLID
  5
1EF5
330
1EF8
100
AcDbEntity
  8
0
  6
ByBlock
 62
     0
440
 16777216
100
AcDbTrace
 10
-10742.04369307554
 20
-90851.87916820629
 30
0.0
 11
-10734.54369307554
 21
-90850.62916820628
 31
0.0
 12
-10734.54369307554
 22
-90853.12916820628
 32
0.0
 13
-10734.54369307554
 23
-90853.12916820628
 33
0.0
  0
MTEXT
  5
1EF6
330
1EF8
100
AcDbEntity
  8
0
  6
ByBlock
 62
     0
440
 16777216
100
AcDbMText
 10
-10699.04369307554
 20
-90851.87916820629
 30
0.0
 40
9.0
 41
0.0
 46
0.0
 71
     5
 72
     1
  1
\A0;86
 73
     1
 44
1.0
  0
ENDBLK
  5
20B5
330
1EF8
100
AcDbEntity
  8
0
100
AcDbBlockEnd
  0
BLOCK
  5
20B6
330
1F06
100
AcDbEntity
  8
0
100
AcDbBlockBegin
  2
*D32
 70
     1
 10
0.0
 20
0.0
 30
0.0
  3
*D32
  1

  0
POINT
  5
1EFC
330
1F06
100
AcDbEntity
  8
Defpoints
  6
ByBlock
440
 16777216
100
AcDbPoint
 10
-10764.04795113078
 20
-90817.54360384083
 30
0.0
  0
POINT
  5
1EFD
330
1F06
100
AcDbEntity
  8
Defpoints
  6
ByBlock
440
 16777216
100
AcDbPoint
 10
-10764.04795113078
 20
-90731.54360384082
 30
0.0
  0
LINE
  5
1EFE
330
1F06
100
AcDbEntity
  8
0
  6
ByBlock
 62
     7
440
 16777216
370
    -2
100
AcDbLine
 10
-10764.04795113078
 20
-90817.54360384083
 30
0.0
 11
-10775.8303159088
 21
-90817.54360384083
 31
0.0
  0
LINE
  5
1EFF
330
1F06
100
AcDbEntity
  8
0
  6
ByBlock
 62
     7
440
 16777216
370
    -2
100
AcDbLine
 10
-10764.04795113078
 20
-90731.54360384082
 30
0.0
 11
-10775.8303159088
 21
-90731.54360384082
 31
0.0
  0
LINE
  5
1F00
330
1F06
100
AcDbEntity
  8
0
  6
ByBlock
 62
     0
440
 16777216
370
    -2
100
AcDbLine
 10
-10769.8303159088
 20
-90810.04360384083
 30
0.0
 11
-10769.8303159088
 21
-90783.93610043017
 31
0.0
  0
LINE
  5
1F01
330
1F06
100
AcDbEntity
  8
0
  6
ByBlock
 62
     0
440
 16777216
370
    -2
100
AcDbLine
 10
-10769.8303159088
 20
-90765.15110725146
 30
0.0
 11
-10769.8303159088
 21
-90739.04360384082
 31
0.0
  0
SOLID
  5
1F02
330
1F06
100
AcDbEntity
  8
0
  6
ByBlock
 62
     0
440
 16777216
100
AcDbTrace
 10
-10769.8303159088
 20
-90817.54360384083
 30
0.0
 11
-10768.5803159088
 21
-90810.04360384083
 31
0.0
 12
-10771.0803159088
 22
-90810.04360384083
 32
0.0
 13
-10771.0803159088
 23
-90810.04360384083
 33
0.0
  0
SOLID
  5
1F03
330
1F06
100
AcDbEntity
  8
0
  6
ByBlock
 62
     0
440
 16777216
100
AcDbTrace
 10
-10769.8303159088
 20
-90731.54360384082
 30
0.0
 11
-10768.5803159088
 21
-90739.04360384082
 31
0.0
 12
-10771.0803159088
 22
-90739.04360384082
 32
0.0
 13
-10771.0803159088
 23
-90739.04360384082
 33
0.0
  0
MTEXT
  5
1F04
330
1F06
100
AcDbEntity
  8
0
  6
ByBlock
 62
     0
440
 16777216
100
AcDbMText
 10
-10769.8303159088
 20
-90774.54360384082
 30
0.0
 40
9.0
 41
0.0
 46
0.0
 71
     5
 72
     1
  1
\A0;86
 11
0.0000000000000001
 21
1.0
 31
0.0
 73
     1
 44
1.0
  0
ENDBLK
  5
20B7
330
1F06
100
AcDbEntity
  8
0
100
AcDbBlockEnd
  0
BLOCK
  5
20B8
330
1F14
100
AcDbEntity
  8
0
100
AcDbBlockBegin
  2
*D33
 70
     1
 10
0.0
 20
0.0
 30
0.0
  3
*D33
  1

  0
POINT
  5
1F0A
330
1F14
100
AcDbEntity
  8
Defpoints
  6
ByBlock
440
 16777216
100
AcDbPoint
 10
-10585.35289568074
 20
-90845.1461754956
 30
0.0
  0
POINT
  5
1F0B
330
1F14
100
AcDbEntity
  8
Defpoints
  6
ByBlock
440
 16777216
100
AcDbPoint
 10
-10615.35289568074
 20
-90845.1461754956
 30
0.0
  0
LINE
  5
1F0C
330
1F14
100
AcDbEntity
  8
0
  6
ByBlock
 62
     7
440
 16777216
370
    -2
100
AcDbLine
 10
-10585.35289568074
 20
-90845.1461754956
 30
0.0
 11
-10585.35289568074
 21
-90858.46404389471
 31
0.0
  0
LINE
  5
1F0D
330
1F14
100
AcDbEntity
  8
0
  6
ByBlock
 62
     7
440
 16777216
370
    -2
100
AcDbLine
 10
-10615.35289568074
 20
-90845.1461754956
 30
0.0
 11
-10615.35289568074
 21
-90858.46404389471
 31
0.0
  0
LINE
  5
1F0E
330
1F14
100
AcDbEntity
  8
0
  6
ByBlock
 62
     0
440
 16777216
370
    -2
100
AcDbLine
 10
-10592.85289568074
 20
-90852.4640438947
 30
0.0
 11
-10607.85289568074
 21
-90852.4640438947
 31
0.0
  0
LINE
  5
1F0F
330
1F14
100
AcDbEntity
  8
0
  6
ByBlock
 62
     0
440
 16777216
370
    -2
100
AcDbLine
 10
-10622.85289568074
 20
-90852.4640438947
 30
0.0
 11
-10607.85289568074
 21
-90852.4640438947
 31
0.0
  0
SOLID
  5
1F10
330
1F14
100
AcDbEntity
  8
0
  6
ByBlock
 62
     0
440
 16777216
100
AcDbTrace
 10
-10585.35289568074
 20
-90852.4640438947
 30
0.0
 11
-10592.85289568074
 21
-90851.21404389472
 31
0.0
 12
-10592.85289568074
 22
-90853.71404389471
 32
0.0
 13
-10592.85289568074
 23
-90853.71404389471
 33
0.0
  0
SOLID
  5
1F11
330
1F14
100
AcDbEntity
  8
0
  6
ByBlock
 62
     0
440
 16777216
100
AcDbTrace
 10
-10615.35289568074
 20
-90852.4640438947
 30
0.0
 11
-10607.85289568074
 21
-90851.21404389472
 31
0.0
 12
-10607.85289568074
 22
-90853.71404389471
 32
0.0
 13
-10607.85289568074
 23
-90853.71404389471
 33
0.0
  0
MTEXT
  5
1F12
330
1F14
100
AcDbEntity
  8
0
  6
ByBlock
 62
     0
440
 16777216
100
AcDbMText
 10
-10632.2453922701
 20
-90852.4640438947
 30
0.0
 40
9.0
 41
0.0
 46
0.0
 71
     5
 72
     1
  1
\A0;30
 73
     1
 44
1.0
  0
ENDBLK
  5
20B9
330
1F14
100
AcDbEntity
  8
0
100
AcDbBlockEnd
  0
BLOCK
  5
20BA
330
1F22
100
AcDbEntity
  8
0
100
AcDbBlockBegin
  2
*D34
 70
     1
 10
0.0
 20
0.0
 30
0.0
  3
*D34
  1

  0
POINT
  5
1F18
330
1F22
100
AcDbEntity
  8
Defpoints
  6
ByBlock
440
 16777216
100
AcDbPoint
 10
-11220.63711228862
 20
-91153.09483440041
 30
0.0
  0
POINT
  5
1F19
330
1F22
100
AcDbEntity
  8
Defpoints
  6
ByBlock
440
 16777216
100
AcDbPoint
 10
-11306.63711228862
 20
-91153.09483440041
 30
0.0
  0
LINE
  5
1F1A
330
1F22
100
AcDbEntity
  8
0
  6
ByBlock
 62
     7
440
 16777216
370
    -2
100
AcDbLine
 10
-11220.63711228862
 20
-91153.09483440041
 30
0.0
 11
-11220.63711228862
 21
-91165.82263034763
 31
0.0
  0
LINE
  5
1F1B
330
1F22
100
AcDbEntity
  8
0
  6
ByBlock
 62
     7
440
 16777216
370
    -2
100
AcDbLine
 10
-11306.63711228862
 20
-91153.09483440041
 30
0.0
 11
-11306.63711228862
 21
-91165.82263034763
 31
0.0
  0
LINE
  5
1F1C
330
1F22
100
AcDbEntity
  8
0
  6
ByBlock
 62
     0
440
 16777216
370
    -2
100
AcDbLine
 10
-11228.13711228862
 20
-91159.82263034762
 30
0.0
 11
-11254.24461569927
 21
-91159.82263034762
 31
0.0
  0
LINE
  5
1F1D
330
1F22
100
AcDbEntity
  8
0
  6
ByBlock
 62
     0
440
 16777216
370
    -2
100
AcDbLine
 10
-11273.02960887798
 20
-91159.82263034762
 30
0.0
 11
-11299.13711228862
 21
-91159.82263034762
 31
0.0
  0
SOLID
  5
1F1E
330
1F22
100
AcDbEntity
  8
0
  6
ByBlock
 62
     0
440
 16777216
100
AcDbTrace
 10
-11220.63711228862
 20
-91159.82263034762
 30
0.0
 11
-11228.13711228862
 21
-91158.57263034763
 31
0.0
 12
-11228.13711228862
 22
-91161.07263034763
 32
0.0
 13
-11228.13711228862
 23
-91161.07263034763
 33
0.0
  0
SOLID
  5
1F1F
330
1F22
100
AcDbEntity
  8
0
  6
ByBlock
 62
     0
440
 16777216
100
AcDbTrace
 10
-11306.63711228862
 20
-91159.82263034762
 30
0.0
 11
-11299.13711228862
 21
-91158.57263034763
 31
0.0
 12
-11299.13711228862
 22
-91161.07263034763
 32
0.0
 13
-11299.13711228862
 23
-91161.07263034763
 33
0.0
  0
MTEXT
  5
1F20
330
1F22
100
AcDbEntity
  8
0
  6
ByBlock
 62
     0
440
 16777216
100
AcDbMText
 10
-11263.63711228862
 20
-91159.82263034762
 30
0.0
 40
9.0
 41
0.0
 46
0.0
 71
     5
 72
     1
  1
\A0;86
 73
     1
 44
1.0
  0
ENDBLK
  5
20BB
330
1F22
100
AcDbEntity
  8
0
100
AcDbBlockEnd
  0
BLOCK
  5
20BC
330
1F30
100
AcDbEntity
  8
0
100
AcDbBlockBegin
  2
*D35
 70
     1
 10
0.0
 20
0.0
 30
0.0
  3
*D35
  1

  0
POINT
  5
1F26
330
1F30
100
AcDbEntity
  8
Defpoints
  6
ByBlock
440
 16777216
100
AcDbPoint
 10
-11149.86718317953
 20
-91154.80095348253
 30
0.0
  0
POINT
  5
1F27
330
1F30
100
AcDbEntity
  8
Defpoints
  6
ByBlock
440
 16777216
100
AcDbPoint
 10
-11179.94801037398
 20
-91154.28934907866
 30
0.0
  0
LINE
  5
1F28
330
1F30
100
AcDbEntity
  8
0
  6
ByBlock
 62
     7
440
 16777216
370
    -2
100
AcDbLine
 10
-11149.86718317953
 20
-91154.80095348253
 30
0.0
 11
-11149.86718317953
 21
-91166.05431310095
 31
0.0
  0
LINE
  5
1F29
330
1F30
100
AcDbEntity
  8
0
  6
ByBlock
 62
     7
440
 16777216
370
    -2
100
AcDbLine
 10
-11179.94801037398
 20
-91154.28934907866
 30
0.0
 11
-11179.94801037398
 21
-91166.05431310095
 31
0.0
  0
LINE
  5
1F2A
330
1F30
100
AcDbEntity
  8
0
  6
ByBlock
 62
     0
440
 16777216
370
    -2
100
AcDbLine
 10
-11157.36718317953
 20
-91160.05431310094
 30
0.0
 11
-11172.44801037398
 21
-91160.05431310094
 31
0.0
  0
LINE
  5
1F2B
330
1F30
100
AcDbEntity
  8
0
  6
ByBlock
 62
     0
440
 16777216
370
    -2
100
AcDbLine
 10
-11187.44801037398
 20
-91160.05431310094
 30
0.0
 11
-11172.44801037398
 21
-91160.05431310094
 31
0.0
  0
SOLID
  5
1F2C
330
1F30
100
AcDbEntity
  8
0
  6
ByBlock
 62
     0
440
 16777216
100
AcDbTrace
 10
-11149.86718317953
 20
-91160.05431310094
 30
0.0
 11
-11157.36718317953
 21
-91158.80431310095
 31
0.0
 12
-11157.36718317953
 22
-91161.30431310095
 32
0.0
 13
-11157.36718317953
 23
-91161.30431310095
 33
0.0
  0
SOLID
  5
1F2D
330
1F30
100
AcDbEntity
  8
0
  6
ByBlock
 62
     0
440
 16777216
100
AcDbTrace
 10
-11179.94801037398
 20
-91160.05431310094
 30
0.0
 11
-11172.44801037398
 21
-91158.80431310095
 31
0.0
 12
-11172.44801037398
 22
-91161.30431310095
 32
0.0
 13
-11172.44801037398
 23
-91161.30431310095
 33
0.0
  0
MTEXT
  5
1F2E
330
1F30
100
AcDbEntity
  8
0
  6
ByBlock
 62
     0
440
 16777216
100
AcDbMText
 10
-11196.84050696334
 20
-91160.05431310094
 30
0.0
 40
9.0
 41
0.0
 46
0.0
 71
     5
 72
     1
  1
\A0;30
 73
     1
 44
1.0
  0
ENDBLK
  5
20BD
330
1F30
100
AcDbEntity
  8
0
100
AcDbBlockEnd
  0
BLOCK
  5
20BE
330
1F3E
100
AcDbEntity
  8
0
100
AcDbBlockBegin
  2
*D36
 70
     1
 10
0.0
 20
0.0
 30
0.0
  3
*D36
  1

  0
POINT
  5
1F34
330
1F3E
100
AcDbEntity
  8
Defpoints
  6
ByBlock
440
 16777216
100
AcDbPoint
 10
-11329.1547280155
 20
-91128.01323849588
 30
0.0
  0
POINT
  5
1F35
330
1F3E
100
AcDbEntity
  8
Defpoints
  6
ByBlock
440
 16777216
100
AcDbPoint
 10
-11327.94215306827
 20
-91042.01323849586
 30
0.0
  0
LINE
  5
1F36
330
1F3E
100
AcDbEntity
  8
0
  6
ByBlock
 62
     7
440
 16777216
370
    -2
100
AcDbLine
 10
-11329.1547280155
 20
-91128.01323849588
 30
0.0
 11
-11340.28118459337
 21
-91128.01323849588
 31
0.0
  0
LINE
  5
1F37
330
1F3E
100
AcDbEntity
  8
0
  6
ByBlock
 62
     7
440
 16777216
370
    -2
100
AcDbLine
 10
-11327.94215306827
 20
-91042.01323849586
 30
0.0
 11
-11340.28118459337
 21
-91042.01323849586
 31
0.0
  0
LINE
  5
1F38
330
1F3E
100
AcDbEntity
  8
0
  6
ByBlock
 62
     0
440
 16777216
370
    -2
100
AcDbLine
 10
-11334.28118459337
 20
-91120.51323849588
 30
0.0
 11
-11334.28118459337
 21
-91094.40573508523
 31
0.0
  0
LINE
  5
1F39
330
1F3E
100
AcDbEntity
  8
0
  6
ByBlock
 62
     0
440
 16777216
370
    -2
100
AcDbLine
 10
-11334.28118459337
 20
-91075.62074190651
 30
0.0
 11
-11334.28118459337
 21
-91049.51323849586
 31
0.0
  0
SOLID
  5
1F3A
330
1F3E
100
AcDbEntity
  8
0
  6
ByBlock
 62
     0
440
 16777216
100
AcDbTrace
 10
-11334.28118459337
 20
-91128.01323849588
 30
0.0
 11
-11333.03118459337
 21
-91120.51323849588
 31
0.0
 12
-11335.53118459337
 22
-91120.51323849588
 32
0.0
 13
-11335.53118459337
 23
-91120.51323849588
 33
0.0
  0
SOLID
  5
1F3B
330
1F3E
100
AcDbEntity
  8
0
  6
ByBlock
 62
     0
440
 16777216
100
AcDbTrace
 10
-11334.28118459337
 20
-91042.01323849586
 30
0.0
 11
-11333.03118459337
 21
-91049.51323849586
 31
0.0
 12
-11335.53118459337
 22
-91049.51323849586
 32
0.0
 13
-11335.53118459337
 23
-91049.51323849586
 33
0.0
  0
MTEXT
  5
1F3C
330
1F3E
100
AcDbEntity
  8
0
  6
ByBlock
 62
     0
440
 16777216
100
AcDbMText
 10
-11334.28118459337
 20
-91085.01323849587
 30
0.0
 40
9.0
 41
0.0
 46
0.0
 71
     5
 72
     1
  1
\A0;86
 11
0.0000000000000001
 21
1.0
 31
0.0
 73
     1
 44
1.0
  0
ENDBLK
  5
20BF
330
1F3E
100
AcDbEntity
  8
0
100
AcDbBlockEnd
  0
BLOCK
  5
20C0
330
1F4C
100
AcDbEntity
  8
0
100
AcDbBlockBegin
  2
*D37
 70
     1
 10
0.0
 20
0.0
 30
0.0
  3
*D37
  1

  0
POINT
  5
1F42
330
1F4C
100
AcDbEntity
  8
Defpoints
  6
ByBlock
440
 16777216
100
AcDbPoint
 10
-10650.59568502554
 20
-91161.54566612642
 30
0.0
  0
POINT
  5
1F43
330
1F4C
100
AcDbEntity
  8
Defpoints
  6
ByBlock
440
 16777216
100
AcDbPoint
 10
-10736.59568502554
 20
-91161.54566612642
 30
0.0
  0
LINE
  5
1F44
330
1F4C
100
AcDbEntity
  8
0
  6
ByBlock
 62
     7
440
 16777216
370
    -2
100
AcDbLine
 10
-10650.59568502554
 20
-91161.54566612642
 30
0.0
 11
-10650.59568502554
 21
-91174.27865883712
 31
0.0
  0
LINE
  5
1F45
330
1F4C
100
AcDbEntity
  8
0
  6
ByBlock
 62
     7
440
 16777216
370
    -2
100
AcDbLine
 10
-10736.59568502554
 20
-91161.54566612642
 30
0.0
 11
-10736.59568502554
 21
-91174.27865883712
 31
0.0
  0
LINE
  5
1F46
330
1F4C
100
AcDbEntity
  8
0
  6
ByBlock
 62
     0
440
 16777216
370
    -2
100
AcDbLine
 10
-10658.09568502554
 20
-91168.27865883712
 30
0.0
 11
-10684.20318843618
 21
-91168.27865883712
 31
0.0
  0
LINE
  5
1F47
330
1F4C
100
AcDbEntity
  8
0
  6
ByBlock
 62
     0
440
 16777216
370
    -2
100
AcDbLine
 10
-10702.9881816149
 20
-91168.27865883712
 30
0.0
 11
-10729.09568502554
 21
-91168.27865883712
 31
0.0
  0
SOLID
  5
1F48
330
1F4C
100
AcDbEntity
  8
0
  6
ByBlock
 62
     0
440
 16777216
100
AcDbTrace
 10
-10650.59568502554
 20
-91168.27865883712
 30
0.0
 11
-10658.09568502554
 21
-91167.02865883713
 31
0.0
 12
-10658.09568502554
 22
-91169.52865883712
 32
0.0
 13
-10658.09568502554
 23
-91169.52865883712
 33
0.0
  0
SOLID
  5
1F49
330
1F4C
100
AcDbEntity
  8
0
  6
ByBlock
 62
     0
440
 16777216
100
AcDbTrace
 10
-10736.59568502554
 20
-91168.27865883712
 30
0.0
 11
-10729.09568502554
 21
-91167.02865883713
 31
0.0
 12
-10729.09568502554
 22
-91169.52865883712
 32
0.0
 13
-10729.09568502554
 23
-91169.52865883712
 33
0.0
  0
MTEXT
  5
1F4A
330
1F4C
100
AcDbEntity
  8
0
  6
ByBlock
 62
     0
440
 16777216
100
AcDbMText
 10
-10693.59568502554
 20
-91168.27865883712
 30
0.0
 40
9.0
 41
0.0
 46
0.0
 71
     5
 72
     1
  1
\A0;86
 73
     1
 44
1.0
  0
ENDBLK
  5
20C1
330
1F4C
100
AcDbEntity
  8
0
100
AcDbBlockEnd
  0
BLOCK
  5
20C2
330
1F5A
100
AcDbEntity
  8
0
100
AcDbBlockBegin
  2
*D38
 70
     1
 10
0.0
 20
0.0
 30
0.0
  3
*D38
  1

  0
POINT
  5
1F50
330
1F5A
100
AcDbEntity
  8
Defpoints
  6
ByBlock
440
 16777216
100
AcDbPoint
 10
-10758.59994308078
 20
-91133.94309447166
 30
0.0
  0
POINT
  5
1F51
330
1F5A
100
AcDbEntity
  8
Defpoints
  6
ByBlock
440
 16777216
100
AcDbPoint
 10
-10758.59994308078
 20
-91047.94309447166
 30
0.0
  0
LINE
  5
1F52
330
1F5A
100
AcDbEntity
  8
0
  6
ByBlock
 62
     7
440
 16777216
370
    -2
100
AcDbLine
 10
-10758.59994308078
 20
-91133.94309447166
 30
0.0
 11
-10770.3823078588
 21
-91133.94309447166
 31
0.0
  0
LINE
  5
1F53
330
1F5A
100
AcDbEntity
  8
0
  6
ByBlock
 62
     7
440
 16777216
370
    -2
100
AcDbLine
 10
-10758.59994308078
 20
-91047.94309447166
 30
0.0
 11
-10770.3823078588
 21
-91047.94309447166
 31
0.0
  0
LINE
  5
1F54
330
1F5A
100
AcDbEntity
  8
0
  6
ByBlock
 62
     0
440
 16777216
370
    -2
100
AcDbLine
 10
-10764.3823078588
 20
-91126.44309447166
 30
0.0
 11
-10764.3823078588
 21
-91100.33559106101
 31
0.0
  0
LINE
  5
1F55
330
1F5A
100
AcDbEntity
  8
0
  6
ByBlock
 62
     0
440
 16777216
370
    -2
100
AcDbLine
 10
-10764.3823078588
 20
-91081.55059788231
 30
0.0
 11
-10764.3823078588
 21
-91055.44309447166
 31
0.0
  0
SOLID
  5
1F56
330
1F5A
100
AcDbEntity
  8
0
  6
ByBlock
 62
     0
440
 16777216
100
AcDbTrace
 10
-10764.3823078588
 20
-91133.94309447166
 30
0.0
 11
-10763.1323078588
 21
-91126.44309447166
 31
0.0
 12
-10765.6323078588
 22
-91126.44309447166
 32
0.0
 13
-10765.6323078588
 23
-91126.44309447166
 33
0.0
  0
SOLID
  5
1F57
330
1F5A
100
AcDbEntity
  8
0
  6
ByBlock
 62
     0
440
 16777216
100
AcDbTrace
 10
-10764.3823078588
 20
-91047.94309447166
 30
0.0
 11
-10763.1323078588
 21
-91055.44309447166
 31
0.0
 12
-10765.6323078588
 22
-91055.44309447166
 32
0.0
 13
-10765.6323078588
 23
-91055.44309447166
 33
0.0
  0
MTEXT
  5
1F58
330
1F5A
100
AcDbEntity
  8
0
  6
ByBlock
 62
     0
440
 16777216
100
AcDbMText
 10
-10764.3823078588
 20
-91090.94309447165
 30
0.0
 40
9.0
 41
0.0
 46
0.0
 71
     5
 72
     1
  1
\A0;86
 11
0.0000000000000001
 21
1.0
 31
0.0
 73
     1
 44
1.0
  0
ENDBLK
  5
20C3
330
1F5A
100
AcDbEntity
  8
0
100
AcDbBlockEnd
  0
BLOCK
  5
20C4
330
1F68
100
AcDbEntity
  8
0
100
AcDbBlockBegin
  2
*D39
 70
     1
 10
0.0
 20
0.0
 30
0.0
  3
*D39
  1

  0
POINT
  5
1F5E
330
1F68
100
AcDbEntity
  8
Defpoints
  6
ByBlock
440
 16777216
100
AcDbPoint
 10
-10579.90488763074
 20
-91161.54566612642
 30
0.0
  0
POINT
  5
1F5F
330
1F68
100
AcDbEntity
  8
Defpoints
  6
ByBlock
440
 16777216
100
AcDbPoint
 10
-10609.90488763074
 20
-91161.54566612642
 30
0.0
  0
LINE
  5
1F60
330
1F68
100
AcDbEntity
  8
0
  6
ByBlock
 62
     7
440
 16777216
370
    -2
100
AcDbLine
 10
-10579.90488763074
 20
-91161.54566612642
 30
0.0
 11
-10579.90488763074
 21
-91174.86353452555
 31
0.0
  0
LINE
  5
1F61
330
1F68
100
AcDbEntity
  8
0
  6
ByBlock
 62
     7
440
 16777216
370
    -2
100
AcDbLine
 10
-10609.90488763074
 20
-91161.54566612642
 30
0.0
 11
-10609.90488763074
 21
-91174.86353452555
 31
0.0
  0
LINE
  5
1F62
330
1F68
100
AcDbEntity
  8
0
  6
ByBlock
 62
     0
440
 16777216
370
    -2
100
AcDbLine
 10
-10587.40488763074
 20
-91168.86353452555
 30
0.0
 11
-10602.40488763074
 21
-91168.86353452555
 31
0.0
  0
LINE
  5
1F63
330
1F68
100
AcDbEntity
  8
0
  6
ByBlock
 62
     0
440
 16777216
370
    -2
100
AcDbLine
 10
-10617.40488763074
 20
-91168.86353452555
 30
0.0
 11
-10602.40488763074
 21
-91168.86353452555
 31
0.0
  0
SOLID
  5
1F64
330
1F68
100
AcDbEntity
  8
0
  6
ByBlock
 62
     0
440
 16777216
100
AcDbTrace
 10
-10579.90488763074
 20
-91168.86353452555
 30
0.0
 11
-10587.40488763074
 21
-91167.61353452554
 31
0.0
 12
-10587.40488763074
 22
-91170.11353452555
 32
0.0
 13
-10587.40488763074
 23
-91170.11353452555
 33
0.0
  0
SOLID
  5
1F65
330
1F68
100
AcDbEntity
  8
0
  6
ByBlock
 62
     0
440
 16777216
100
AcDbTrace
 10
-10609.90488763074
 20
-91168.86353452555
 30
0.0
 11
-10602.40488763074
 21
-91167.61353452554
 31
0.0
 12
-10602.40488763074
 22
-91170.11353452555
 32
0.0
 13
-10602.40488763074
 23
-91170.11353452555
 33
0.0
  0
MTEXT
  5
1F66
330
1F68
100
AcDbEntity
  8
0
  6
ByBlock
 62
     0
440
 16777216
100
AcDbMText
 10
-10626.7973842201
 20
-91168.86353452555
 30
0.0
 40
9.0
 41
0.0
 46
0.0
 71
     5
 72
     1
  1
\A0;30
 73
     1
 44
1.0
  0
ENDBLK
  5
20C5
330
1F68
100
AcDbEntity
  8
0
100
AcDbBlockEnd
  0
ENDSEC
  0
SECTION
  2
ENTITIES
  0
LWPOLYLINE
  5
63
330
1F
100
AcDbEntity
  8
0
100
AcDbPolyline
 90
        8
 70
     1
 43
0.0
 10
-11312.32235614531
 20
-90464.63709518556
 10
-11230.32235614531
 20
-90464.63709518556
 42
0.4142135623730951
 10
-11228.32235614531
 20
-90462.63709518557
 10
-11228.32235614531
 20
-90380.63709518556
 42
0.4142135623730951
 10
-11230.32235614531
 20
-90378.63709518557
 10
-11312.32235614531
 20
-90378.63709518557
 42
0.4142135623730951
 10
-11314.32235614531
 20
-90380.63709518556
 10
-11314.32235614531
 20
-90462.63709518557
 42
0.4142135623730951
  0
DIMENSION
  5
65
330
1F
100
AcDbEntity
  8
0
100
AcDbDimension
280
     0
  2
*D20
 10
-11314.32235614531
 20
-90496.44648703733
 30
0.0
 11
-11271.32235614531
 21
-90496.44648703733
 31
0.0
 70
    32
  1
<>
 71
     5
 42
86.0
 73
     0
 74
     0
 75
     0
  3
副本 3.0
100
AcDbAlignedDimension
 13
-11228.32235614531
 23
-90489.7186910901
 33
0.0
 14
-11314.32235614531
 24
-90489.7186910901
 34
0.0
100
AcDbRotatedDimension
  0
DIMENSION
  5
448
330
1F
100
AcDbEntity
  8
0
100
AcDbDimension
280
     0
  2
*D21
 10
-11341.96642845006
 20
-90378.63709518557
 30
0.0
 11
-11341.96642845006
 21
-90421.63709518556
 31
0.0
 70
    32
  1
<>
 71
     5
 42
86.0
 73
     0
 74
     0
 75
     0
  3
副本 3.0
100
AcDbAlignedDimension
 13
-11336.83997187219
 23
-90464.63709518556
 33
0.0
 14
-11335.62739692496
 24
-90378.63709518557
 34
0.0
 50
90.0
100
AcDbRotatedDimension
  0
LWPOLYLINE
  5
80
330
1F
100
AcDbEntity
  8
0
100
AcDbPolyline
 90
        4
 70
     1
 43
0.0
 10
-11187.63325423067
 20
-90466.63709518554
 10
-11180.63325423067
 20
-90466.63709518556
 10
-11180.63325423067
 20
-90376.63709518556
 10
-11187.63325423067
 20
-90376.63709518556
  0
LWPOLYLINE
  5
81
330
1F
100
AcDbEntity
  8
0
100
AcDbPolyline
 90
        4
 70
     0
 43
0.0
 10
-11156.83169403289
 20
-90404.54559133458
 10
-11156.63325423067
 20
-90382.63709518556
 10
-11180.63325423067
 20
-90382.63709518556
 10
-11180.63325423067
 20
-90460.63709518556
  0
DIMENSION
  5
82
330
1F
100
AcDbEntity
  8
0
100
AcDbDimension
280
     0
  2
*D22
 10
-11187.63325423067
 20
-90496.67816979065
 30
0.0
 11
-11204.52575082003
 21
-90496.67816979065
 31
0.0
 70
    32
  1
<>
 71
     5
 42
30.08082719444792
 73
     0
 74
     0
 75
     0
  3
副本 3.0
100
AcDbAlignedDimension
 13
-11157.55242703622
 23
-90491.42481017224
 33
0.0
 14
-11187.63325423067
 24
-90490.91320576835
 34
0.0
100
AcDbRotatedDimension
  0
LINE
  5
C2
330
1F
100
AcDbEntity
  8
0
100
AcDbLine
 10
-11156.83169403289
 20
-90404.54559133458
 30
0.0
 11
-11180.63325423067
 21
-90404.54559133456
 31
0.0
  0
ARC
  5
C3
330
1F
100
AcDbEntity
  8
0
100
AcDbCircle
 10
-11240.16741076621
 20
-90402.27903519562
 30
0.0
 40
83.36653381415981
100
AcDbArc
 50
315.5715655796245
 51
358.4420594335548
  0
MTEXT
  5
44E
330
1F
100
AcDbEntity
  8
0
100
AcDbMText
 10
-11344.93570785991
 20
-90529.52505227423
 30
0.0
 40
8.0
 41
254.2196531791908
 46
0.0
 71
     1
 72
     1
  1
\fSimSun|b0|i0|c134|p0;型号：WLA35-LD01E
 73
     1
 44
1.0
  0
LWPOLYLINE
  5
4DB
330
1F
100
AcDbEntity
  8
0
 62
     1
100
AcDbPolyline
 90
        4
 70
     1
 43
0.0
 10
-11433.44319076563
 20
-90545.26783270665
 10
-11433.44319076563
 20
-90345.26783270665
 10
-11083.44319076563
 20
-90345.26783270665
 10
-11083.44319076563
 20
-90545.26783270665
  0
LWPOLYLINE
  5
CD9
330
1F
100
AcDbEntity
  8
0
100
AcDbPolyline
 90
        8
 70
     1
 43
0.0
 10
-10742.28092888223
 20
-90473.08792691158
 10
-10660.28092888223
 20
-90473.08792691158
 42
0.4142135623730951
 10
-10658.28092888223
 20
-90471.08792691158
 10
-10658.28092888223
 20
-90389.08792691158
 42
0.4142135623730951
 10
-10660.28092888223
 20
-90387.08792691158
 10
-10742.28092888223
 20
-90387.08792691158
 42
0.4142135623730951
 10
-10744.28092888223
 20
-90389.08792691158
 10
-10744.28092888223
 20
-90471.08792691158
 42
0.4142135623730951
  0
DIMENSION
  5
CDB
330
1F
100
AcDbEntity
  8
0
100
AcDbDimension
280
     0
  2
*D25
 10
-10744.28092888223
 20
-90504.90251552682
 30
0.0
 11
-10701.28092888223
 21
-90504.90251552682
 31
0.0
 70
    32
  1
<>
 71
     0
 72
     0
 41
0.0
 42
86.0
 73
     0
 74
     0
 75
     0
  3
副本 3.0
100
AcDbAlignedDimension
 13
-10658.28092888223
 23
-90498.16952281613
 33
0.0
 14
-10744.28092888223
 24
-90498.16952281613
 34
0.0
100
AcDbRotatedDimension
  0
DIMENSION
  5
CEA
330
1F
100
AcDbEntity
  8
0
100
AcDbDimension
280
     0
  2
*D26
 10
-10772.06755171549
 20
-90384.56695116135
 30
0.0
 11
-10772.06755171549
 21
-90427.56695116136
 31
0.0
 70
    32
  1
<>
 71
     6
 72
   211
 41
0.0
 42
86.0
 73
     0
 74
     0
 75
     0
  3
副本 3.0
100
AcDbAlignedDimension
 13
-10766.28518693746
 23
-90470.56695116134
 33
0.0
 14
-10766.28518693746
 24
-90384.56695116135
 34
0.0
 50
90.0
100
AcDbRotatedDimension
  0
LWPOLYLINE
  5
CF9
330
1F
100
AcDbEntity
  8
0
100
AcDbPolyline
 90
        4
 70
     1
 43
0.0
 10
-10617.59182696758
 20
-90475.08792691157
 10
-10610.59182696758
 20
-90475.08792691159
 10
-10610.59182696758
 20
-90385.08792691159
 10
-10617.59182696758
 20
-90385.08792691157
  0
DIMENSION
  5
CFB
330
1F
100
AcDbEntity
  8
0
100
AcDbDimension
280
     0
  2
*D27
 10
-10617.59013148743
 20
-90505.48739121524
 30
0.0
 11
-10634.48262807679
 21
-90505.48739121524
 31
0.0
 70
    32
  1
<>
 71
     0
 72
    97
 41
0.0
 42
30.0
 73
     0
 74
     0
 75
     0
  3
副本 3.0
100
AcDbAlignedDimension
 13
-10587.59013148743
 23
-90498.16952281613
 33
0.0
 14
-10617.59013148743
 24
-90498.16952281613
 34
0.0
100
AcDbRotatedDimension
  0
CIRCLE
  5
D0A
330
1F
100
AcDbEntity
  8
0
100
AcDbCircle
 10
-10709.78092888223
 20
-90415.08792691159
 30
0.0
 40
1.0
  0
CIRCLE
  5
D0B
330
1F
100
AcDbEntity
  8
0
100
AcDbCircle
 10
-10701.28092888223
 20
-90415.08792691159
 30
0.0
 40
5.0
  0
ARC
  5
D0E
330
1F
100
AcDbEntity
  8
0
100
AcDbCircle
 10
-10616.59182696758
 20
-90414.56518234021
 30
0.0
 40
6.749999999994396
100
AcDbArc
 50
98.51962425415017
 51
261.4803757458499
  0
MTEXT
  5
D34
330
1F
100
AcDbEntity
  8
0
100
AcDbMText
 10
-10771.68946067949
 20
-90537.10934661399
 30
0.0
 40
8.0
 41
254.2196531791908
 46
0.0
 71
     1
 72
     1
  1
\fSimSun|b0|i0|c134|p0;型号：WLA35-LD01G*
 73
     1
 44
1.0
  0
LWPOLYLINE
  5
D53
330
1F
100
AcDbEntity
  8
0
 62
     1
100
AcDbPolyline
 90
        4
 70
     1
 43
0.0
 10
-10860.19694358521
 20
-90552.85212704641
 10
-10860.19694358521
 20
-90352.85212704641
 10
-10510.19694358521
 20
-90352.85212704641
 10
-10510.19694358521
 20
-90552.85212704641
  0
LINE
  5
DB6
330
1F
100
AcDbEntity
  8
0
100
AcDbLine
 10
-11180.63325423067
 20
-90382.63709518556
 30
0.0
 11
-11156.63325423067
 21
-90382.63709518556
 31
0.0
  0
LWPOLYLINE
  5
ED8
330
1F
100
AcDbEntity
  8
0
100
AcDbPolyline
 90
        4
 70
     0
 43
0.0
 10
-10586.7902667698
 20
-90412.99642306059
 10
-10586.59182696758
 20
-90391.08792691159
 10
-10610.59182696758
 20
-90391.08792691159
 10
-10610.59182696758
 20
-90469.08792691159
  0
LINE
  5
ED9
330
1F
100
AcDbEntity
  8
0
100
AcDbLine
 10
-10586.7902667698
 20
-90412.99642306059
 30
0.0
 11
-10610.59182696758
 21
-90412.99642306059
 31
0.0
  0
ARC
  5
EDA
330
1F
100
AcDbEntity
  8
0
100
AcDbCircle
 10
-10670.12598350312
 20
-90410.72986692164
 30
0.0
 40
83.36653381415981
100
AcDbArc
 50
315.5715655796245
 51
358.4420594335548
  0
LINE
  5
EDB
330
1F
100
AcDbEntity
  8
0
100
AcDbLine
 10
-10610.59182696758
 20
-90391.08792691159
 30
0.0
 11
-10586.59182696758
 21
-90391.08792691159
 31
0.0
  0
MTEXT
  5
1001
330
1F
100
AcDbEntity
  8
Defpoints
100
AcDbMText
 10
-11349.56097827166
 20
-91487.65434919356
 30
0.0
 40
8.0
 41
254.2196531791906
 46
0.0
 71
     1
 72
     1
  1
\fSimSun|b0|i0|c134|p0;型号：WLD35-LD01E*
 73
     1
 44
1.0
  0
LWPOLYLINE
  5
1020
330
1F
100
AcDbEntity
  8
Defpoints
 62
     1
100
AcDbPolyline
 90
        4
 70
     1
 43
0.0
 10
-11438.06846117738
 20
-91503.39712962598
 10
-11438.06846117738
 20
-91303.39712962598
 10
-11088.06846117738
 20
-91303.39712962598
 10
-11088.06846117738
 20
-91503.39712962598
  0
MTEXT
  5
1021
330
1F
100
AcDbEntity
  8
Defpoints
100
AcDbMText
 10
-10776.31473109124
 20
-91495.23864353332
 30
0.0
 40
8.0
 41
254.2196531791906
 46
0.0
 71
     1
 72
     1
  1
\fSimSun|b0|i0|c134|p0;型号：WLD35-LD01G*
 73
     1
 44
1.0
  0
LWPOLYLINE
  5
1040
330
1F
100
AcDbEntity
  8
Defpoints
 62
     1
100
AcDbPolyline
 90
        4
 70
     1
 43
0.0
 10
-10864.82221399696
 20
-91510.98142396573
 10
-10864.82221399696
 20
-91310.98142396574
 10
-10514.82221399696
 20
-91310.98142396574
 10
-10514.82221399696
 20
-91510.98142396573
  0
DIMENSION
  5
107A
330
1F
100
AcDbEntity
  8
Defpoints
100
AcDbDimension
280
     0
  2
*D2
 10
-10760.04654406657
 20
-91456.78073789229
 30
0.0
 11
-10715.04654406657
 21
-91456.78073789229
 31
0.0
 70
    32
  1
<>
 71
     0
 72
     0
 41
0.0
 42
90.0
 73
     0
 74
     0
 75
     0
  3
副本 3.0
100
AcDbAlignedDimension
 13
-10670.04654406657
 23
-91450.90999938327
 33
0.0
 14
-10760.04654406657
 24
-91450.90999938327
 34
0.0
100
AcDbRotatedDimension
  0
LWPOLYLINE
  5
1089
330
1F
100
AcDbEntity
  8
Defpoints
100
AcDbPolyline
 90
        4
 70
     1
 43
0.0
 10
-10631.35744215192
 20
-91427.82840347871
 10
-10624.35744215192
 20
-91427.82840347871
 10
-10624.35744215192
 20
-91337.82840347873
 10
-10631.35744215192
 20
-91337.82840347871
  0
LWPOLYLINE
  5
108A
330
1F
100
AcDbEntity
  8
Defpoints
100
AcDbPolyline
 90
        4
 70
     1
 43
0.0
 10
-10624.35744215192
 20
-91422.82840347872
 10
-10586.85744215192
 20
-91422.82840347872
 10
-10586.85744215192
 20
-91342.82840347871
 10
-10624.35744215192
 20
-91342.82840347871
  0
DIMENSION
  5
108B
330
1F
100
AcDbEntity
  8
Defpoints
100
AcDbDimension
280
     0
  2
*D3
 10
-10631.35744215192
 20
-91457.03580885427
 30
0.0
 11
-10609.10744215192
 21
-91457.03580885427
 31
0.0
 70
    32
  1
<>
 71
     0
 72
     0
 41
0.0
 42
44.5
 73
     0
 74
     0
 75
     0
  3
副本 3.0
100
AcDbAlignedDimension
 13
-10586.85744215192
 23
-91450.90999938327
 33
0.0
 14
-10631.35744215192
 24
-91451.66109929832
 34
0.0
100
AcDbRotatedDimension
  0
LWPOLYLINE
  5
109A
330
1F
100
AcDbEntity
  8
Defpoints
100
AcDbPolyline
 90
        4
 70
     1
 43
0.0
 10
-10712.54654406657
 20
-91415.32840347872
 10
-10712.54654406657
 20
-91375.32840347873
 42
0.9999999999999998
 10
-10717.54654406657
 20
-91375.32840347873
 10
-10717.54654406657
 20
-91415.32840347872
 42
0.9999999999999998
  0
CIRCLE
  5
109B
330
1F
100
AcDbEntity
  8
Defpoints
100
AcDbCircle
 10
-10715.04654406657
 20
-91362.57840347871
 30
0.0
 40
6.75
  0
ARC
  5
109C
330
1F
100
AcDbEntity
  8
Defpoints
100
AcDbCircle
 10
-10631.35744215192
 20
-91362.57840347871
 30
0.0
 40
6.75
100
AcDbArc
 50
90.0
 51
270.0
  0
LWPOLYLINE
  5
109D
330
1F
100
AcDbEntity
  8
Defpoints
100
AcDbPolyline
 90
        8
 70
     1
 43
0.0
 10
-10758.04654406657
 20
-91427.82840347871
 10
-10672.04654406657
 20
-91427.82840347871
 42
0.4142135623730951
 10
-10670.04654406657
 20
-91425.82840347872
 10
-10670.04654406657
 20
-91339.82840347872
 42
0.4142135623730951
 10
-10672.04654406657
 20
-91337.82840347873
 10
-10758.04654406657
 20
-91337.82840347873
 42
0.4142135623730951
 10
-10760.04654406657
 20
-91339.82840347872
 10
-10760.04654406657
 20
-91425.82840347872
 42
0.4142135623730951
  0
DIMENSION
  5
109E
330
1F
100
AcDbEntity
  8
Defpoints
100
AcDbDimension
280
     0
  2
*D4
 10
-10785.86926730279
 20
-91337.82840347873
 30
0.0
 11
-10785.86926730279
 21
-91382.82840347873
 31
0.0
 70
    32
  1
<>
 71
     0
 72
     0
 41
0.0
 42
90.0
 73
     0
 74
     0
 75
     0
  3
副本 3.0
100
AcDbAlignedDimension
 13
-10780.05080212181
 23
-91427.82840347871
 33
0.0
 14
-10780.05080212181
 24
-91337.82840347873
 34
0.0
 50
90.0
100
AcDbRotatedDimension
  0
CIRCLE
  5
10AD
330
1F
100
AcDbEntity
  8
Defpoints
100
AcDbCircle
 10
-10723.54654406657
 20
-91362.57840347871
 30
0.0
 40
1.0
  0
DIMENSION
  5
128B
330
1F
100
AcDbEntity
  8
Defpoints
100
AcDbDimension
280
     0
  2
*D5
 10
-11332.87260464243
 20
-91449.25486040547
 30
0.0
 11
-11287.87260464243
 21
-91449.25486040547
 31
0.0
 70
    32
  1
<>
 71
     0
 72
     0
 41
0.0
 42
90.0
 73
     0
 74
     0
 75
     0
  3
副本 3.0
100
AcDbAlignedDimension
 13
-11242.87260464243
 23
-91443.38412189643
 33
0.0
 14
-11332.87260464243
 24
-91443.38412189643
 34
0.0
100
AcDbRotatedDimension
  0
LWPOLYLINE
  5
129A
330
1F
100
AcDbEntity
  8
Defpoints
100
AcDbPolyline
 90
        4
 70
     1
 43
0.0
 10
-11204.18350272779
 20
-91420.30252599187
 10
-11197.18350272779
 20
-91420.30252599189
 10
-11197.18350272779
 20
-91330.30252599189
 10
-11204.18350272779
 20
-91330.30252599187
  0
LWPOLYLINE
  5
129B
330
1F
100
AcDbEntity
  8
Defpoints
100
AcDbPolyline
 90
        4
 70
     1
 43
0.0
 10
-11197.18350272779
 20
-91415.30252599189
 10
-11159.68350272779
 20
-91415.30252599189
 10
-11159.68350272779
 20
-91335.30252599189
 10
-11197.18350272779
 20
-91335.30252599189
  0
DIMENSION
  5
129C
330
1F
100
AcDbEntity
  8
Defpoints
100
AcDbDimension
280
     0
  2
*D6
 10
-11204.18350272779
 20
-91449.50993136744
 30
0.0
 11
-11181.93350272779
 21
-91449.50993136744
 31
0.0
 70
    32
  1
<>
 71
     2
 72
     0
 41
0.0
 42
44.5
 73
     0
 74
     0
 75
     0
  3
副本 3.0
100
AcDbAlignedDimension
 13
-11159.68350272779
 23
-91443.38412189643
 33
0.0
 14
-11204.18350272779
 24
-91444.1352218115
 34
0.0
100
AcDbRotatedDimension
  0
LWPOLYLINE
  5
12AB
330
1F
100
AcDbEntity
  8
Defpoints
100
AcDbPolyline
 90
        4
 70
     1
 43
0.0
 10
-11285.37260464243
 20
-91407.80252599189
 10
-11285.37260464243
 20
-91367.80252599189
 42
0.9999999999999998
 10
-11290.37260464243
 20
-91367.80252599189
 10
-11290.37260464243
 20
-91407.80252599189
 42
0.9999999999999998
  0
LWPOLYLINE
  5
12AE
330
1F
100
AcDbEntity
  8
Defpoints
100
AcDbPolyline
 90
        8
 70
     1
 43
0.0
 10
-11330.87260464243
 20
-91420.30252599189
 10
-11244.87260464243
 20
-91420.30252599189
 42
0.4142135623730951
 10
-11242.87260464243
 20
-91418.3025259919
 10
-11242.87260464243
 20
-91332.3025259919
 42
0.4142135623730951
 10
-11244.87260464243
 20
-91330.30252599189
 10
-11330.87260464243
 20
-91330.30252599189
 42
0.4142135623730951
 10
-11332.87260464243
 20
-91332.3025259919
 10
-11332.87260464243
 20
-91418.3025259919
 42
0.4142135623730951
  0
DIMENSION
  5
12AF
330
1F
100
AcDbEntity
  8
Defpoints
100
AcDbDimension
280
     0
  2
*D7
 10
-11358.69532787866
 20
-91330.30252599189
 30
0.0
 11
-11358.69532787866
 21
-91375.30252599189
 31
0.0
 70
    32
  1
<>
 71
     0
 72
     0
 41
662.0
 42
90.0
 73
     0
 74
     0
 75
     0
  3
副本 3.0
100
AcDbAlignedDimension
 13
-11352.87686269767
 23
-91420.30252599189
 33
0.0
 14
-11352.87686269767
 24
-91330.30252599189
 34
0.0
 50
90.0
100
AcDbRotatedDimension
  0
LWPOLYLINE
  5
140B
330
1F
100
AcDbEntity
  8
0
100
AcDbPolyline
 90
        4
 70
     1
 43
0.0
 10
-11268.82945106215
 20
-90449.07569670227
 10
-11268.8837546286
 20
-90425.06849733495
 42
0.9999999999999998
 10
-11273.88375462859
 20
-90425.06849733495
 10
-11273.88375462859
 20
-90449.1441901024
 42
0.9999999999999998
  0
LWPOLYLINE
  5
143B
330
1F
100
AcDbEntity
  8
0
100
AcDbPolyline
 90
        4
 70
     1
 43
0.0
 10
-10698.78802379906
 20
-90457.5265284283
 10
-10698.84232736551
 20
-90433.51932906098
 42
0.9999999999999998
 10
-10703.84232736551
 20
-90433.51932906098
 10
-10703.84232736551
 20
-90457.59502182841
 42
0.9999999999999998
  0
LWPOLYLINE
  5
160C
330
1F
100
AcDbEntity
  8
0
100
AcDbPolyline
 90
        8
 70
     1
 43
0.0
 10
-11310.08512033862
 20
-90811.61374786503
 10
-11228.08512033862
 20
-90811.61374786503
 42
0.4142135623730951
 10
-11226.08512033862
 20
-90809.61374786504
 10
-11226.08512033862
 20
-90727.61374786503
 42
0.4142135623730951
 10
-11228.08512033862
 20
-90725.61374786504
 10
-11310.08512033862
 20
-90725.61374786504
 42
0.4142135623730951
 10
-11312.08512033862
 20
-90727.61374786503
 10
-11312.08512033862
 20
-90809.61374786504
 42
0.4142135623730951
  0
DIMENSION
  5
160D
330
1F
100
AcDbEntity
  8
0
100
AcDbDimension
280
     0
  2
*D28
 10
-11312.08512033862
 20
-90843.4231397168
 30
0.0
 11
-11269.08512033862
 21
-90843.4231397168
 31
0.0
 70
    32
  1
<>
 71
     0
 72
     0
 41
0.0
 42
86.0
 73
     0
 74
     0
 75
     0
  3
副本 3.0
100
AcDbAlignedDimension
 13
-11226.08512033862
 23
-90836.69534376957
 33
0.0
 14
-11312.08512033862
 24
-90836.69534376957
 34
0.0
100
AcDbRotatedDimension
  0
DIMENSION
  5
161C
330
1F
100
AcDbEntity
  8
0
100
AcDbDimension
280
     0
  2
*D29
 10
-11185.39601842398
 20
-90843.65482247012
 30
0.0
 11
-11202.28851501334
 21
-90843.65482247012
 31
0.0
 70
    32
  1
<>
 71
     0
 72
     0
 41
0.0
 42
30.08082719444792
 73
     0
 74
     0
 75
     0
  3
副本 3.0
100
AcDbAlignedDimension
 13
-11155.31519122953
 23
-90838.40146285171
 33
0.0
 14
-11185.39601842398
 24
-90837.88985844782
 34
0.0
100
AcDbRotatedDimension
  0
LINE
  5
162B
330
1F
100
AcDbEntity
  8
0
100
AcDbLine
 10
-11154.5944582262
 20
-90751.52224401405
 30
0.0
 11
-11178.39601842398
 21
-90751.52224401403
 31
0.0
  0
ARC
  5
162C
330
1F
100
AcDbEntity
  8
0
100
AcDbCircle
 10
-11237.93017495952
 20
-90749.25568787509
 30
0.0
 40
83.36653381415981
100
AcDbArc
 50
315.5715655796245
 51
358.4420594335548
  0
DIMENSION
  5
162D
330
1F
100
AcDbEntity
  8
0
100
AcDbDimension
280
     0
  2
*D30
 10
-11339.72919264337
 20
-90725.61374786504
 30
0.0
 11
-11339.72919264337
 21
-90768.61374786503
 31
0.0
 70
    32
  1
<>
 71
     9
 72
   211
 41
0.0
 42
86.0
 73
     0
 74
     0
 75
     0
  3
副本 3.0
100
AcDbAlignedDimension
 13
-11334.6027360655
 23
-90811.61374786503
 33
0.0
 14
-11333.39016111827
 24
-90725.61374786504
 34
0.0
 50
90.0
100
AcDbRotatedDimension
  0
LWPOLYLINE
  5
163C
330
1F
100
AcDbEntity
  8
0
100
AcDbPolyline
 90
        4
 70
     1
 43
0.0
 10
-11185.39601842398
 20
-90813.61374786501
 10
-11178.39601842398
 20
-90813.61374786503
 10
-11178.39601842398
 20
-90723.61374786503
 10
-11185.39601842398
 20
-90723.61374786503
  0
LWPOLYLINE
  5
163D
330
1F
100
AcDbEntity
  8
0
100
AcDbPolyline
 90
        4
 70
     0
 43
0.0
 10
-11154.5944582262
 20
-90751.52224401405
 10
-11154.39601842398
 20
-90729.61374786503
 10
-11178.39601842398
 20
-90729.61374786503
 10
-11178.39601842398
 20
-90807.61374786503
  0
MTEXT
  5
163E
330
1F
100
AcDbEntity
  8
0
100
AcDbMText
 10
-11342.69847205322
 20
-90876.5017049537
 30
0.0
 40
8.0
 41
254.2196531791908
 46
0.0
 71
     1
 72
     1
  1
\fSimSun|b0|i0|c134|p0;型号：WLB35-LD01E*
 73
     1
 44
1.0
  0
LWPOLYLINE
  5
165D
330
1F
100
AcDbEntity
  8
0
 62
     1
100
AcDbPolyline
 90
        4
 70
     1
 43
0.0
 10
-11431.20595495894
 20
-90892.24448538612
 10
-11431.20595495894
 20
-90692.24448538612
 10
-11081.20595495894
 20
-90692.24448538612
 10
-11081.20595495894
 20
-90892.24448538612
  0
LWPOLYLINE
  5
165E
330
1F
100
AcDbEntity
  8
0
100
AcDbPolyline
 90
        8
 70
     1
 43
0.0
 10
-10740.04369307554
 20
-90820.06457959105
 10
-10658.04369307554
 20
-90820.06457959105
 42
0.4142135623730951
 10
-10656.04369307554
 20
-90818.06457959105
 10
-10656.04369307554
 20
-90736.06457959105
 42
0.4142135623730951
 10
-10658.04369307554
 20
-90734.06457959105
 10
-10740.04369307554
 20
-90734.06457959105
 42
0.4142135623730951
 10
-10742.04369307554
 20
-90736.06457959105
 10
-10742.04369307554
 20
-90818.06457959105
 42
0.4142135623730951
  0
DIMENSION
  5
165F
330
1F
100
AcDbEntity
  8
0
100
AcDbDimension
280
     0
  2
*D31
 10
-10742.04369307554
 20
-90851.87916820629
 30
0.0
 11
-10699.04369307554
 21
-90851.87916820629
 31
0.0
 70
    32
  1
<>
 71
     0
 72
     0
 41
0.0
 42
86.0
 73
     0
 74
     0
 75
     0
  3
副本 3.0
100
AcDbAlignedDimension
 13
-10656.04369307554
 23
-90845.1461754956
 33
0.0
 14
-10742.04369307554
 24
-90845.1461754956
 34
0.0
100
AcDbRotatedDimension
  0
DIMENSION
  5
166E
330
1F
100
AcDbEntity
  8
0
100
AcDbDimension
280
     0
  2
*D32
 10
-10769.8303159088
 20
-90731.54360384082
 30
0.0
 11
-10769.8303159088
 21
-90774.54360384082
 31
0.0
 70
    32
  1
<>
 71
     0
 72
    93
 41
0.0
 42
86.0
 73
     0
 74
     0
 75
     0
  3
副本 3.0
100
AcDbAlignedDimension
 13
-10764.04795113078
 23
-90817.54360384083
 33
0.0
 14
-10764.04795113078
 24
-90731.54360384082
 34
0.0
 50
90.0
100
AcDbRotatedDimension
  0
LWPOLYLINE
  5
167D
330
1F
100
AcDbEntity
  8
0
100
AcDbPolyline
 90
        4
 70
     1
 43
0.0
 10
-10615.35459116089
 20
-90822.06457959104
 10
-10608.3545911609
 20
-90822.06457959106
 10
-10608.35459116089
 20
-90732.06457959106
 10
-10615.35459116089
 20
-90732.06457959104
  0
DIMENSION
  5
167E
330
1F
100
AcDbEntity
  8
0
100
AcDbDimension
280
     0
  2
*D33
 10
-10615.35289568074
 20
-90852.4640438947
 30
0.0
 11
-10632.2453922701
 21
-90852.4640438947
 31
0.0
 70
    32
  1
<>
 71
     6
 72
   211
 41
0.0
 42
30.0
 73
     0
 74
     0
 75
     0
  3
副本 3.0
100
AcDbAlignedDimension
 13
-10585.35289568074
 23
-90845.1461754956
 33
0.0
 14
-10615.35289568074
 24
-90845.1461754956
 34
0.0
100
AcDbRotatedDimension
  0
CIRCLE
  5
168D
330
1F
100
AcDbEntity
  8
0
100
AcDbCircle
 10
-10707.54369307554
 20
-90762.06457959106
 30
0.0
 40
1.0
  0
CIRCLE
  5
168E
330
1F
100
AcDbEntity
  8
0
100
AcDbCircle
 10
-10699.04369307554
 20
-90762.06457959106
 30
0.0
 40
5.0
  0
ARC
  5
168F
330
1F
100
AcDbEntity
  8
0
100
AcDbCircle
 10
-10614.35459116089
 20
-90761.54183501968
 30
0.0
 40
6.749999999994396
100
AcDbArc
 50
98.51962425415017
 51
261.4803757458499
  0
MTEXT
  5
1690
330
1F
100
AcDbEntity
  8
0
100
AcDbMText
 10
-10769.4522248728
 20
-90884.08599929346
 30
0.0
 40
8.0
 41
254.2196531791908
 46
0.0
 71
     1
 72
     1
  1
\fSimSun|b0|i0|c134|p0;型号：WLB35-LD01G*
 73
     1
 44
1.0
  0
LWPOLYLINE
  5
1691
330
1F
100
AcDbEntity
  8
0
 62
     1
100
AcDbPolyline
 90
        4
 70
     1
 43
0.0
 10
-10857.95970777852
 20
-90899.82877972587
 10
-10857.95970777852
 20
-90699.82877972588
 10
-10507.95970777852
 20
-90699.82877972588
 10
-10507.95970777852
 20
-90899.82877972587
  0
LINE
  5
1692
330
1F
100
AcDbEntity
  8
0
100
AcDbLine
 10
-11178.39601842398
 20
-90729.61374786503
 30
0.0
 11
-11154.39601842398
 21
-90729.61374786503
 31
0.0
  0
LWPOLYLINE
  5
1693
330
1F
100
AcDbEntity
  8
0
100
AcDbPolyline
 90
        4
 70
     0
 43
0.0
 10
-10584.55303096311
 20
-90759.97307574008
 10
-10584.35459116089
 20
-90738.06457959106
 10
-10608.3545911609
 20
-90738.06457959106
 10
-10608.3545911609
 20
-90816.06457959106
  0
LINE
  5
1694
330
1F
100
AcDbEntity
  8
0
100
AcDbLine
 10
-10584.55303096311
 20
-90759.97307574008
 30
0.0
 11
-10608.3545911609
 21
-90759.97307574006
 31
0.0
  0
ARC
  5
1695
330
1F
100
AcDbEntity
  8
0
100
AcDbCircle
 10
-10667.88874769643
 20
-90757.70651960111
 30
0.0
 40
83.36653381415981
100
AcDbArc
 50
315.5715655796245
 51
358.4420594335548
  0
LINE
  5
1696
330
1F
100
AcDbEntity
  8
0
100
AcDbLine
 10
-10608.3545911609
 20
-90738.06457959106
 30
0.0
 11
-10584.35459116089
 21
-90738.06457959106
 31
0.0
  0
LWPOLYLINE
  5
169F
330
1F
100
AcDbEntity
  8
0
100
AcDbPolyline
 90
        4
 70
     1
 43
0.0
 10
-11261.15837733922
 20
-90789.54049086442
 10
-11261.15837733922
 20
-90777.54049086443
 42
0.9999999999999998
 10
-11277.15837733922
 20
-90777.64915848192
 10
-11277.15837733922
 20
-90789.68700486562
 42
0.9999999999999998
  0
LWPOLYLINE
  5
171E
330
1F
100
AcDbEntity
  8
0
100
AcDbPolyline
 90
        8
 70
     1
 43
0.0
 10
-11304.63711228862
 20
-91128.01323849588
 10
-11222.63711228862
 20
-91128.01323849588
 42
0.4142135623730951
 10
-11220.63711228862
 20
-91126.01323849586
 10
-11220.63711228862
 20
-91044.01323849588
 42
0.4142135623730951
 10
-11222.63711228862
 20
-91042.01323849586
 10
-11304.63711228862
 20
-91042.01323849586
 42
0.4142135623730951
 10
-11306.63711228862
 20
-91044.01323849588
 10
-11306.63711228862
 20
-91126.01323849586
 42
0.4142135623730951
  0
DIMENSION
  5
171F
330
1F
100
AcDbEntity
  8
0
100
AcDbDimension
280
     0
  2
*D34
 10
-11306.63711228862
 20
-91159.82263034762
 30
0.0
 11
-11263.63711228862
 21
-91159.82263034762
 31
0.0
 70
    32
  1
<>
 71
     0
 72
     0
 41
0.0
 42
86.0
 73
     0
 74
     0
 75
     0
  3
副本 3.0
100
AcDbAlignedDimension
 13
-11220.63711228862
 23
-91153.09483440041
 33
0.0
 14
-11306.63711228862
 24
-91153.09483440041
 34
0.0
100
AcDbRotatedDimension
  0
DIMENSION
  5
172E
330
1F
100
AcDbEntity
  8
0
100
AcDbDimension
280
     0
  2
*D35
 10
-11179.94801037398
 20
-91160.05431310094
 30
0.0
 11
-11196.84050696334
 21
-91160.05431310094
 31
0.0
 70
    32
  1
<>
 71
     0
 72
     0
 41
0.0
 42
30.08082719444792
 73
     0
 74
     0
 75
     0
  3
副本 3.0
100
AcDbAlignedDimension
 13
-11149.86718317953
 23
-91154.80095348253
 33
0.0
 14
-11179.94801037398
 24
-91154.28934907866
 34
0.0
100
AcDbRotatedDimension
  0
LINE
  5
173D
330
1F
100
AcDbEntity
  8
0
100
AcDbLine
 10
-11149.1464501762
 20
-91067.92173464489
 30
0.0
 11
-11172.94801037398
 21
-91067.92173464487
 31
0.0
  0
ARC
  5
173E
330
1F
100
AcDbEntity
  8
0
100
AcDbCircle
 10
-11232.48216690952
 20
-91065.65517850592
 30
0.0
 40
83.36653381415981
100
AcDbArc
 50
315.5715655796245
 51
358.4420594335548
  0
DIMENSION
  5
173F
330
1F
100
AcDbEntity
  8
0
100
AcDbDimension
280
     0
  2
*D36
 10
-11334.28118459337
 20
-91042.01323849586
 30
0.0
 11
-11334.28118459337
 21
-91085.01323849587
 31
0.0
 70
    32
  1
<>
 71
     0
 72
     0
 41
0.0
 42
86.0
 73
     0
 74
     0
 75
     0
  3
副本 3.0
100
AcDbAlignedDimension
 13
-11329.1547280155
 23
-91128.01323849588
 33
0.0
 14
-11327.94215306827
 24
-91042.01323849586
 34
0.0
 50
90.0
100
AcDbRotatedDimension
  0
LWPOLYLINE
  5
174E
330
1F
100
AcDbEntity
  8
0
100
AcDbPolyline
 90
        4
 70
     1
 43
0.0
 10
-11179.94801037398
 20
-91130.01323849585
 10
-11172.94801037398
 20
-91130.01323849587
 10
-11172.94801037398
 20
-91040.01323849587
 10
-11179.94801037398
 20
-91040.01323849585
  0
LWPOLYLINE
  5
174F
330
1F
100
AcDbEntity
  8
0
100
AcDbPolyline
 90
        4
 70
     0
 43
0.0
 10
-11149.1464501762
 20
-91067.92173464489
 10
-11148.94801037398
 20
-91046.01323849587
 10
-11172.94801037398
 20
-91046.01323849587
 10
-11172.94801037398
 20
-91124.01323849587
  0
MTEXT
  5
1750
330
1F
100
AcDbEntity
  8
0
100
AcDbMText
 10
-11337.25046400322
 20
-91192.90119558453
 30
0.0
 40
8.0
 41
254.2196531791908
 46
0.0
 71
     1
 72
     1
  1
\fSimSun|b0|i0|c134|p0;型号：WLC35-LD01E*
 73
     1
 44
1.0
  0
LWPOLYLINE
  5
1751
330
1F
100
AcDbEntity
  8
0
 62
     1
100
AcDbPolyline
 90
        4
 70
     1
 43
0.0
 10
-11425.75794690894
 20
-91208.64397601696
 10
-11425.75794690894
 20
-91008.64397601696
 10
-11075.75794690894
 20
-91008.64397601696
 10
-11075.75794690894
 20
-91208.64397601696
  0
LWPOLYLINE
  5
1752
330
1F
100
AcDbEntity
  8
0
100
AcDbPolyline
 90
        8
 70
     1
 43
0.0
 10
-10734.59568502554
 20
-91136.46407022189
 10
-10652.59568502554
 20
-91136.46407022189
 42
0.4142135623730951
 10
-10650.59568502554
 20
-91134.46407022189
 10
-10650.59568502554
 20
-91052.46407022189
 42
0.4142135623730951
 10
-10652.59568502554
 20
-91050.46407022189
 10
-10734.59568502554
 20
-91050.46407022189
 42
0.4142135623730951
 10
-10736.59568502554
 20
-91052.46407022189
 10
-10736.59568502554
 20
-91134.46407022189
 42
0.4142135623730951
  0
DIMENSION
  5
1753
330
1F
100
AcDbEntity
  8
0
100
AcDbDimension
280
     0
  2
*D37
 10
-10736.59568502554
 20
-91168.27865883712
 30
0.0
 11
-10693.59568502554
 21
-91168.27865883712
 31
0.0
 70
    32
  1
<>
 71
     0
 72
     0
 41
0.0
 42
86.0
 73
     0
 74
     0
 75
     0
  3
副本 3.0
100
AcDbAlignedDimension
 13
-10650.59568502554
 23
-91161.54566612642
 33
0.0
 14
-10736.59568502554
 24
-91161.54566612642
 34
0.0
100
AcDbRotatedDimension
  0
DIMENSION
  5
1762
330
1F
100
AcDbEntity
  8
0
100
AcDbDimension
280
     0
  2
*D38
 10
-10764.3823078588
 20
-91047.94309447166
 30
0.0
 11
-10764.3823078588
 21
-91090.94309447165
 31
0.0
 70
    32
  1
<>
 71
     0
 72
     0
 41
0.0
 42
86.0
 73
     0
 74
     0
 75
     0
  3
副本 3.0
100
AcDbAlignedDimension
 13
-10758.59994308078
 23
-91133.94309447166
 33
0.0
 14
-10758.59994308078
 24
-91047.94309447166
 34
0.0
 50
90.0
100
AcDbRotatedDimension
  0
LWPOLYLINE
  5
1771
330
1F
100
AcDbEntity
  8
0
100
AcDbPolyline
 90
        4
 70
     1
 43
0.0
 10
-10609.90658311089
 20
-91138.46407022187
 10
-10602.90658311089
 20
-91138.46407022188
 10
-10602.90658311089
 20
-91048.46407022188
 10
-10609.90658311089
 20
-91048.46407022188
  0
DIMENSION
  5
1772
330
1F
100
AcDbEntity
  8
0
100
AcDbDimension
280
     0
  2
*D39
 10
-10609.90488763074
 20
-91168.86353452555
 30
0.0
 11
-10626.7973842201
 21
-91168.86353452555
 31
0.0
 70
    32
  1
<>
 71
     0
 72
     0
 41
0.0
 42
30.0
 73
     0
 74
     0
 75
     0
  3
副本 3.0
100
AcDbAlignedDimension
 13
-10579.90488763074
 23
-91161.54566612642
 33
0.0
 14
-10609.90488763074
 24
-91161.54566612642
 34
0.0
100
AcDbRotatedDimension
  0
CIRCLE
  5
1781
330
1F
100
AcDbEntity
  8
0
100
AcDbCircle
 10
-10702.09568502554
 20
-91078.46407022188
 30
0.0
 40
1.0
  0
CIRCLE
  5
1782
330
1F
100
AcDbEntity
  8
0
100
AcDbCircle
 10
-10693.59568502554
 20
-91078.46407022188
 30
0.0
 40
5.0
  0
ARC
  5
1783
330
1F
100
AcDbEntity
  8
0
100
AcDbCircle
 10
-10608.90658311089
 20
-91077.94132565052
 30
0.0
 40
6.749999999994396
100
AcDbArc
 50
98.51962425415017
 51
261.4803757458499
  0
MTEXT
  5
1784
330
1F
100
AcDbEntity
  8
0
100
AcDbMText
 10
-10764.0042168228
 20
-91200.48548992429
 30
0.0
 40
8.0
 41
254.2196531791908
 46
0.0
 71
     1
 72
     1
  1
\fSimSun|b0|i0|c134|p0;型号：WLC35-LD01G*
 73
     1
 44
1.0
  0
LWPOLYLINE
  5
1785
330
1F
100
AcDbEntity
  8
0
 62
     1
100
AcDbPolyline
 90
        4
 70
     1
 43
0.0
 10
-10852.51169972852
 20
-91216.22827035672
 10
-10852.51169972852
 20
-91016.22827035672
 10
-10502.51169972852
 20
-91016.22827035672
 10
-10502.51169972852
 20
-91216.22827035672
  0
LINE
  5
1786
330
1F
100
AcDbEntity
  8
0
100
AcDbLine
 10
-11172.94801037398
 20
-91046.01323849587
 30
0.0
 11
-11148.94801037398
 21
-91046.01323849587
 31
0.0
  0
LWPOLYLINE
  5
1787
330
1F
100
AcDbEntity
  8
0
100
AcDbPolyline
 90
        4
 70
     0
 43
0.0
 10
-10579.10502291311
 20
-91076.3725663709
 10
-10578.90658311089
 20
-91054.46407022188
 10
-10602.90658311089
 20
-91054.46407022188
 10
-10602.90658311089
 20
-91132.46407022188
  0
LINE
  5
1788
330
1F
100
AcDbEntity
  8
0
100
AcDbLine
 10
-10579.10502291311
 20
-91076.3725663709
 30
0.0
 11
-10602.90658311089
 21
-91076.37256637088
 31
0.0
  0
ARC
  5
1789
330
1F
100
AcDbEntity
  8
0
100
AcDbCircle
 10
-10662.44073964643
 20
-91074.10601023195
 30
0.0
 40
83.36653381415981
100
AcDbArc
 50
315.5715655796245
 51
358.4420594335548
  0
LINE
  5
178A
330
1F
100
AcDbEntity
  8
0
100
AcDbLine
 10
-10602.90658311089
 20
-91054.46407022188
 30
0.0
 11
-10578.90658311089
 21
-91054.46407022188
 31
0.0
  0
LINE
  5
17D5
330
1F
100
AcDbEntity
  8
0
100
AcDbLine
 10
-11261.15837733922
 20
-90777.54049086443
 30
0.0
 11
-11261.15837733922
 21
-90789.54049086442
 31
0.0
  0
LWPOLYLINE
  5
17DF
330
1F
100
AcDbEntity
  8
0
100
AcDbPolyline
 90
        4
 70
     1
 43
0.0
 10
-10691.11695007614
 20
-90797.99132259044
 10
-10691.11695007614
 20
-90785.99132259045
 42
0.9999999999999998
 10
-10707.11695007614
 20
-90786.09999020793
 10
-10707.11695007614
 20
-90798.13783659165
 42
0.9999999999999998
  0
LINE
  5
17E0
330
1F
100
AcDbEntity
  8
0
100
AcDbLine
 10
-10691.11695007614
 20
-90785.99132259045
 30
0.0
 11
-10691.11695007614
 21
-90797.99132259044
 31
0.0
  0
LINE
  5
17E2
330
1F
100
AcDbEntity
  8
0
100
AcDbLine
 10
-11263.63711228862
 20
-91109.01323849587
 30
0.0
 11
-11244.63711228862
 21
-91109.01323849587
 31
0.0
  0
LINE
  5
17E4
330
1F
100
AcDbEntity
  8
0
100
AcDbLine
 10
-11263.63711228862
 20
-91082.01323849588
 30
0.0
 11
-11249.63711228862
 21
-91082.01323849588
 31
0.0
  0
LINE
  5
17E9
330
1F
100
AcDbEntity
  8
0
100
AcDbLine
 10
-11249.63711228862
 20
-91082.01323849588
 30
0.0
 11
-11244.63711228862
 21
-91109.01323849587
 31
0.0
  0
LINE
  5
17EA
330
1F
100
AcDbEntity
  8
0
100
AcDbLine
 10
-11263.63711228862
 20
-91109.01323849587
 30
0.0
 11
-11282.63711228862
 21
-91109.01323849587
 31
0.0
  0
LINE
  5
17EB
330
1F
100
AcDbEntity
  8
0
100
AcDbLine
 10
-11263.63711228862
 20
-91082.01323849588
 30
0.0
 11
-11277.63711228862
 21
-91082.01323849588
 31
0.0
  0
LINE
  5
17EC
330
1F
100
AcDbEntity
  8
0
100
AcDbLine
 10
-11277.63711228862
 20
-91082.01323849588
 30
0.0
 11
-11282.63711228862
 21
-91109.01323849587
 31
0.0
  0
LINE
  5
17F8
330
1F
100
AcDbEntity
  8
0
100
AcDbLine
 10
-10693.59568502554
 20
-91117.46407022188
 30
0.0
 11
-10674.59568502554
 21
-91117.46407022188
 31
0.0
  0
LINE
  5
17F9
330
1F
100
AcDbEntity
  8
0
100
AcDbLine
 10
-10693.59568502554
 20
-91090.46407022189
 30
0.0
 11
-10679.59568502554
 21
-91090.46407022189
 31
0.0
  0
LINE
  5
17FA
330
1F
100
AcDbEntity
  8
0
100
AcDbLine
 10
-10679.59568502554
 20
-91090.46407022189
 30
0.0
 11
-10674.59568502554
 21
-91117.46407022188
 31
0.0
  0
LINE
  5
17FB
330
1F
100
AcDbEntity
  8
0
100
AcDbLine
 10
-10693.59568502554
 20
-91117.46407022188
 30
0.0
 11
-10712.59568502554
 21
-91117.46407022188
 31
0.0
  0
LINE
  5
17FC
330
1F
100
AcDbEntity
  8
0
100
AcDbLine
 10
-10693.59568502554
 20
-91090.46407022189
 30
0.0
 11
-10707.59568502554
 21
-91090.46407022189
 31
0.0
  0
LINE
  5
17FD
330
1F
100
AcDbEntity
  8
0
100
AcDbLine
 10
-10707.59568502554
 20
-91090.46407022189
 30
0.0
 11
-10712.59568502554
 21
-91117.46407022188
 31
0.0
  0
MTEXT
  5
188A
330
1F
100
AcDbEntity
  8
Defpoints
100
AcDbMText
 10
-11345.92710263246
 20
-91810.97146067232
 30
0.0
 40
8.0
 41
254.2196531791906
 46
0.0
 71
     1
 72
     1
  1
\fSimSun|b0|i0|c134|p0;型号：WLE35-LD01E*
 73
     1
 44
1.0
  0
LWPOLYLINE
  5
18A9
330
1F
100
AcDbEntity
  8
Defpoints
 62
     1
100
AcDbPolyline
 90
        4
 70
     1
 43
0.0
 10
-11434.43458553818
 20
-91826.71424110473
 10
-11434.43458553818
 20
-91626.71424110474
 10
-11084.43458553818
 20
-91626.71424110474
 10
-11084.43458553818
 20
-91826.71424110473
  0
MTEXT
  5
18AA
330
1F
100
AcDbEntity
  8
Defpoints
100
AcDbMText
 10
-10772.68085545204
 20
-91818.55575501208
 30
0.0
 40
8.0
 41
254.2196531791906
 46
0.0
 71
     1
 72
     1
  1
\fSimSun|b0|i0|c134|p0;型号：WLE35-LD01G*
 73
     1
 44
1.0
  0
LWPOLYLINE
  5
18AB
330
1F
100
AcDbEntity
  8
Defpoints
 62
     1
100
AcDbPolyline
 90
        4
 70
     1
 43
0.0
 10
-10861.18833835776
 20
-91834.29853544449
 10
-10861.18833835776
 20
-91634.2985354445
 10
-10511.18833835776
 20
-91634.2985354445
 10
-10511.18833835776
 20
-91834.29853544449
  0
DIMENSION
  5
18AC
330
1F
100
AcDbEntity
  8
Defpoints
100
AcDbDimension
280
     0
  2
*D8
 10
-10756.41266842736
 20
-91780.09784937104
 30
0.0
 11
-10711.41266842736
 21
-91780.09784937104
 31
0.0
 70
    32
  1
<>
 71
     0
 72
     0
 41
0.0
 42
90.0
 73
     0
 74
     0
 75
     0
  3
副本 3.0
100
AcDbAlignedDimension
 13
-10666.41266842736
 23
-91774.22711086201
 33
0.0
 14
-10756.41266842736
 24
-91774.22711086201
 34
0.0
100
AcDbRotatedDimension
  0
LWPOLYLINE
  5
18BB
330
1F
100
AcDbEntity
  8
Defpoints
100
AcDbPolyline
 90
        4
 70
     1
 43
0.0
 10
-10627.72356651272
 20
-91751.14551495745
 10
-10620.72356651272
 20
-91751.14551495747
 10
-10620.72356651272
 20
-91661.14551495747
 10
-10627.72356651272
 20
-91661.14551495747
  0
LWPOLYLINE
  5
18BC
330
1F
100
AcDbEntity
  8
Defpoints
100
AcDbPolyline
 90
        4
 70
     1
 43
0.0
 10
-10620.72356651272
 20
-91746.14551495748
 10
-10583.22356651272
 20
-91746.14551495748
 10
-10583.22356651272
 20
-91666.14551495747
 10
-10620.72356651272
 20
-91666.14551495747
  0
DIMENSION
  5
18BD
330
1F
100
AcDbEntity
  8
Defpoints
100
AcDbDimension
280
     0
  2
*D9
 10
-10627.72356651272
 20
-91780.35292033303
 30
0.0
 11
-10605.47356651272
 21
-91780.35292033303
 31
0.0
 70
    32
  1
<>
 71
     0
 72
     0
 41
0.0
 42
44.5
 73
     0
 74
     0
 75
     0
  3
副本 3.0
100
AcDbAlignedDimension
 13
-10583.22356651272
 23
-91774.22711086201
 33
0.0
 14
-10627.72356651272
 24
-91774.97821077707
 34
0.0
100
AcDbRotatedDimension
  0
CIRCLE
  5
18CD
330
1F
100
AcDbEntity
  8
Defpoints
100
AcDbCircle
 10
-10711.41266842736
 20
-91685.89551495747
 30
0.0
 40
6.75
  0
ARC
  5
18CE
330
1F
100
AcDbEntity
  8
Defpoints
100
AcDbCircle
 10
-10627.72356651272
 20
-91685.89551495747
 30
0.0
 40
6.75
100
AcDbArc
 50
90.0
 51
270.0
  0
LWPOLYLINE
  5
18CF
330
1F
100
AcDbEntity
  8
Defpoints
100
AcDbPolyline
 90
        8
 70
     1
 43
0.0
 10
-10754.41266842736
 20
-91751.14551495747
 10
-10668.41266842736
 20
-91751.14551495747
 42
0.4142135623730951
 10
-10666.41266842736
 20
-91749.14551495747
 10
-10666.41266842736
 20
-91663.14551495748
 42
0.4142135623730951
 10
-10668.41266842736
 20
-91661.14551495747
 10
-10754.41266842736
 20
-91661.14551495747
 42
0.4142135623730951
 10
-10756.41266842736
 20
-91663.14551495748
 10
-10756.41266842736
 20
-91749.14551495747
 42
0.4142135623730951
  0
DIMENSION
  5
18D0
330
1F
100
AcDbEntity
  8
Defpoints
100
AcDbDimension
280
     0
  2
*D10
 10
-10782.23539166359
 20
-91661.14551495747
 30
0.0
 11
-10782.23539166359
 21
-91706.14551495747
 31
0.0
 70
    32
  1
<>
 71
    67
 72
    84
 41
0.0
 42
90.0
 73
     0
 74
     0
 75
     0
  3
副本 3.0
100
AcDbAlignedDimension
 13
-10776.4169264826
 23
-91751.14551495747
 33
0.0
 14
-10776.4169264826
 24
-91661.14551495747
 34
0.0
 50
90.0
100
AcDbRotatedDimension
  0
CIRCLE
  5
18DF
330
1F
100
AcDbEntity
  8
Defpoints
100
AcDbCircle
 10
-10719.91266842736
 20
-91685.89551495747
 30
0.0
 40
1.0
  0
DIMENSION
  5
18E0
330
1F
100
AcDbEntity
  8
Defpoints
100
AcDbDimension
280
     0
  2
*D11
 10
-11329.23872900323
 20
-91772.57197188421
 30
0.0
 11
-11284.23872900323
 21
-91772.57197188421
 31
0.0
 70
    32
  1
<>
 71
     0
 72
     0
 41
0.0
 42
90.0
 73
     0
 74
     0
 75
     0
  3
副本 3.0
100
AcDbAlignedDimension
 13
-11239.23872900323
 23
-91766.70123337519
 33
0.0
 14
-11329.23872900323
 24
-91766.70123337519
 34
0.0
100
AcDbRotatedDimension
  0
LWPOLYLINE
  5
18EF
330
1F
100
AcDbEntity
  8
Defpoints
100
AcDbPolyline
 90
        4
 70
     1
 43
0.0
 10
-11200.54962708859
 20
-91743.61963747063
 10
-11193.54962708859
 20
-91743.61963747065
 10
-11193.54962708859
 20
-91653.61963747065
 10
-11200.54962708859
 20
-91653.61963747063
  0
LWPOLYLINE
  5
18F0
330
1F
100
AcDbEntity
  8
Defpoints
100
AcDbPolyline
 90
        4
 70
     1
 43
0.0
 10
-11193.54962708859
 20
-91738.61963747064
 10
-11156.04962708859
 20
-91738.61963747064
 10
-11156.04962708859
 20
-91658.61963747065
 10
-11193.54962708859
 20
-91658.61963747065
  0
DIMENSION
  5
18F1
330
1F
100
AcDbEntity
  8
Defpoints
100
AcDbDimension
280
     0
  2
*D12
 10
-11200.54962708859
 20
-91772.82704284619
 30
0.0
 11
-11178.29962708859
 21
-91772.82704284619
 31
0.0
 70
    32
  1
<>
 71
     0
 72
     0
 41
0.0
 42
44.5
 73
     0
 74
     0
 75
     0
  3
副本 3.0
100
AcDbAlignedDimension
 13
-11156.04962708859
 23
-91766.70123337519
 33
0.0
 14
-11200.54962708859
 24
-91767.45233329025
 34
0.0
100
AcDbRotatedDimension
  0
LWPOLYLINE
  5
1901
330
1F
100
AcDbEntity
  8
Defpoints
100
AcDbPolyline
 90
        8
 70
     1
 43
0.0
 10
-11327.23872900323
 20
-91743.61963747065
 10
-11241.23872900323
 20
-91743.61963747065
 42
0.4142135623730951
 10
-11239.23872900323
 20
-91741.61963747065
 10
-11239.23872900323
 20
-91655.61963747064
 42
0.4142135623730951
 10
-11241.23872900323
 20
-91653.61963747065
 10
-11327.23872900323
 20
-91653.61963747065
 42
0.4142135623730951
 10
-11329.23872900323
 20
-91655.61963747064
 10
-11329.23872900323
 20
-91741.61963747065
 42
0.4142135623730951
  0
DIMENSION
  5
1902
330
1F
100
AcDbEntity
  8
Defpoints
100
AcDbDimension
280
     0
  2
*D13
 10
-11355.06145223945
 20
-91653.61963747065
 30
0.0
 11
-11355.06145223945
 21
-91698.61963747065
 31
0.0
 70
    32
  1
<>
 71
     0
 72
     0
 41
0.0
 42
90.0
 73
     0
 74
     0
 75
     0
  3
副本 3.0
100
AcDbAlignedDimension
 13
-11349.24298705847
 23
-91743.61963747065
 33
0.0
 14
-11349.24298705847
 24
-91653.61963747065
 34
0.0
 50
90.0
100
AcDbRotatedDimension
  0
LWPOLYLINE
  5
1918
330
1F
100
AcDbEntity
  8
Defpoints
100
AcDbPolyline
 90
        4
 70
     1
 43
0.0
 10
-11276.31198600383
 20
-91721.54638047004
 10
-11276.31198600383
 20
-91709.54638047003
 42
0.9999999999999998
 10
-11292.31198600383
 20
-91709.65504808753
 10
-11292.31198600383
 20
-91721.69289447124
 42
0.9999999999999998
  0
LWPOLYLINE
  5
1921
330
1F
100
AcDbEntity
  8
Defpoints
100
AcDbPolyline
 90
        4
 70
     1
 43
0.0
 10
-10703.48592542796
 20
-91729.07225795686
 10
-10703.48592542796
 20
-91717.07225795687
 42
0.9999999999999998
 10
-10719.48592542796
 20
-91717.18092557435
 10
-10719.48592542796
 20
-91729.21877195808
 42
0.9999999999999998
  0
LINE
  5
1922
330
1F
100
AcDbEntity
  8
Defpoints
100
AcDbLine
 10
-10703.48592542796
 20
-91717.07225795687
 30
0.0
 11
-10703.48592542796
 21
-91729.07225795686
 31
0.0
  0
MTEXT
  5
1992
330
1F
100
AcDbEntity
  8
Defpoints
100
AcDbMText
 10
-11344.79421051678
 20
-92086.67774099756
 30
0.0
 40
8.0
 41
254.2196531791906
 46
0.0
 71
     1
 72
     1
  1
\fSimSun|b0|i0|c134|p0;型号：WLF35-LD01E*
 73
     1
 44
1.0
  0
LWPOLYLINE
  5
1993
330
1F
100
AcDbEntity
  8
Defpoints
 62
     1
100
AcDbPolyline
 90
        4
 70
     1
 43
0.0
 10
-11433.3016934225
 20
-92102.42052142998
 10
-11433.3016934225
 20
-91902.42052142998
 10
-11083.3016934225
 20
-91902.42052142998
 10
-11083.3016934225
 20
-92102.42052142998
  0
MTEXT
  5
1994
330
1F
100
AcDbEntity
  8
Defpoints
100
AcDbMText
 10
-10771.54796333636
 20
-92094.26203533732
 30
0.0
 40
8.0
 41
254.2196531791906
 46
0.0
 71
     1
 72
     1
  1
\fSimSun|b0|i0|c134|p0;型号：WLF35-LD01G*
 73
     1
 44
1.0
  0
LWPOLYLINE
  5
1995
330
1F
100
AcDbEntity
  8
Defpoints
 62
     1
100
AcDbPolyline
 90
        4
 70
     1
 43
0.0
 10
-10860.05544624208
 20
-92110.00481576974
 10
-10860.05544624208
 20
-91910.00481576974
 10
-10510.05544624209
 20
-91910.00481576974
 10
-10510.05544624209
 20
-92110.00481576974
  0
DIMENSION
  5
1996
330
1F
100
AcDbEntity
  8
Defpoints
100
AcDbDimension
280
     0
  2
*D14
 10
-10755.27977631169
 20
-92055.80412969629
 30
0.0
 11
-10710.27977631169
 21
-92055.80412969629
 31
0.0
 70
    32
  1
<>
 71
     6
 72
   211
 41
0.0
 42
90.0
 73
     0
 74
     0
 75
     0
  3
副本 3.0
100
AcDbAlignedDimension
 13
-10665.27977631169
 23
-92049.93339118727
 33
0.0
 14
-10755.27977631169
 24
-92049.93339118727
 34
0.0
100
AcDbRotatedDimension
  0
LWPOLYLINE
  5
19A5
330
1F
100
AcDbEntity
  8
Defpoints
100
AcDbPolyline
 90
        4
 70
     1
 43
0.0
 10
-10626.59067439705
 20
-92026.85179528272
 10
-10619.59067439705
 20
-92026.85179528272
 10
-10619.59067439704
 20
-91936.85179528273
 10
-10626.59067439705
 20
-91936.85179528271
  0
LWPOLYLINE
  5
19A6
330
1F
100
AcDbEntity
  8
Defpoints
100
AcDbPolyline
 90
        4
 70
     1
 43
0.0
 10
-10619.59067439705
 20
-92021.85179528273
 10
-10582.09067439705
 20
-92021.85179528273
 10
-10582.09067439705
 20
-91941.85179528272
 10
-10619.59067439705
 20
-91941.85179528272
  0
DIMENSION
  5
19A7
330
1F
100
AcDbEntity
  8
Defpoints
100
AcDbDimension
280
     0
  2
*D15
 10
-10626.59067439705
 20
-92056.05920065828
 30
0.0
 11
-10604.34067439705
 21
-92056.05920065828
 31
0.0
 70
    32
  1
<>
 71
     0
 72
     0
 41
0.0
 42
44.5
 73
     0
 74
     0
 75
     0
  3
副本 3.0
100
AcDbAlignedDimension
 13
-10582.09067439705
 23
-92049.93339118727
 33
0.0
 14
-10626.59067439705
 24
-92050.68449110232
 34
0.0
100
AcDbRotatedDimension
  0
CIRCLE
  5
19B6
330
1F
100
AcDbEntity
  8
Defpoints
100
AcDbCircle
 10
-10710.27977631169
 20
-91961.60179528272
 30
0.0
 40
6.75
  0
ARC
  5
19B7
330
1F
100
AcDbEntity
  8
Defpoints
100
AcDbCircle
 10
-10626.59067439705
 20
-91961.60179528272
 30
0.0
 40
6.75
100
AcDbArc
 50
90.0
 51
270.0
  0
LWPOLYLINE
  5
19B8
330
1F
100
AcDbEntity
  8
Defpoints
100
AcDbPolyline
 90
        8
 70
     1
 43
0.0
 10
-10753.27977631169
 20
-92026.85179528272
 10
-10667.27977631169
 20
-92026.85179528272
 42
0.4142135623730951
 10
-10665.27977631169
 20
-92024.85179528272
 10
-10665.27977631169
 20
-91938.85179528272
 42
0.4142135623730951
 10
-10667.27977631169
 20
-91936.85179528273
 10
-10753.27977631169
 20
-91936.85179528273
 42
0.4142135623730951
 10
-10755.27977631169
 20
-91938.85179528272
 10
-10755.27977631169
 20
-92024.85179528272
 42
0.4142135623730951
  0
DIMENSION
  5
19B9
330
1F
100
AcDbEntity
  8
Defpoints
100
AcDbDimension
280
     0
  2
*D16
 10
-10781.10249954791
 20
-91936.85179528273
 30
0.0
 11
-10781.10249954791
 21
-91981.85179528273
 31
0.0
 70
    32
  1
<>
 71
     0
 72
     0
 41
0.0
 42
90.0
 73
     0
 74
     0
 75
     0
  3
副本 3.0
100
AcDbAlignedDimension
 13
-10775.28403436693
 23
-92026.85179528272
 33
0.0
 14
-10775.28403436693
 24
-91936.85179528273
 34
0.0
 50
90.0
100
AcDbRotatedDimension
  0
CIRCLE
  5
19C8
330
1F
100
AcDbEntity
  8
Defpoints
100
AcDbCircle
 10
-10718.77977631169
 20
-91961.60179528272
 30
0.0
 40
1.0
  0
DIMENSION
  5
19C9
330
1F
100
AcDbEntity
  8
Defpoints
100
AcDbDimension
280
     0
  2
*D17
 10
-11328.10583688755
 20
-92048.27825220947
 30
0.0
 11
-11283.10583688755
 21
-92048.27825220947
 31
0.0
 70
    32
  1
<>
 71
     0
 72
     0
 41
0.0
 42
90.0
 73
     0
 74
     0
 75
     0
  3
副本 3.0
100
AcDbAlignedDimension
 13
-11238.10583688755
 23
-92042.40751370043
 33
0.0
 14
-11328.10583688755
 24
-92042.40751370043
 34
0.0
100
AcDbRotatedDimension
  0
LWPOLYLINE
  5
19D8
330
1F
100
AcDbEntity
  8
Defpoints
100
AcDbPolyline
 90
        4
 70
     1
 43
0.0
 10
-11199.41673497291
 20
-92019.32591779588
 10
-11192.41673497291
 20
-92019.32591779589
 10
-11192.41673497291
 20
-91929.32591779589
 10
-11199.41673497291
 20
-91929.32591779587
  0
LWPOLYLINE
  5
19D9
330
1F
100
AcDbEntity
  8
Defpoints
100
AcDbPolyline
 90
        4
 70
     1
 43
0.0
 10
-11192.41673497291
 20
-92014.32591779589
 10
-11154.91673497291
 20
-92014.32591779589
 10
-11154.91673497291
 20
-91934.3259177959
 10
-11192.41673497291
 20
-91934.3259177959
  0
DIMENSION
  5
19DA
330
1F
100
AcDbEntity
  8
Defpoints
100
AcDbDimension
280
     0
  2
*D18
 10
-11199.41673497291
 20
-92048.53332317144
 30
0.0
 11
-11177.16673497291
 21
-92048.53332317144
 31
0.0
 70
    32
  1
<>
 71
    67
 72
    84
 41
0.0
 42
44.5
 73
     0
 74
     0
 75
     0
  3
副本 3.0
100
AcDbAlignedDimension
 13
-11154.91673497291
 23
-92042.40751370043
 33
0.0
 14
-11199.41673497291
 24
-92043.1586136155
 34
0.0
100
AcDbRotatedDimension
  0
LWPOLYLINE
  5
19E9
330
1F
100
AcDbEntity
  8
Defpoints
100
AcDbPolyline
 90
        8
 70
     1
 43
0.0
 10
-11326.10583688755
 20
-92019.32591779589
 10
-11240.10583688755
 20
-92019.32591779589
 42
0.4142135623730951
 10
-11238.10583688755
 20
-92017.3259177959
 10
-11238.10583688755
 20
-91931.3259177959
 42
0.4142135623730951
 10
-11240.10583688755
 20
-91929.32591779589
 10
-11326.10583688755
 20
-91929.32591779589
 42
0.4142135623730951
 10
-11328.10583688755
 20
-91931.3259177959
 10
-11328.10583688755
 20
-92017.3259177959
 42
0.4142135623730951
  0
DIMENSION
  5
19EA
330
1F
100
AcDbEntity
  8
Defpoints
100
AcDbDimension
280
     0
  2
*D19
 10
-11353.92856012378
 20
-91929.32591779589
 30
0.0
 11
-11353.92856012378
 21
-91974.32591779589
 31
0.0
 70
    32
  1
<>
 71
     2
 72
     0
 41
0.0
 42
90.0
 73
     0
 74
     0
 75
     0
  3
副本 3.0
100
AcDbAlignedDimension
 13
-11348.11009494279
 23
-92019.32591779589
 33
0.0
 14
-11348.11009494279
 24
-91929.32591779589
 34
0.0
 50
90.0
100
AcDbRotatedDimension
  0
LINE
  5
1A07
330
1F
100
AcDbEntity
  8
Defpoints
100
AcDbLine
 10
-11283.10583688755
 20
-92000.3259177959
 30
0.0
 11
-11264.10583688755
 21
-92000.3259177959
 31
0.0
  0
LINE
  5
1A08
330
1F
100
AcDbEntity
  8
Defpoints
100
AcDbLine
 10
-11283.10583688755
 20
-91973.3259177959
 30
0.0
 11
-11269.10583688755
 21
-91973.3259177959
 31
0.0
  0
LINE
  5
1A09
330
1F
100
AcDbEntity
  8
Defpoints
100
AcDbLine
 10
-11269.10583688755
 20
-91973.3259177959
 30
0.0
 11
-11264.10583688755
 21
-92000.3259177959
 31
0.0
  0
LINE
  5
1A0A
330
1F
100
AcDbEntity
  8
Defpoints
100
AcDbLine
 10
-11283.10583688755
 20
-92000.3259177959
 30
0.0
 11
-11302.10583688755
 21
-92000.3259177959
 31
0.0
  0
LINE
  5
1A0B
330
1F
100
AcDbEntity
  8
Defpoints
100
AcDbLine
 10
-11283.10583688755
 20
-91973.3259177959
 30
0.0
 11
-11297.10583688755
 21
-91973.3259177959
 31
0.0
  0
LINE
  5
1A0C
330
1F
100
AcDbEntity
  8
Defpoints
100
AcDbLine
 10
-11297.10583688755
 20
-91973.3259177959
 30
0.0
 11
-11302.10583688755
 21
-92000.3259177959
 31
0.0
  0
LINE
  5
1A18
330
1F
100
AcDbEntity
  8
Defpoints
100
AcDbLine
 10
-10710.27977631169
 20
-92007.85179528272
 30
0.0
 11
-10691.27977631169
 21
-92007.85179528272
 31
0.0
  0
LINE
  5
1A19
330
1F
100
AcDbEntity
  8
Defpoints
100
AcDbLine
 10
-10710.27977631169
 20
-91980.85179528272
 30
0.0
 11
-10696.27977631169
 21
-91980.85179528272
 31
0.0
  0
LINE
  5
1A1A
330
1F
100
AcDbEntity
  8
Defpoints
100
AcDbLine
 10
-10696.27977631169
 20
-91980.85179528272
 30
0.0
 11
-10691.27977631169
 21
-92007.85179528272
 31
0.0
  0
LINE
  5
1A1B
330
1F
100
AcDbEntity
  8
Defpoints
100
AcDbLine
 10
-10710.27977631169
 20
-92007.85179528272
 30
0.0
 11
-10729.27977631169
 21
-92007.85179528272
 31
0.0
  0
LINE
  5
1A1C
330
1F
100
AcDbEntity
  8
Defpoints
100
AcDbLine
 10
-10710.27977631169
 20
-91980.85179528272
 30
0.0
 11
-10724.27977631169
 21
-91980.85179528272
 31
0.0
  0
LINE
  5
1A1D
330
1F
100
AcDbEntity
  8
Defpoints
100
AcDbLine
 10
-10724.27977631169
 20
-91980.85179528272
 30
0.0
 11
-10729.27977631169
 21
-92007.85179528272
 31
0.0
  0
ENDSEC
  0
SECTION
  2
OBJECTS
  0
DICTIONARY
  5
C
330
0
100
AcDbDictionary
281
     1
  3
ACAD_CIP_PREVIOUS_PRODUCT_INFO
350
20D9
  3
ACAD_COLOR
350
6C
  3
ACAD_DETAILVIEWSTYLE
350
20D2
  3
ACAD_GROUP
350
D
  3
ACAD_LAYOUT
350
1A
  3
ACAD_MATERIAL
350
6B
  3
ACAD_MLEADERSTYLE
350
4A
  3
ACAD_MLINESTYLE
350
17
  3
ACAD_PLOTSETTINGS
350
19
  3
ACAD_PLOTSTYLENAME
350
E
  3
ACAD_SCALELIST
350
48
  3
ACAD_SECTIONVIEWSTYLE
350
20D0
  3
ACAD_TABLESTYLE
350
92
  3
ACAD_VISUALSTYLE
350
2F
  3
ACDB_RECOMPOSE_DATA
350
20E5
  3
AcDbVariableDictionary
350
59
  3
GPDRAWINGSETTING
350
127
  0
DICTIONARY
  5
205E
330
10
100
AcDbDictionary
280
     1
281
     1
  0
DICTIONARY
  5
20C6
330
1F
100
AcDbDictionary
280
     1
281
     1
  3
ACAD_ASSOCNETWORK
360
4
  3
ACAD_SORTENTS
360
20C7
  0
XRECORD
  5
20D9
102
{ACAD_REACTORS
330
C
102
}
330
C
100
AcDbXrecord
280
     1
300
ACD
300
2018
300
ACD_F_S
  0
DICTIONARY
  5
6C
102
{ACAD_REACTORS
330
C
102
}
330
C
100
AcDbDictionary
281
     1
  0
DICTIONARY
  5
20D2
102
{ACAD_REACTORS
330
C
102
}
330
C
100
AcDbDictionary
281
     1
  3
Metric50
350
20D3
  0
DICTIONARY
  5
D
102
{ACAD_REACTORS
330
C
102
}
330
C
100
AcDbDictionary
281
     1
  0
DICTIONARY
  5
1A
102
{ACAD_REACTORS
330
C
102
}
330
C
100
AcDbDictionary
281
     1
  3
Model
350
22
  3
布局2
350
3ED
  0
DICTIONARY
  5
6B
102
{ACAD_REACTORS
330
C
102
}
330
C
100
AcDbDictionary
281
     1
  3
BYBLOCK
350
44
  3
BYLAYER
350
41
  3
GLOBAL
350
3D0
  0
DICTIONARY
  5
4A
102
{ACAD_REACTORS
330
C
102
}
330
C
100
AcDbDictionary
281
     1
  3
STANDARD
350
121
  0
DICTIONARY
  5
17
102
{ACAD_REACTORS
330
C
102
}
330
C
100
AcDbDictionary
281
     1
  3
Standard
350
18
  0
DICTIONARY
  5
19
102
{ACAD_REACTORS
330
C
102
}
330
C
100
AcDbDictionary
281
     1
  0
ACDBDICTIONARYWDFLT
  5
E
102
{ACAD_REACTORS
330
C
102
}
330
C
100
AcDbDictionary
281
     1
  3
Normal
350
F
100
AcDbDictionaryWithDefault
340
F
  0
DICTIONARY
  5
48
102
{ACAD_REACTORS
330
C
102
}
330
C
100
AcDbDictionary
281
     1
  3
A0
350
52
  3
A1
350
53
  3
A2
350
54
  3
A3
350
55
  3
A4
350
56
  3
A5
350
57
  3
A6
350
58
  3
A7
350
3D6
  3
A8
350
3D7
  3
A9
350
5B
  3
B0
350
5C
  3
B1
350
5D
  3
B2
350
3D8
  3
B3
350
5F
  3
B4
350
60
  3
B5
350
61
  3
B6
350
62
  0
DICTIONARY
  5
20D0
102
{ACAD_REACTORS
330
C
102
}
330
C
100
AcDbDictionary
281
     1
  3
Metric50
350
20D1
  0
DICTIONARY
  5
92
102
{ACAD_REACTORS
330
C
102
}
330
C
100
AcDbDictionary
281
     1
  3

350
4C
  3
Standard
350
93
  0
DICTIONARY
  5
2F
102
{ACAD_REACTORS
330
C
102
}
330
C
100
AcDbDictionary
281
     1
  3
2DWIREFRAME
350
2E
  3
3D HIDDEN
350
116
  3
3DWIREFRAME
350
51
  3
BASIC
350
115
  3
BRIGHTEN
350
119
  3
COLORCHANGE
350
11D
  3
CONCEPTUAL
350
117
  3
DIM
350
118
  3
EDGECOLOROFF
350
120
  3
FACEPATTERN
350
11C
  3
FLAT
350
111
  3
FLATWITHEDGES
350
112
  3
GOURAUD
350
113
  3
GOURAUDWITHEDGES
350
114
  3
Hidden
350
20CA
  3
JITTEROFF
350
11E
  3
LINEPATTERN
350
11B
  3
OVERHANGOFF
350
11F
  3
REALISTIC
350
4E
  3
Shaded
350
20CF
  3
Shaded with edges
350
20CE
  3
Shades of Gray
350
20CB
  3
Sketchy
350
20CC
  3
THICKEN
350
11A
  3
Wireframe
350
20C9
  3
X-Ray
350
20CD
  0
XRECORD
  5
20E5
102
{ACAD_REACTORS
330
C
102
}
330
C
100
AcDbXrecord
280
     1
 90
        1
330
4C
330
93
  0
DICTIONARY
  5
59
102
{ACAD_REACTORS
330
C
102
}
330
C
100
AcDbDictionary
281
     1
  3
CANNOSCALE
350
109
  3
CMLEADERSTYLE
350
107
  3
CTABLESTYLE
350
106
  3
CVIEWDETAILSTYLE
350
20E0
  3
CVIEWSECTIONSTYLE
350
20E1
  3
DIMASSOC
350
157
  3
HIDETEXT
350
BCA
  3
LAYEREVAL
350
10B
  3
LAYERNOTIFY
350
10C
  3
LIGHTINGUNITS
350
10A
  3
MSLTSCALE
350
108
  0
DICTIONARY
  5
127
102
{ACAD_REACTORS
330
C
102
}
330
C
100
AcDbDictionary
281
     1
  3
SYSBASEPNT
350
128
  0
DICTIONARY
  5
4
102
{ACAD_REACTORS
330
20C6
102
}
330
20C6
100
AcDbDictionary
281
     1
  0
SORTENTSTABLE
  5
20C7
102
{ACAD_REACTORS
330
20C6
102
}
330
20C6
100
AcDbSortentsTable
330
1F
331
C3
  5
80
331
C2
  5
448
331
81
  5
C2
331
80
  5
82
331
82
  5
C3
331
448
  5
81
  0
ACDBDETAILVIEWSTYLE
  5
20D3
102
{ACAD_REACTORS
330
20D2
102
}
330
20D2
100
AcDbModelDocViewStyle
 70
     0
  3
Metric50
290
     1
300
Metric50
 90
        0
100
AcDbDetailViewStyle
 70
     0
 71
     0
 90
        3
 71
     1
340
11
 62
   256
 40
5.0
340
0
 62
   256
 40
5.0
300

 40
0.0
280
     1
 71
     2
340
16
 90
       25
 62
   256
 71
     3
340
11
 62
   256
 40
5.0
 90
        0
 40
15.0
 90
        1
300
%<\AcVar ViewDetailId>% (%<\AcVar ViewScale \f "%sn">%)
 71
     4
340
16
 90
       25
 62
   256
340
16
 90
       25
 62
   256
280
     0
  0
LAYOUT
  5
22
102
{ACAD_REACTORS
330
1A
102
}
330
1A
100
AcDbPlotSettings
  1

  2
\\Wacdg033\009-综合3F公共打印机
  4
A4
  6

 40
4.233333333333333
 41
4.233333333333313
 42
4.233333333333335
 43
4.233333333333333
 44
210.0
 45
297.0
 46
-0.0000000000000056
 47
53.28166409861363
 48
-11492.09202676117
 49
-91261.40487328859
140
-10456.89828529892
141
-90326.6998925538
142
1.0
143
5.136588197794867
 70
 11956
 72
     1
 73
     0
 74
     4
  7

 75
     0
147
0.1946817540151066
 76
     0
 77
     2
 78
   300
148
0.0
149
0.0
100
AcDbLayout
  1
Model
 70
     1
 71
     0
 10
0.0
 20
0.0
 11
420.0
 21
297.0
 12
0.0
 22
0.0
 32
0.0
 14
-11438.06846117738
 24
-92110.00481576974
 34
0.0
 15
-10502.51169972852
 25
-90345.26783270665
 35
0.0
146
0.0
 13
0.0
 23
0.0
 33
0.0
 16
1.0
 26
0.0
 36
0.0
 17
0.0
 27
1.0
 37
0.0
 76
     0
330
1F
331
97
  0
LAYOUT
  5
3ED
102
{ACAD_REACTORS
330
1A
102
}
330
1A
100
AcDbPlotSettings
  1

  2
none_device
  4
ISO_A4_(210.00_x_297.00_MM)
  6

 40
7.5
 41
20.0
 42
7.5
 43
20.0
 44
210.0
 45
297.0
 46
0.0
 47
0.0
 48
0.0
 49
0.0
140
0.0
141
0.0
142
1.0
143
1.0
 70
   688
 72
     1
 73
     1
 74
     5
  7

 75
    16
147
1.0
 76
     0
 77
     2
 78
   300
148
0.0
149
0.0
100
AcDbLayout
  1
布局2
 70
     1
 71
     1
 10
0.0
 20
0.0
 11
12.0
 21
9.0
 12
0.0
 22
0.0
 32
0.0
 14
0.0
 24
0.0
 34
0.0
 15
0.0
 25
0.0
 35
0.0
146
0.0
 13
0.0
 23
0.0
 33
0.0
 16
1.0
 26
0.0
 36
0.0
 17
0.0
 27
1.0
 37
0.0
 76
     0
330
73
  0
MATERIAL
  5
44
102
{ACAD_XDICTIONARY
360
205F
102
}
102
{ACAD_REACTORS
330
D
102
}
330
6B
100
AcDbMaterial
  1
BYBLOCK
 94
       63
  0
MATERIAL
  5
41
102
{ACAD_XDICTIONARY
360
2060
102
}
102
{ACAD_REACTORS
330
D
102
}
330
6B
100
AcDbMaterial
  1
BYLAYER
 94
       63
  0
MATERIAL
  5
3D0
102
{ACAD_XDICTIONARY
360
2061
102
}
102
{ACAD_REACTORS
330
D
102
}
330
6B
100
AcDbMaterial
  1
GLOBAL
 43
0.0007999999797903
 43
0.0
 43
0.0
 43
0.0
 43
0.0
 43
0.0007999999797903
 43
0.0
 43
0.0
 43
0.0
 43
0.0
 43
1.0
 43
0.0
 43
0.0
 43
0.0
 43
0.0
 43
1.0
 49
0.0007999999797903
 49
0.0
 49
0.0
 49
0.0
 49
0.0
 49
0.0007999999797903
 49
0.0
 49
0.0
 49
0.0
 49
0.0
 49
1.0
 49
0.0
 49
0.0
 49
0.0
 49
0.0
 49
1.0
142
0.0007999999797903
142
0.0
142
0.0
142
0.0
142
0.0
142
0.0007999999797903
142
0.0
142
0.0
142
0.0
142
0.0
142
1.0
142
0.0
142
0.0
142
0.0
142
0.0
142
1.0
144
0.0007999999797903
144
0.0
144
0.0
144
0.0
144
0.0
144
0.0007999999797903
144
0.0
144
0.0
144
0.0
144
0.0
144
1.0
144
0.0
144
0.0
144
0.0
144
0.0
144
1.0
 94
       63
1001
ACAD
1070
    -1
1070
     3
1070
     0
1000

1071
        0
1070
     0
  0
MLEADERSTYLE
  5
121
102
{ACAD_REACTORS
330
4A
102
}
330
4A
100
AcDbMLeaderStyle
179
     2
170
     2
171
     1
172
     0
 90
        2
 40
0.0
 41
0.0
173
     1
 91
-1056964608
340
14
 92
       -2
290
     1
 42
2.0
291
     1
 43
0.36
  3
Standard
 44
4.0
300

342
11
174
     1
178
     6
175
     1
176
     0
 93
-1056964608
 45
4.0
292
     0
297
     0
 46
4.0
 94
-1056964608
 47
1.0
 49
1.0
140
1.0
293
     1
141
0.0
294
     1
177
     0
142
1.0
295
     1
296
     0
143
0.125
271
     0
272
     9
273
     9
298
     1
1001
ACAD_MLEADERVER
1070
     2
  0
MLINESTYLE
  5
18
102
{ACAD_REACTORS
330
17
102
}
330
17
100
AcDbMlineStyle
  2
STANDARD
 70
     0
  3

 62
    18
420
        0
 51
90.0
 52
90.0
 71
     2
 49
0.5
 62
   256
  6
BYLAYER
 49
-0.5
 62
   256
  6
BYLAYER
  0
ACDBPLACEHOLDER
  5
F
102
{ACAD_REACTORS
330
E
102
}
330
E
  0
ACAD_PROXY_OBJECT
  5
52
102
{ACAD_REACTORS
330
48
102
}
330
48
100
AcDbProxyObject
 90
      499
 91
      508
 71
     0
 97
        0
 70
     0
161
                 0
 94
        0
  0
ACAD_PROXY_OBJECT
  5
53
102
{ACAD_REACTORS
330
48
102
}
330
48
100
AcDbProxyObject
 90
      499
 91
      508
 71
     0
 97
        0
 70
     0
161
                 0
 94
        0
  0
ACAD_PROXY_OBJECT
  5
54
102
{ACAD_REACTORS
330
48
102
}
330
48
100
AcDbProxyObject
 90
      499
 91
      508
 71
     0
 97
        0
 70
     0
161
                 0
 94
        0
  0
ACAD_PROXY_OBJECT
  5
55
102
{ACAD_REACTORS
330
48
102
}
330
48
100
AcDbProxyObject
 90
      499
 91
      508
 71
     0
 97
        0
 70
     0
161
                 0
 94
        0
  0
ACAD_PROXY_OBJECT
  5
56
102
{ACAD_REACTORS
330
48
102
}
330
48
100
AcDbProxyObject
 90
      499
 91
      508
 71
     0
 97
        0
 70
     0
161
                 0
 94
        0
  0
ACAD_PROXY_OBJECT
  5
57
102
{ACAD_REACTORS
330
48
102
}
330
48
100
AcDbProxyObject
 90
      499
 91
      508
 71
     0
 97
        0
 70
     0
161
                 0
 94
        0
  0
ACAD_PROXY_OBJECT
  5
58
102
{ACAD_REACTORS
330
48
102
}
330
48
100
AcDbProxyObject
 90
      499
 91
      508
 71
     0
 97
        0
 70
     0
161
                 0
 94
        0
  0
ACAD_PROXY_OBJECT
  5
3D6
102
{ACAD_REACTORS
330
48
102
}
330
48
100
AcDbProxyObject
 90
      499
 91
      508
 71
     0
 97
        0
 70
     0
161
                 0
 94
        0
  0
ACAD_PROXY_OBJECT
  5
3D7
102
{ACAD_REACTORS
330
48
102
}
330
48
100
AcDbProxyObject
 90
      499
 91
      508
 71
     0
 97
        0
 70
     0
161
                 0
 94
        0
  0
ACAD_PROXY_OBJECT
  5
5B
102
{ACAD_REACTORS
330
48
102
}
330
48
100
AcDbProxyObject
 90
      499
 91
      508
 71
     0
 97
        0
 70
     0
161
                 0
 94
        0
  0
ACAD_PROXY_OBJECT
  5
5C
102
{ACAD_REACTORS
330
48
102
}
330
48
100
AcDbProxyObject
 90
      499
 91
      508
 71
     0
 97
        0
 70
     0
161
                 0
 94
        0
  0
ACAD_PROXY_OBJECT
  5
5D
102
{ACAD_REACTORS
330
48
102
}
330
48
100
AcDbProxyObject
 90
      499
 91
      508
 71
     0
 97
        0
 70
     0
161
                 0
 94
        0
  0
ACAD_PROXY_OBJECT
  5
3D8
102
{ACAD_REACTORS
330
48
102
}
330
48
100
AcDbProxyObject
 90
      499
 91
      508
 71
     0
 97
        0
 70
     0
161
                 0
 94
        0
  0
ACAD_PROXY_OBJECT
  5
5F
102
{ACAD_REACTORS
330
48
102
}
330
48
100
AcDbProxyObject
 90
      499
 91
      508
 71
     0
 97
        0
 70
     0
161
                 0
 94
        0
  0
ACAD_PROXY_OBJECT
  5
60
102
{ACAD_REACTORS
330
48
102
}
330
48
100
AcDbProxyObject
 90
      499
 91
      508
 71
     0
 97
        0
 70
     0
161
                 0
 94
        0
  0
ACAD_PROXY_OBJECT
  5
61
102
{ACAD_REACTORS
330
48
102
}
330
48
100
AcDbProxyObject
 90
      499
 91
      508
 71
     0
 97
        0
 70
     0
161
                 0
 94
        0
  0
ACAD_PROXY_OBJECT
  5
62
102
{ACAD_REACTORS
330
48
102
}
330
48
100
AcDbProxyObject
 90
      499
 91
      508
 71
     0
 97
        0
 70
     0
161
                 0
 94
        0
  0
ACDBSECTIONVIEWSTYLE
  5
20D1
102
{ACAD_REACTORS
330
20D0
102
}
330
20D0
100
AcDbModelDocViewStyle
 70
     0
  3
Metric50
290
     1
300
Metric50
 90
        0
100
AcDbSectionViewStyle
 70
     0
 71
     0
 90
      102
 71
     1
340
11
 62
   256
 40
5.0
340
0
340
0
 62
   256
 40
5.0
300
I, O, Q, S, X, Z
 40
10.0
 90
        0
 40
2.5
 90
        0
 71
     2
340
16
 90
       25
 62
   256
340
16
 90
       50
 62
   256
 40
5.0
 40
2.5
 40
5.0
 71
     3
340
11
 62
   256
 40
5.0
 90
        0
 40
15.0
 90
        1
300
%<\AcVar ViewSectionStartId>%-%<\AcVar ViewSectionEndId>% (%<\AcVar ViewScale \f "%sn">%)
 71
     4
 62
   256
 62
   257
300
ANSI31
 40
1.0
 90
        0
290
     0
290
     0
 90
        6
 40
0.0
 40
1.570796326794896
 40
0.2617993877991494
 40
1.308996938995747
 40
-0.2617993877991494
 40
1.832595714594046
  0
TABLESTYLE
  5
4C
102
{ACAD_XDICTIONARY
360
2062
102
}
102
{ACAD_REACTORS
330
92
102
}
330
92
100
AcDbTableStyle
280
     0
  3

 70
     0
 71
     0
 40
0.06
 41
0.06
280
     0
281
     0
140
0.18
170
     2
 62
     0
 63
     7
283
     0
 90
      512
 91
        0
  1

274
    -2
284
     1
 64
     0
275
    -2
285
     1
 65
     0
276
    -2
286
     1
 66
     0
277
    -2
287
     1
 67
     0
278
    -2
288
     1
 68
     0
279
    -2
289
     1
 69
     0
140
0.25
170
     5
 62
     0
 63
     7
283
     0
 90
      512
 91
        0
  1

274
    -2
284
     1
 64
     0
275
    -2
285
     1
 65
     0
276
    -2
286
     1
 66
     0
277
    -2
287
     1
 67
     0
278
    -2
288
     1
 68
     0
279
    -2
289
     1
 69
     0
140
0.18
170
     5
 62
     0
 63
     7
283
     0
 90
      512
 91
        0
  1

274
    -2
284
     1
 64
     0
275
    -2
285
     1
 65
     0
276
    -2
286
     1
 66
     0
277
    -2
287
     1
 67
     0
278
    -2
288
     1
 68
     0
279
    -2
289
     1
 69
     0
  0
TABLESTYLE
  5
93
102
{ACAD_XDICTIONARY
360
20E3
102
}
102
{ACAD_REACTORS
330
92
102
}
330
92
100
AcDbTableStyle
280
     0
  3
Standard
 70
     0
 71
     0
 40
0.06
 41
0.06
280
     0
281
     0
  7
Standard
140
0.18
170
     2
 62
     0
 63
     7
283
     0
 90
      512
 91
        0
  1

274
    -2
284
     1
 64
     0
275
    -2
285
     1
 65
     0
276
    -2
286
     1
 66
     0
277
    -2
287
     1
 67
     0
278
    -2
288
     1
 68
     0
279
    -2
289
     1
 69
     0
  7
Standard
140
0.25
170
     5
 62
     0
 63
     7
283
     0
 90
      512
 91
        0
  1

274
    -2
284
     1
 64
     0
275
    -2
285
     1
 65
     0
276
    -2
286
     1
 66
     0
277
    -2
287
     1
 67
     0
278
    -2
288
     1
 68
     0
279
    -2
289
     1
 69
     0
  7
Standard
140
0.18
170
     5
 62
     0
 63
     7
283
     0
 90
      512
 91
        0
  1

274
    -2
284
     1
 64
     0
275
    -2
285
     1
 65
     0
276
    -2
286
     1
 66
     0
277
    -2
287
     1
 67
     0
278
    -2
288
     1
 68
     0
279
    -2
289
     1
 69
     0
  0
VISUALSTYLE
  5
2E
102
{ACAD_REACTORS
330
2F
102
}
330
2F
100
AcDbVisualStyle
  2

 70
     0
177
     3
291
     1
 70
    58
 90
        0
176
     1
 90
        0
176
     1
 90
        0
176
     1
 90
        0
176
     1
 40
0.0
176
     1
 40
0.0
176
     1
 62
   256
176
     1
 90
        0
176
     1
 90
        0
176
     1
 62
   256
176
     1
 62
   256
176
     1
 90
        1
176
     1
 90
        1
176
     1
 40
0.0
176
     1
 90
        0
176
     1
 62
   256
176
     1
 40
0.0
176
     1
 90
        1
176
     1
 90
        0
176
     1
 90
        1
176
     1
 62
   256
176
     1
 90
        5
176
     1
 90
        0
176
     1
 90
        0
176
     1
290
     1
176
     1
 90
        0
176
     1
 40
0.0
176
     1
 90
        0
176
     1
290
     1
176
     1
290
     1
176
     1
290
     0
176
     1
290
     0
176
     1
290
     0
176
     1
290
     0
176
     1
290
     0
176
     1
290
     0
176
     1
290
     0
176
     1
 90
       50
176
     1
 40
0.0
176
     1
 40
1.0
176
     1
 90
        0
176
     1
 62
    18
420
        0
176
     1
 90
       50
176
     1
 90
        3
176
     1
 62
     5
420
      255
176
     1
290
     0
176
     1
 90
       50
176
     1
 90
       50
176
     1
 90
       50
176
     1
290
     0
176
     1
 90
       50
176
     1
 62
   256
176
     0
 40
1.0
176
     0
 90
        2
176
     1
  1
strokes_ogs.tif
176
     1
290
     0
176
     1
 40
1.0
176
     1
 40
1.0
176
     1
  0
VISUALSTYLE
  5
116
102
{ACAD_REACTORS
330
2F
102
}
330
2F
100
AcDbVisualStyle
  2

 70
     0
177
     3
291
     1
 70
    58
 90
        0
176
     1
 90
        0
176
     1
 90
        0
176
     1
 90
        0
176
     1
 40
0.0
176
     1
 40
0.0
176
     1
 62
   256
176
     1
 90
        0
176
     1
 90
        0
176
     1
 62
   256
176
     1
 62
   256
176
     1
 90
        1
176
     1
 90
        1
176
     1
 40
0.0
176
     1
 90
        0
176
     1
 62
   256
176
     1
 40
0.0
176
     1
 90
        1
176
     1
 90
        0
176
     1
 90
        1
176
     1
 62
   256
176
     1
 90
        5
176
     1
 90
        0
176
     1
 90
        0
176
     1
290
     1
176
     1
 90
        0
176
     1
 40
0.0
176
     1
 90
        0
176
     1
290
     0
176
     1
290
     1
176
     1
290
     1
176
     1
290
     0
176
     1
290
     0
176
     1
290
     0
176
     1
290
     0
176
     1
290
     0
176
     1
290
     0
176
     1
 90
       50
176
     1
 40
0.0
176
     1
 40
1.0
176
     1
 90
        0
176
     1
 62
    18
420
        0
176
     1
 90
       50
176
     1
 90
        3
176
     1
 62
     5
420
      255
176
     1
290
     0
176
     1
 90
       50
176
     1
 90
       50
176
     1
 90
       50
176
     1
290
     0
176
     1
 90
       50
176
     1
 62
   256
176
     0
 40
1.0
176
     0
 90
        2
176
     1
  1
strokes_ogs.tif
176
     1
290
     0
176
     1
 40
1.0
176
     1
 40
1.0
176
     1
  0
VISUALSTYLE
  5
51
102
{ACAD_REACTORS
330
2F
102
}
330
2F
100
AcDbVisualStyle
  2

 70
     0
177
     3
291
     1
 70
    58
 90
        0
176
     1
 90
        0
176
     1
 90
        0
176
     1
 90
        0
176
     1
 40
0.0
176
     1
 40
0.0
176
     1
 62
   256
176
     1
 90
        0
176
     1
 90
        0
176
     1
 62
   256
176
     1
 62
   256
176
     1
 90
        1
176
     1
 90
        1
176
     1
 40
0.0
176
     1
 90
        0
176
     1
 62
   256
176
     1
 40
0.0
176
     1
 90
        1
176
     1
 90
        0
176
     1
 90
        1
176
     1
 62
   256
176
     1
 90
        5
176
     1
 90
        0
176
     1
 90
        0
176
     1
290
     1
176
     1
 90
        0
176
     1
 40
0.0
176
     1
 90
        0
176
     1
290
     0
176
     1
290
     1
176
     1
290
     1
176
     1
290
     0
176
     1
290
     0
176
     1
290
     0
176
     1
290
     0
176
     1
290
     0
176
     1
290
     0
176
     1
 90
       50
176
     1
 40
0.0
176
     1
 40
1.0
176
     1
 90
        0
176
     1
 62
    18
420
        0
176
     1
 90
       50
176
     1
 90
        3
176
     1
 62
     5
420
      255
176
     1
290
     0
176
     1
 90
       50
176
     1
 90
       50
176
     1
 90
       50
176
     1
290
     0
176
     1
 90
       50
176
     1
 62
   256
176
     0
 40
1.0
176
     0
 90
        2
176
     1
  1
strokes_ogs.tif
176
     1
290
     0
176
     1
 40
1.0
176
     1
 40
1.0
176
     1
  0
VISUALSTYLE
  5
115
102
{ACAD_REACTORS
330
2F
102
}
330
2F
100
AcDbVisualStyle
  2

 70
     0
177
     3
291
     1
 70
    58
 90
        0
176
     1
 90
        0
176
     1
 90
        0
176
     1
 90
        0
176
     1
 40
0.0
176
     1
 40
0.0
176
     1
 62
   256
176
     1
 90
        0
176
     1
 90
        0
176
     1
 62
   256
176
     1
 62
   256
176
     1
 90
        1
176
     1
 90
        1
176
     1
 40
0.0
176
     1
 90
        0
176
     1
 62
   256
176
     1
 40
0.0
176
     1
 90
        1
176
     1
 90
        0
176
     1
 90
        1
176
     1
 62
   256
176
     1
 90
        5
176
     1
 90
        0
176
     1
 90
        0
176
     1
290
     1
176
     1
 90
        0
176
     1
 40
0.0
176
     1
 90
        0
176
     1
290
     0
176
     1
290
     1
176
     1
290
     1
176
     1
290
     0
176
     1
290
     0
176
     1
290
     0
176
     1
290
     0
176
     1
290
     0
176
     1
290
     0
176
     1
 90
       50
176
     1
 40
0.0
176
     1
 40
1.0
176
     1
 90
        0
176
     1
 62
    18
420
        0
176
     1
 90
       50
176
     1
 90
        3
176
     1
 62
     5
420
      255
176
     1
290
     0
176
     1
 90
       50
176
     1
 90
       50
176
     1
 90
       50
176
     1
290
     0
176
     1
 90
       50
176
     1
 62
   256
176
     0
 40
1.0
176
     0
 90
        2
176
     1
  1
strokes_ogs.tif
176
     1
290
     0
176
     1
 40
1.0
176
     1
 40
1.0
176
     1
  0
VISUALSTYLE
  5
119
102
{ACAD_REACTORS
330
2F
102
}
330
2F
100
AcDbVisualStyle
  2

 70
     0
177
     3
291
     1
 70
    58
 90
        0
176
     1
 90
        0
176
     1
 90
        0
176
     1
 90
        0
176
     1
 40
0.0
176
     1
 40
0.0
176
     1
 62
   256
176
     1
 90
        0
176
     1
 90
        0
176
     1
 62
   256
176
     1
 62
   256
176
     1
 90
        1
176
     1
 90
        1
176
     1
 40
0.0
176
     1
 90
        0
176
     1
 62
   256
176
     1
 40
0.0
176
     1
 90
        1
176
     1
 90
        0
176
     1
 90
        1
176
     1
 62
   256
176
     1
 90
        5
176
     1
 90
        0
176
     1
 90
        0
176
     1
290
     1
176
     1
 90
        0
176
     1
 40
0.0
176
     1
 90
        0
176
     1
290
     0
176
     1
290
     1
176
     1
290
     1
176
     1
290
     0
176
     1
290
     0
176
     1
290
     0
176
     1
290
     0
176
     1
290
     0
176
     1
290
     0
176
     1
 90
       50
176
     1
 40
0.0
176
     1
 40
1.0
176
     1
 90
        0
176
     1
 62
    18
420
        0
176
     1
 90
       50
176
     1
 90
        3
176
     1
 62
     5
420
      255
176
     1
290
     0
176
     1
 90
       50
176
     1
 90
       50
176
     1
 90
       50
176
     1
290
     0
176
     1
 90
       50
176
     1
 62
   256
176
     0
 40
1.0
176
     0
 90
        2
176
     1
  1
strokes_ogs.tif
176
     1
290
     0
176
     1
 40
1.0
176
     1
 40
1.0
176
     1
  0
VISUALSTYLE
  5
11D
102
{ACAD_REACTORS
330
2F
102
}
330
2F
100
AcDbVisualStyle
  2

 70
     0
177
     3
291
     1
 70
    58
 90
        0
176
     1
 90
        0
176
     1
 90
        0
176
     1
 90
        0
176
     1
 40
0.0
176
     1
 40
0.0
176
     1
 62
   256
176
     1
 90
        0
176
     1
 90
        0
176
     1
 62
   256
176
     1
 62
   256
176
     1
 90
        1
176
     1
 90
        1
176
     1
 40
0.0
176
     1
 90
        0
176
     1
 62
   256
176
     1
 40
0.0
176
     1
 90
        1
176
     1
 90
        0
176
     1
 90
        1
176
     1
 62
   256
176
     1
 90
        5
176
     1
 90
        0
176
     1
 90
        0
176
     1
290
     1
176
     1
 90
        0
176
     1
 40
0.0
176
     1
 90
        0
176
     1
290
     0
176
     1
290
     1
176
     1
290
     1
176
     1
290
     0
176
     1
290
     0
176
     1
290
     0
176
     1
290
     0
176
     1
290
     0
176
     1
290
     0
176
     1
 90
       50
176
     1
 40
0.0
176
     1
 40
1.0
176
     1
 90
        0
176
     1
 62
    18
420
        0
176
     1
 90
       50
176
     1
 90
        3
176
     1
 62
     5
420
      255
176
     1
290
     0
176
     1
 90
       50
176
     1
 90
       50
176
     1
 90
       50
176
     1
290
     0
176
     1
 90
       50
176
     1
 62
   256
176
     0
 40
1.0
176
     0
 90
        2
176
     1
  1
strokes_ogs.tif
176
     1
290
     0
176
     1
 40
1.0
176
     1
 40
1.0
176
     1
  0
VISUALSTYLE
  5
117
102
{ACAD_REACTORS
330
2F
102
}
330
2F
100
AcDbVisualStyle
  2

 70
     0
177
     3
291
     1
 70
    58
 90
        0
176
     1
 90
        0
176
     1
 90
        0
176
     1
 90
        0
176
     1
 40
0.0
176
     1
 40
0.0
176
     1
 62
   256
176
     1
 90
        0
176
     1
 90
        0
176
     1
 62
   256
176
     1
 62
   256
176
     1
 90
        1
176
     1
 90
        1
176
     1
 40
0.0
176
     1
 90
        0
176
     1
 62
   256
176
     1
 40
0.0
176
     1
 90
        1
176
     1
 90
        0
176
     1
 90
        1
176
     1
 62
   256
176
     1
 90
        5
176
     1
 90
        0
176
     1
 90
        0
176
     1
290
     1
176
     1
 90
        0
176
     1
 40
0.0
176
     1
 90
        0
176
     1
290
     0
176
     1
290
     1
176
     1
290
     1
176
     1
290
     0
176
     1
290
     0
176
     1
290
     0
176
     1
290
     0
176
     1
290
     0
176
     1
290
     0
176
     1
 90
       50
176
     1
 40
0.0
176
     1
 40
1.0
176
     1
 90
        0
176
     1
 62
    18
420
        0
176
     1
 90
       50
176
     1
 90
        3
176
     1
 62
     5
420
      255
176
     1
290
     0
176
     1
 90
       50
176
     1
 90
       50
176
     1
 90
       50
176
     1
290
     0
176
     1
 90
       50
176
     1
 62
   256
176
     0
 40
1.0
176
     0
 90
        2
176
     1
  1
strokes_ogs.tif
176
     1
290
     0
176
     1
 40
1.0
176
     1
 40
1.0
176
     1
  0
VISUALSTYLE
  5
118
102
{ACAD_REACTORS
330
2F
102
}
330
2F
100
AcDbVisualStyle
  2

 70
     0
177
     3
291
     1
 70
    58
 90
        0
176
     1
 90
        0
176
     1
 90
        0
176
     1
 90
        0
176
     1
 40
0.0
176
     1
 40
0.0
176
     1
 62
   256
176
     1
 90
        0
176
     1
 90
        0
176
     1
 62
   256
176
     1
 62
   256
176
     1
 90
        1
176
     1
 90
        1
176
     1
 40
0.0
176
     1
 90
        0
176
     1
 62
   256
176
     1
 40
0.0
176
     1
 90
        1
176
     1
 90
        0
176
     1
 90
        1
176
     1
 62
   256
176
     1
 90
        5
176
     1
 90
        0
176
     1
 90
        0
176
     1
290
     1
176
     1
 90
        0
176
     1
 40
0.0
176
     1
 90
        0
176
     1
290
     0
176
     1
290
     1
176
     1
290
     1
176
     1
290
     0
176
     1
290
     0
176
     1
290
     0
176
     1
290
     0
176
     1
290
     0
176
     1
290
     0
176
     1
 90
       50
176
     1
 40
0.0
176
     1
 40
1.0
176
     1
 90
        0
176
     1
 62
    18
420
        0
176
     1
 90
       50
176
     1
 90
        3
176
     1
 62
     5
420
      255
176
     1
290
     0
176
     1
 90
       50
176
     1
 90
       50
176
     1
 90
       50
176
     1
290
     0
176
     1
 90
       50
176
     1
 62
   256
176
     0
 40
1.0
176
     0
 90
        2
176
     1
  1
strokes_ogs.tif
176
     1
290
     0
176
     1
 40
1.0
176
     1
 40
1.0
176
     1
  0
VISUALSTYLE
  5
120
102
{ACAD_REACTORS
330
2F
102
}
330
2F
100
AcDbVisualStyle
  2

 70
     0
177
     3
291
     1
 70
    58
 90
        0
176
     0
 90
        0
176
     0
 90
        0
176
     0
 90
        0
176
     0
 40
0.0
176
     0
 40
0.0
176
     0
 62
   256
176
     0
 90
        0
176
     0
 90
        0
176
     0
 62
   256
176
     0
 62
   256
176
     0
 90
        1
176
     0
 90
        1
176
     0
 40
0.0
176
     0
 90
        0
176
     2
 62
   256
176
     0
 40
0.0
176
     0
 90
        1
176
     0
 90
        0
176
     0
 90
        1
176
     0
 62
   256
176
     0
 90
        5
176
     0
 90
        0
176
     0
 90
        0
176
     0
290
     1
176
     0
 90
        0
176
     0
 40
0.0
176
     0
 90
        0
176
     0
290
     0
176
     1
290
     1
176
     1
290
     1
176
     1
290
     0
176
     1
290
     0
176
     1
290
     0
176
     1
290
     0
176
     1
290
     0
176
     1
290
     0
176
     1
 90
       50
176
     1
 40
0.0
176
     1
 40
1.0
176
     1
 90
        0
176
     1
 62
    18
420
        0
176
     1
 90
       50
176
     1
 90
        3
176
     1
 62
     5
420
      255
176
     1
290
     0
176
     1
 90
       50
176
     1
 90
       50
176
     1
 90
       50
176
     1
290
     0
176
     1
 90
       50
176
     1
 62
   256
176
     0
 40
1.0
176
     0
 90
        2
176
     1
  1
strokes_ogs.tif
176
     1
290
     0
176
     1
 40
1.0
176
     1
 40
1.0
176
     1
  0
VISUALSTYLE
  5
11C
102
{ACAD_REACTORS
330
2F
102
}
330
2F
100
AcDbVisualStyle
  2

 70
     0
177
     3
291
     1
 70
    58
 90
        0
176
     1
 90
        0
176
     1
 90
        0
176
     1
 90
        0
176
     1
 40
0.0
176
     1
 40
0.0
176
     1
 62
   256
176
     1
 90
        0
176
     1
 90
        0
176
     1
 62
   256
176
     1
 62
   256
176
     1
 90
        1
176
     1
 90
        1
176
     1
 40
0.0
176
     1
 90
        0
176
     1
 62
   256
176
     1
 40
0.0
176
     1
 90
        1
176
     1
 90
        0
176
     1
 90
        1
176
     1
 62
   256
176
     1
 90
        5
176
     1
 90
        0
176
     1
 90
        0
176
     1
290
     1
176
     1
 90
        0
176
     1
 40
0.0
176
     1
 90
        0
176
     1
290
     0
176
     1
290
     1
176
     1
290
     1
176
     1
290
     0
176
     1
290
     0
176
     1
290
     0
176
     1
290
     0
176
     1
290
     0
176
     1
290
     0
176
     1
 90
       50
176
     1
 40
0.0
176
     1
 40
1.0
176
     1
 90
        0
176
     1
 62
    18
420
        0
176
     1
 90
       50
176
     1
 90
        3
176
     1
 62
     5
420
      255
176
     1
290
     0
176
     1
 90
       50
176
     1
 90
       50
176
     1
 90
       50
176
     1
290
     0
176
     1
 90
       50
176
     1
 62
   256
176
     0
 40
1.0
176
     0
 90
        2
176
     1
  1
strokes_ogs.tif
176
     1
290
     0
176
     1
 40
1.0
176
     1
 40
1.0
176
     1
  0
VISUALSTYLE
  5
111
102
{ACAD_REACTORS
330
2F
102
}
330
2F
100
AcDbVisualStyle
  2

 70
     0
177
     3
291
     1
 70
    58
 90
        0
176
     1
 90
        0
176
     1
 90
        0
176
     1
 90
        0
176
     1
 40
0.0
176
     1
 40
0.0
176
     1
 62
   256
176
     1
 90
        0
176
     1
 90
        0
176
     1
 62
   256
176
     1
 62
   256
176
     1
 90
        1
176
     1
 90
        1
176
     1
 40
0.0
176
     1
 90
        0
176
     1
 62
   256
176
     1
 40
0.0
176
     1
 90
        1
176
     1
 90
        0
176
     1
 90
        1
176
     1
 62
   256
176
     1
 90
        5
176
     1
 90
        0
176
     1
 90
        0
176
     1
290
     1
176
     1
 90
        0
176
     1
 40
0.0
176
     1
 90
        0
176
     1
290
     0
176
     1
290
     1
176
     1
290
     1
176
     1
290
     0
176
     1
290
     0
176
     1
290
     0
176
     1
290
     0
176
     1
290
     0
176
     1
290
     0
176
     1
 90
       50
176
     1
 40
0.0
176
     1
 40
1.0
176
     1
 90
        0
176
     1
 62
    18
420
        0
176
     1
 90
       50
176
     1
 90
        3
176
     1
 62
     5
420
      255
176
     1
290
     0
176
     1
 90
       50
176
     1
 90
       50
176
     1
 90
       50
176
     1
290
     0
176
     1
 90
       50
176
     1
 62
   256
176
     0
 40
1.0
176
     0
 90
        2
176
     1
  1
strokes_ogs.tif
176
     1
290
     0
176
     1
 40
1.0
176
     1
 40
1.0
176
     1
  0
VISUALSTYLE
  5
112
102
{ACAD_REACTORS
330
2F
102
}
330
2F
100
AcDbVisualStyle
  2

 70
     0
177
     3
291
     1
 70
    58
 90
        0
176
     1
 90
        0
176
     1
 90
        0
176
     1
 90
        0
176
     1
 40
0.0
176
     1
 40
0.0
176
     1
 62
   256
176
     1
 90
        0
176
     1
 90
        0
176
     1
 62
   256
176
     1
 62
   256
176
     1
 90
        1
176
     1
 90
        1
176
     1
 40
0.0
176
     1
 90
        0
176
     1
 62
   256
176
     1
 40
0.0
176
     1
 90
        1
176
     1
 90
        0
176
     1
 90
        1
176
     1
 62
   256
176
     1
 90
        5
176
     1
 90
        0
176
     1
 90
        0
176
     1
290
     1
176
     1
 90
        0
176
     1
 40
0.0
176
     1
 90
        0
176
     1
290
     0
176
     1
290
     1
176
     1
290
     1
176
     1
290
     0
176
     1
290
     0
176
     1
290
     0
176
     1
290
     0
176
     1
290
     0
176
     1
290
     0
176
     1
 90
       50
176
     1
 40
0.0
176
     1
 40
1.0
176
     1
 90
        0
176
     1
 62
    18
420
        0
176
     1
 90
       50
176
     1
 90
        3
176
     1
 62
     5
420
      255
176
     1
290
     0
176
     1
 90
       50
176
     1
 90
       50
176
     1
 90
       50
176
     1
290
     0
176
     1
 90
       50
176
     1
 62
   256
176
     0
 40
1.0
176
     0
 90
        2
176
     1
  1
strokes_ogs.tif
176
     1
290
     0
176
     1
 40
1.0
176
     1
 40
1.0
176
     1
  0
VISUALSTYLE
  5
113
102
{ACAD_REACTORS
330
2F
102
}
330
2F
100
AcDbVisualStyle
  2

 70
     0
177
     3
291
     1
 70
    58
 90
        0
176
     1
 90
        0
176
     1
 90
        0
176
     1
 90
        0
176
     1
 40
0.0
176
     1
 40
0.0
176
     1
 62
   256
176
     1
 90
        0
176
     1
 90
        0
176
     1
 62
   256
176
     1
 62
   256
176
     1
 90
        1
176
     1
 90
        1
176
     1
 40
0.0
176
     1
 90
        0
176
     1
 62
   256
176
     1
 40
0.0
176
     1
 90
        1
176
     1
 90
        0
176
     1
 90
        1
176
     1
 62
   256
176
     1
 90
        5
176
     1
 90
        0
176
     1
 90
        0
176
     1
290
     1
176
     1
 90
        0
176
     1
 40
0.0
176
     1
 90
        0
176
     1
290
     0
176
     1
290
     1
176
     1
290
     1
176
     1
290
     0
176
     1
290
     0
176
     1
290
     0
176
     1
290
     0
176
     1
290
     0
176
     1
290
     0
176
     1
 90
       50
176
     1
 40
0.0
176
     1
 40
1.0
176
     1
 90
        0
176
     1
 62
    18
420
        0
176
     1
 90
       50
176
     1
 90
        3
176
     1
 62
     5
420
      255
176
     1
290
     0
176
     1
 90
       50
176
     1
 90
       50
176
     1
 90
       50
176
     1
290
     0
176
     1
 90
       50
176
     1
 62
   256
176
     0
 40
1.0
176
     0
 90
        2
176
     1
  1
strokes_ogs.tif
176
     1
290
     0
176
     1
 40
1.0
176
     1
 40
1.0
176
     1
  0
VISUALSTYLE
  5
114
102
{ACAD_REACTORS
330
2F
102
}
330
2F
100
AcDbVisualStyle
  2

 70
     0
177
     3
291
     1
 70
    58
 90
        0
176
     1
 90
        0
176
     1
 90
        0
176
     1
 90
        0
176
     1
 40
0.0
176
     1
 40
0.0
176
     1
 62
   256
176
     1
 90
        0
176
     1
 90
        0
176
     1
 62
   256
176
     1
 62
   256
176
     1
 90
        1
176
     1
 90
        1
176
     1
 40
0.0
176
     1
 90
        0
176
     1
 62
   256
176
     1
 40
0.0
176
     1
 90
        1
176
     1
 90
        0
176
     1
 90
        1
176
     1
 62
   256
176
     1
 90
        5
176
     1
 90
        0
176
     1
 90
        0
176
     1
290
     1
176
     1
 90
        0
176
     1
 40
0.0
176
     1
 90
        0
176
     1
290
     0
176
     1
290
     1
176
     1
290
     1
176
     1
290
     0
176
     1
290
     0
176
     1
290
     0
176
     1
290
     0
176
     1
290
     0
176
     1
290
     0
176
     1
 90
       50
176
     1
 40
0.0
176
     1
 40
1.0
176
     1
 90
        0
176
     1
 62
    18
420
        0
176
     1
 90
       50
176
     1
 90
        3
176
     1
 62
     5
420
      255
176
     1
290
     0
176
     1
 90
       50
176
     1
 90
       50
176
     1
 90
       50
176
     1
290
     0
176
     1
 90
       50
176
     1
 62
   256
176
     0
 40
1.0
176
     0
 90
        2
176
     1
  1
strokes_ogs.tif
176
     1
290
     0
176
     1
 40
1.0
176
     1
 40
1.0
176
     1
  0
VISUALSTYLE
  5
20CA
102
{ACAD_REACTORS
330
2F
102
}
330
2F
100
AcDbVisualStyle
  2
Hidden
 70
     6
177
     3
291
     0
 70
    58
 90
        1
176
     1
 90
        2
176
     1
 90
        2
176
     1
 90
        0
176
     1
 40
0.6
176
     1
 40
30.0
176
     1
 62
     7
420
 16777215
176
     1
 90
        2
176
     1
 90
        2
176
     1
 62
     7
176
     1
 62
   257
176
     1
 90
        2
176
     1
 90
        1
176
     1
 40
40.0
176
     1
 90
        0
176
     1
 62
   257
176
     1
 40
1.0
176
     1
 90
        1
176
     1
 90
        6
176
     1
 90
        2
176
     1
 62
     7
176
     1
 90
        3
176
     1
 90
        0
176
     1
 90
        0
176
     1
290
     0
176
     1
 90
        1
176
     1
 40
0.0
176
     1
 90
        0
176
     1
290
     0
176
     1
290
     1
176
     1
290
     1
176
     1
290
     0
176
     1
290
     0
176
     1
290
     0
176
     1
290
     0
176
     1
290
     0
176
     1
290
     0
176
     1
 90
       50
176
     1
 40
0.0
176
     1
 40
1.0
176
     1
 90
        0
176
     1
 62
    18
420
        0
176
     1
 90
       50
176
     1
 90
        3
176
     1
 62
     5
420
      255
176
     1
290
     0
176
     1
 90
       50
176
     1
 90
       50
176
     1
 90
       50
176
     1
290
     0
176
     1
 90
       50
176
     1
 62
   256
176
     0
 40
1.0
176
     0
 90
        2
176
     1
  1
strokes_ogs.tif
176
     1
290
     0
176
     1
 40
1.0
176
     1
 40
1.0
176
     1
  0
VISUALSTYLE
  5
11E
102
{ACAD_REACTORS
330
2F
102
}
330
2F
100
AcDbVisualStyle
  2

 70
     0
177
     3
291
     1
 70
    58
 90
        0
176
     0
 90
        0
176
     0
 90
        0
176
     0
 90
        0
176
     0
 40
0.0
176
     0
 40
0.0
176
     0
 62
   256
176
     0
 90
        0
176
     0
 90
        0
176
     0
 62
   256
176
     0
 62
   256
176
     0
 90
        1
176
     0
 90
        1
176
     0
 40
0.0
176
     0
 90
        0
176
     2
 62
   256
176
     0
 40
0.0
176
     0
 90
        1
176
     0
 90
        0
176
     0
 90
        1
176
     0
 62
   256
176
     0
 90
        5
176
     0
 90
        0
176
     0
 90
        0
176
     0
290
     1
176
     0
 90
        0
176
     0
 40
0.0
176
     0
 90
        0
176
     0
290
     0
176
     1
290
     1
176
     1
290
     1
176
     1
290
     0
176
     1
290
     0
176
     1
290
     0
176
     1
290
     0
176
     1
290
     0
176
     1
290
     0
176
     1
 90
       50
176
     1
 40
0.0
176
     1
 40
1.0
176
     1
 90
        0
176
     1
 62
    18
420
        0
176
     1
 90
       50
176
     1
 90
        3
176
     1
 62
     5
420
      255
176
     1
290
     0
176
     1
 90
       50
176
     1
 90
       50
176
     1
 90
       50
176
     1
290
     0
176
     1
 90
       50
176
     1
 62
   256
176
     0
 40
1.0
176
     0
 90
        2
176
     1
  1
strokes_ogs.tif
176
     1
290
     0
176
     1
 40
1.0
176
     1
 40
1.0
176
     1
  0
VISUALSTYLE
  5
11B
102
{ACAD_REACTORS
330
2F
102
}
330
2F
100
AcDbVisualStyle
  2

 70
     0
177
     3
291
     1
 70
    58
 90
        0
176
     1
 90
        0
176
     1
 90
        0
176
     1
 90
        0
176
     1
 40
0.0
176
     1
 40
0.0
176
     1
 62
   256
176
     1
 90
        0
176
     1
 90
        0
176
     1
 62
   256
176
     1
 62
   256
176
     1
 90
        1
176
     1
 90
        1
176
     1
 40
0.0
176
     1
 90
        0
176
     1
 62
   256
176
     1
 40
0.0
176
     1
 90
        1
176
     1
 90
        0
176
     1
 90
        1
176
     1
 62
   256
176
     1
 90
        5
176
     1
 90
        0
176
     1
 90
        0
176
     1
290
     1
176
     1
 90
        0
176
     1
 40
0.0
176
     1
 90
        0
176
     1
290
     0
176
     1
290
     1
176
     1
290
     1
176
     1
290
     0
176
     1
290
     0
176
     1
290
     0
176
     1
290
     0
176
     1
290
     0
176
     1
290
     0
176
     1
 90
       50
176
     1
 40
0.0
176
     1
 40
1.0
176
     1
 90
        0
176
     1
 62
    18
420
        0
176
     1
 90
       50
176
     1
 90
        3
176
     1
 62
     5
420
      255
176
     1
290
     0
176
     1
 90
       50
176
     1
 90
       50
176
     1
 90
       50
176
     1
290
     0
176
     1
 90
       50
176
     1
 62
   256
176
     0
 40
1.0
176
     0
 90
        2
176
     1
  1
strokes_ogs.tif
176
     1
290
     0
176
     1
 40
1.0
176
     1
 40
1.0
176
     1
  0
VISUALSTYLE
  5
11F
102
{ACAD_REACTORS
330
2F
102
}
330
2F
100
AcDbVisualStyle
  2

 70
     0
177
     3
291
     1
 70
    58
 90
        0
176
     0
 90
        0
176
     0
 90
        0
176
     0
 90
        0
176
     0
 40
0.0
176
     0
 40
0.0
176
     0
 62
   256
176
     0
 90
        0
176
     0
 90
        0
176
     0
 62
   256
176
     0
 62
   256
176
     0
 90
        1
176
     0
 90
        1
176
     0
 40
0.0
176
     0
 90
        0
176
     2
 62
   256
176
     0
 40
0.0
176
     0
 90
        1
176
     0
 90
        0
176
     0
 90
        1
176
     0
 62
   256
176
     0
 90
        5
176
     0
 90
        0
176
     0
 90
        0
176
     0
290
     1
176
     0
 90
        0
176
     0
 40
0.0
176
     0
 90
        0
176
     0
290
     0
176
     1
290
     1
176
     1
290
     1
176
     1
290
     0
176
     1
290
     0
176
     1
290
     0
176
     1
290
     0
176
     1
290
     0
176
     1
290
     0
176
     1
 90
       50
176
     1
 40
0.0
176
     1
 40
1.0
176
     1
 90
        0
176
     1
 62
    18
420
        0
176
     1
 90
       50
176
     1
 90
        3
176
     1
 62
     5
420
      255
176
     1
290
     0
176
     1
 90
       50
176
     1
 90
       50
176
     1
 90
       50
176
     1
290
     0
176
     1
 90
       50
176
     1
 62
   256
176
     0
 40
1.0
176
     0
 90
        2
176
     1
  1
strokes_ogs.tif
176
     1
290
     0
176
     1
 40
1.0
176
     1
 40
1.0
176
     1
  0
VISUALSTYLE
  5
4E
102
{ACAD_REACTORS
330
2F
102
}
330
2F
100
AcDbVisualStyle
  2

 70
     0
177
     3
291
     1
 70
    58
 90
        0
176
     1
 90
        0
176
     1
 90
        0
176
     1
 90
        0
176
     1
 40
0.0
176
     1
 40
0.0
176
     1
 62
   256
176
     1
 90
        0
176
     1
 90
        0
176
     1
 62
   256
176
     1
 62
   256
176
     1
 90
        1
176
     1
 90
        1
176
     1
 40
0.0
176
     1
 90
        0
176
     1
 62
   256
176
     1
 40
0.0
176
     1
 90
        1
176
     1
 90
        0
176
     1
 90
        1
176
     1
 62
   256
176
     1
 90
        5
176
     1
 90
        0
176
     1
 90
        0
176
     1
290
     1
176
     1
 90
        0
176
     1
 40
0.0
176
     1
 90
        0
176
     1
290
     0
176
     1
290
     1
176
     1
290
     1
176
     1
290
     0
176
     1
290
     0
176
     1
290
     0
176
     1
290
     0
176
     1
290
     0
176
     1
290
     0
176
     1
 90
       50
176
     1
 40
0.0
176
     1
 40
1.0
176
     1
 90
        0
176
     1
 62
    18
420
        0
176
     1
 90
       50
176
     1
 90
        3
176
     1
 62
     5
420
      255
176
     1
290
     0
176
     1
 90
       50
176
     1
 90
       50
176
     1
 90
       50
176
     1
290
     0
176
     1
 90
       50
176
     1
 62
   256
176
     0
 40
1.0
176
     0
 90
        2
176
     1
  1
strokes_ogs.tif
176
     1
290
     0
176
     1
 40
1.0
176
     1
 40
1.0
176
     1
  0
VISUALSTYLE
  5
20CF
102
{ACAD_REACTORS
330
2F
102
}
330
2F
100
AcDbVisualStyle
  2
Shaded
 70
    27
177
     3
291
     0
 70
    58
 90
        2
176
     1
 90
        2
176
     1
 90
        1
176
     1
 90
        2
176
     1
 40
0.6
176
     1
 40
30.0
176
     1
 62
     7
420
 16777215
176
     1
 90
        0
176
     1
 90
        4
176
     1
 62
     7
176
     1
 62
   257
176
     1
 90
        1
176
     1
 90
        1
176
     1
 40
1.0
176
     1
 90
        8
176
     1
 62
   257
176
     1
 40
1.0
176
     1
 90
        1
176
     1
 90
        6
176
     1
 90
        2
176
     1
 62
     8
420
  7895160
176
     1
 90
        3
176
     1
 90
        0
176
     1
 90
        0
176
     1
290
     0
176
     1
 90
        5
176
     1
 40
0.0
176
     1
 90
        0
176
     1
290
     0
176
     1
290
     1
176
     1
290
     1
176
     1
290
     0
176
     1
290
     0
176
     1
290
     0
176
     1
290
     0
176
     1
290
     0
176
     1
290
     0
176
     1
 90
       50
176
     1
 40
0.0
176
     1
 40
1.0
176
     1
 90
        0
176
     1
 62
    18
420
        0
176
     1
 90
       50
176
     1
 90
        3
176
     1
 62
     5
420
      255
176
     1
290
     0
176
     1
 90
       50
176
     1
 90
       50
176
     1
 90
       50
176
     1
290
     0
176
     1
 90
       50
176
     1
 62
   256
176
     0
 40
1.0
176
     0
 90
        2
176
     1
  1
strokes_ogs.tif
176
     1
290
     0
176
     1
 40
1.0
176
     1
 40
1.0
176
     1
  0
VISUALSTYLE
  5
20CE
102
{ACAD_REACTORS
330
2F
102
}
330
2F
100
AcDbVisualStyle
  2
Shaded with edges
 70
    26
177
     3
291
     0
 70
    58
 90
        2
176
     1
 90
        2
176
     1
 90
        1
176
     1
 90
        2
176
     1
 40
0.6
176
     1
 40
30.0
176
     1
 62
     7
420
 16777215
176
     1
 90
        1
176
     1
 90
        2
176
     1
 62
     7
176
     1
 62
   257
176
     1
 90
        2
176
     1
 90
        1
176
     1
 40
1.0
176
     1
 90
        8
176
     1
 62
   257
176
     1
 40
1.0
176
     1
 90
        1
176
     1
 90
        6
176
     1
 90
        2
176
     1
 62
     7
176
     1
 90
        3
176
     1
 90
        0
176
     1
 90
        0
176
     1
290
     0
176
     1
 90
        5
176
     1
 40
0.0
176
     1
 90
        0
176
     1
290
     0
176
     1
290
     1
176
     1
290
     1
176
     1
290
     0
176
     1
290
     0
176
     1
290
     0
176
     1
290
     0
176
     1
290
     0
176
     1
290
     0
176
     1
 90
       50
176
     1
 40
0.0
176
     1
 40
1.0
176
     1
 90
        0
176
     1
 62
    18
420
        0
176
     1
 90
       50
176
     1
 90
        3
176
     1
 62
     5
420
      255
176
     1
290
     0
176
     1
 90
       50
176
     1
 90
       50
176
     1
 90
       50
176
     1
290
     0
176
     1
 90
       50
176
     1
 62
   256
176
     0
 40
1.0
176
     0
 90
        2
176
     1
  1
strokes_ogs.tif
176
     1
290
     0
176
     1
 40
1.0
176
     1
 40
1.0
176
     1
  0
VISUALSTYLE
  5
20CB
102
{ACAD_REACTORS
330
2F
102
}
330
2F
100
AcDbVisualStyle
  2
Shades of Gray
 70
    23
177
     3
291
     0
 70
    58
 90
        2
176
     1
 90
        2
176
     1
 90
        3
176
     1
 90
        0
176
     1
 40
0.6
176
     1
 40
30.0
176
     1
 62
     7
420
 16777215
176
     1
 90
        2
176
     1
 90
        2
176
     1
 62
     7
176
     1
 62
     7
176
     1
 90
        1
176
     1
 90
        1
176
     1
 40
40.0
176
     1
 90
        8
176
     1
 62
     7
176
     1
 40
1.0
176
     1
 90
        1
176
     1
 90
        6
176
     1
 90
        2
176
     1
 62
     7
176
     1
 90
        3
176
     1
 90
        0
176
     1
 90
        0
176
     1
290
     0
176
     1
 90
        1
176
     1
 40
0.0
176
     1
 90
        0
176
     1
290
     0
176
     1
290
     1
176
     1
290
     1
176
     1
290
     0
176
     1
290
     0
176
     1
290
     0
176
     1
290
     0
176
     1
290
     0
176
     1
290
     0
176
     1
 90
       50
176
     1
 40
0.0
176
     1
 40
1.0
176
     1
 90
        0
176
     1
 62
    18
420
        0
176
     1
 90
       50
176
     1
 90
        3
176
     1
 62
     5
420
      255
176
     1
290
     0
176
     1
 90
       50
176
     1
 90
       50
176
     1
 90
       50
176
     1
290
     0
176
     1
 90
       50
176
     1
 62
   256
176
     0
 40
1.0
176
     0
 90
        2
176
     1
  1
strokes_ogs.tif
176
     1
290
     0
176
     1
 40
1.0
176
     1
 40
1.0
176
     1
  0
VISUALSTYLE
  5
20CC
102
{ACAD_REACTORS
330
2F
102
}
330
2F
100
AcDbVisualStyle
  2
Sketchy
 70
    24
177
     3
291
     0
 70
    58
 90
        1
176
     1
 90
        2
176
     1
 90
        2
176
     1
 90
        0
176
     1
 40
0.6
176
     1
 40
30.0
176
     1
 62
     7
420
 16777215
176
     1
 90
        2
176
     1
 90
        2
176
     1
 62
     7
176
     1
 62
     7
176
     1
 90
        1
176
     1
 90
        1
176
     1
 40
40.0
176
     1
 90
       11
176
     1
 62
     7
176
     1
 40
1.0
176
     1
 90
        1
176
     1
 90
        6
176
     1
 90
        2
176
     1
 62
     7
176
     1
 90
        6
176
     1
 90
        0
176
     1
 90
        0
176
     1
290
     0
176
     1
 90
        1
176
     1
 40
0.0
176
     1
 90
        0
176
     1
290
     0
176
     1
290
     1
176
     1
290
     1
176
     1
290
     0
176
     1
290
     0
176
     1
290
     0
176
     1
290
     0
176
     1
290
     0
176
     1
290
     0
176
     1
 90
       50
176
     1
 40
0.0
176
     1
 40
1.0
176
     1
 90
        0
176
     1
 62
    18
420
        0
176
     1
 90
       50
176
     1
 90
        3
176
     1
 62
     5
420
      255
176
     1
290
     0
176
     1
 90
       50
176
     1
 90
       50
176
     1
 90
       50
176
     1
290
     0
176
     1
 90
       50
176
     1
 62
   256
176
     0
 40
1.0
176
     0
 90
        2
176
     1
  1
strokes_ogs.tif
176
     1
290
     0
176
     1
 40
1.0
176
     1
 40
1.0
176
     1
  0
VISUALSTYLE
  5
11A
102
{ACAD_REACTORS
330
2F
102
}
330
2F
100
AcDbVisualStyle
  2

 70
     0
177
     3
291
     1
 70
    58
 90
        0
176
     1
 90
        0
176
     1
 90
        0
176
     1
 90
        0
176
     1
 40
0.0
176
     1
 40
0.0
176
     1
 62
   256
176
     1
 90
        0
176
     1
 90
        0
176
     1
 62
   256
176
     1
 62
   256
176
     1
 90
        1
176
     1
 90
        1
176
     1
 40
0.0
176
     1
 90
        0
176
     1
 62
   256
176
     1
 40
0.0
176
     1
 90
        1
176
     1
 90
        0
176
     1
 90
        1
176
     1
 62
   256
176
     1
 90
        5
176
     1
 90
        0
176
     1
 90
        0
176
     1
290
     1
176
     1
 90
        0
176
     1
 40
0.0
176
     1
 90
        0
176
     1
290
     0
176
     1
290
     1
176
     1
290
     1
176
     1
290
     0
176
     1
290
     0
176
     1
290
     0
176
     1
290
     0
176
     1
290
     0
176
     1
290
     0
176
     1
 90
       50
176
     1
 40
0.0
176
     1
 40
1.0
176
     1
 90
        0
176
     1
 62
    18
420
        0
176
     1
 90
       50
176
     1
 90
        3
176
     1
 62
     5
420
      255
176
     1
290
     0
176
     1
 90
       50
176
     1
 90
       50
176
     1
 90
       50
176
     1
290
     0
176
     1
 90
       50
176
     1
 62
   256
176
     0
 40
1.0
176
     0
 90
        2
176
     1
  1
strokes_ogs.tif
176
     1
290
     0
176
     1
 40
1.0
176
     1
 40
1.0
176
     1
  0
VISUALSTYLE
  5
20C9
102
{ACAD_REACTORS
330
2F
102
}
330
2F
100
AcDbVisualStyle
  2
Wireframe
 70
     5
177
     3
291
     0
 70
    58
 90
        0
176
     1
 90
        2
176
     1
 90
        0
176
     1
 90
        0
176
     1
 40
0.6
176
     1
 40
30.0
176
     1
 62
     7
420
 16777215
176
     1
 90
        1
176
     1
 90
        4
176
     1
 62
     7
176
     1
 62
   257
176
     1
 90
        1
176
     1
 90
        1
176
     1
 40
1.0
176
     1
 90
        0
176
     1
 62
   257
176
     1
 40
1.0
176
     1
 90
        1
176
     1
 90
        6
176
     1
 90
        2
176
     1
 62
     7
176
     1
 90
        3
176
     1
 90
        0
176
     1
 90
        0
176
     1
290
     0
176
     1
 90
        1
176
     1
 40
0.0
176
     1
 90
        0
176
     1
290
     0
176
     1
290
     1
176
     1
290
     1
176
     1
290
     0
176
     1
290
     0
176
     1
290
     0
176
     1
290
     0
176
     1
290
     0
176
     1
290
     0
176
     1
 90
       50
176
     1
 40
0.0
176
     1
 40
1.0
176
     1
 90
        0
176
     1
 62
    18
420
        0
176
     1
 90
       50
176
     1
 90
        3
176
     1
 62
     5
420
      255
176
     1
290
     0
176
     1
 90
       50
176
     1
 90
       50
176
     1
 90
       50
176
     1
290
     0
176
     1
 90
       50
176
     1
 62
   256
176
     0
 40
1.0
176
     0
 90
        2
176
     1
  1
strokes_ogs.tif
176
     1
290
     0
176
     1
 40
1.0
176
     1
 40
1.0
176
     1
  0
VISUALSTYLE
  5
20CD
102
{ACAD_REACTORS
330
2F
102
}
330
2F
100
AcDbVisualStyle
  2
X-Ray
 70
    25
177
     3
291
     0
 70
    58
 90
        2
176
     1
 90
        2
176
     1
 90
        1
176
     1
 90
        1
176
     1
 40
0.5
176
     1
 40
30.0
176
     1
 62
     7
420
 16777215
176
     1
 90
        1
176
     1
 90
        0
176
     1
 62
     7
176
     1
 62
   257
176
     1
 90
        1
176
     1
 90
        1
176
     1
 40
1.0
176
     1
 90
        8
176
     1
 62
     7
176
     1
 40
1.0
176
     1
 90
        1
176
     1
 90
        6
176
     1
 90
        2
176
     1
 62
     7
176
     1
 90
        3
176
     1
 90
        0
176
     1
 90
        0
176
     1
290
     0
176
     1
 90
       13
176
     1
 40
0.0
176
     1
 90
        0
176
     1
290
     0
176
     1
290
     1
176
     1
290
     1
176
     1
290
     0
176
     1
290
     0
176
     1
290
     0
176
     1
290
     0
176
     1
290
     0
176
     1
290
     0
176
     1
 90
       50
176
     1
 40
0.0
176
     1
 40
1.0
176
     1
 90
        0
176
     1
 62
    18
420
        0
176
     1
 90
       50
176
     1
 90
        3
176
     1
 62
     5
420
      255
176
     1
290
     0
176
     1
 90
       50
176
     1
 90
       50
176
     1
 90
       50
176
     1
290
     0
176
     1
 90
       50
176
     1
 62
   256
176
     0
 40
1.0
176
     0
 90
        2
176
     1
  1
strokes_ogs.tif
176
     1
290
     0
176
     1
 40
1.0
176
     1
 40
1.0
176
     1
  0
DICTIONARYVAR
  5
109
102
{ACAD_REACTORS
330
59
102
}
330
59
100
DictionaryVariables
280
     0
  1
1:1
  0
DICTIONARYVAR
  5
107
102
{ACAD_REACTORS
330
59
102
}
330
59
100
DictionaryVariables
280
     0
  1
STANDARD
  0
DICTIONARYVAR
  5
106
102
{ACAD_REACTORS
330
59
102
}
330
59
100
DictionaryVariables
280
     0
  1
STANDARD
  0
DICTIONARYVAR
  5
20E0
102
{ACAD_REACTORS
330
59
102
}
330
59
100
DictionaryVariables
280
     0
  1
Metric50
  0
DICTIONARYVAR
  5
20E1
102
{ACAD_REACTORS
330
59
102
}
330
59
100
DictionaryVariables
280
     0
  1
Metric50
  0
DICTIONARYVAR
  5
157
102
{ACAD_REACTORS
330
59
102
}
330
59
100
DictionaryVariables
280
     0
  1
2
  0
DICTIONARYVAR
  5
BCA
102
{ACAD_REACTORS
330
59
102
}
330
59
100
DictionaryVariables
280
     0
  1
1
  0
DICTIONARYVAR
  5
10B
102
{ACAD_REACTORS
330
59
102
}
330
59
100
DictionaryVariables
280
     0
  1
0
  0
DICTIONARYVAR
  5
10C
102
{ACAD_REACTORS
330
59
102
}
330
59
100
DictionaryVariables
280
     0
  1
0
  0
DICTIONARYVAR
  5
10A
102
{ACAD_REACTORS
330
59
102
}
330
59
100
DictionaryVariables
280
     0
  1
2
  0
DICTIONARYVAR
  5
108
102
{ACAD_REACTORS
330
59
102
}
330
59
100
DictionaryVariables
280
     0
  1
1
  0
XRECORD
  5
128
102
{ACAD_REACTORS
330
127
102
}
330
127
100
AcDbXrecord
280
     1
 40
0.0
 40
0.0
 40
0.0
  0
DICTIONARY
  5
205F
330
44
100
AcDbDictionary
280
     1
281
     1
  3
FBXASSET
360
46
  0
DICTIONARY
  5
2060
330
41
100
AcDbDictionary
280
     1
281
     1
  3
FBXASSET
360
43
  0
DICTIONARY
  5
2061
330
3D0
100
AcDbDictionary
280
     1
281
     1
  3
BUMPTILE
360
3D2
  3
DIFFUSETILE
360
3D3
  3
FBXASSET
360
3D4
  3
OPACITYTILE
360
3D5
  3
REFLECTIONTILE
360
13
  0
DICTIONARY
  5
2062
330
4C
100
AcDbDictionary
280
     1
281
     1
  3
ACAD_ROUNDTRIP_2008_TABLESTYLE_CELLSTYLEMAP
360
20E2
  0
DICTIONARY
  5
20E3
330
93
100
AcDbDictionary
280
     1
281
     1
  3
ACAD_ROUNDTRIP_2008_TABLESTYLE_CELLSTYLEMAP
360
20E4
  0
XRECORD
  5
46
102
{ACAD_REACTORS
330
205F
102
}
330
205F
100
AcDbXrecord
280
     1
 70
     1
 90
429727718
  1
D62C5603-E3A1-4AEA-B7FB-FE5D8D0755AF
310
504B03040A0000080000CC70623B3DEE336E79000000790000001B0000006175746F6465736B2D64657369676E2D7061636B6167652E786D6C3C3F786D6C2076657273696F6E3D22312E302220656E636F64696E673D227574662D3822203F3E3C666F726D6174733E3C666F726D61743E687474703A2F2F736368656D612E
310
6175746F6465736B2E636F6D2F64657369676E2D7061636B6167652F323030393C2F666F726D61743E3C2F666F726D6174733E504B0304140006080800CC70623BD486FD9CA0000000F4000000130000005B436F6E74656E745F54797065735D2E786D6C7D8EC10E82300C865F65E91D8A1E8C310C0EEA1BF002731658846E
310
D98AC1B77784ABF1D8FE5FBFBF75BBCE937A534CCEB38643598122B6FEE978D0B0485F9C41B54DDD7D022595594E1A469170414C76A4D9A4D207E29CF43ECE46F218070CC6BECC4078ACAA135ACF422C856C0E68EA1BF5669944DDD7BCDE7B1F8E415D77AECB980613C2E4AC91FC167A2B244592486606FC29C8FD7F045B9A
310
EF7053A7E60B504B0304140006080800CC70623B853B8169EB0000007C01000008000000636F72652E786D6C8D90416EC3201045AF62CDB6C206821CC7C244919D9CA01740401C94182C03558F5F9C3852BBEB6A467FFE9B197D7EFC9E1EC5975982F5AE035262288C535E5B377690E21535501C055FBC8FBF6C503839990E
310
5619041F179FE64D52DE45E362569DD7661365082642A11EB9E920A89B99642953CC8E702F67A9EE7234257977194EC9EAE275C4EABCCF5EAD5940D4AC6F0E35A568B8F43562CD7046CD199FD07E60174276A7BE677B5EADB0E0D14EEFFB6A31321A0D82627C4084204C3F096B71DD52F6819B16635EADF63F509AF53FA164
310
5DDCD1EDDD17164090FCC8732078B56691CB33A85CD7DCC40F504B0304140006080800CC70623B55019EA25F0000007C00000007000000636E782E786D6C4DCB3B0E80201045D1AD90E915ED2CF8AC45050C11660C8261F98AB1B07AC9C97D42D718D865D3E909258CFD00CCE24AC6E326A164D74DC0B4128928FF32603847
310
2BA13128B1252AC747C6BAB984FC68F0B87FE8960A5C09FE86CFB69FBA01504B0304140006080800CC70623BDBABAAF470010000D40300000C0000006662782F636F72652E786D6CC553D16E823014FD95A6AF4B694182CC941A83FA05FB810A9511A125A5257EFE2E82712ECEB8A7F100CD39F7F69E734AF9FADC366850B6
310
AF8DCE7018308C942E4C59EB2AC3DE1D498AD15A706B8CFB56869196ADCAF00863C12B6B7C374385D14E6907A836A59A41D9F7CA615434B0C8705F7CAA5606D23BA8E84F41278B93AC54100640439DE0BDB320004D43C63716C7C399D30917DCFBBA9CD9BA8469F5B156168B24CED3F7248AC8769F27244EB73B92EED8862C
310
B7F13E0C179B3C8F979C8ECD82BBBABDAA2BAC924E9558448CBD9330242CFA08E3154B5651FCC6D215639C8EE5774DBE2B5F6CF2B5768B68963BB5F5588420E442FC700B1139D4CB01F450C1E918227C2E09DF070D8140C84E1E9AAB8F1340832A9CB13130A5F1376A908D57309505ECF2A0DF179C4E9D30F5B239B87E3823
310
7A79C6F31DE1A8A5AEC08474B03C7837EAE4938639B44E5932B833D2C6B6B279CDC613877FA26EE21F4A2A4C63EC7F29A2F301D1F9F7A0E37D145F504B0304140006080800CC70623B9C113CC27E0000009D0000000B0000006662782F636E782E786D6C4DCCDF0A83201C86E15B91DFB94BFB330DD428C8FB886521330DA7
310
6397BF1A1DECE883878F57749FCDA1B7892F1BBC047A23808C7F84D9FA55424E0BE6803A256208E9EF06C84F9B91703228B1C690F78B66B34CD9A5439DF5CF0BFBF65E35BCA1B8D6A5C6F540381E886698B5741C695F9503EBA150A2F8958E3DC3EA0B504B0304140006080800CC70623B7DF2F77C2A010000120200003100
310
00006662782F41393633353835312D344632462D344230382D423046372D3739314545314133324237412F636F72652E786D6C8D51DB8EC22014FC15C2939B0D2DB4B45643319AE817EC0F6041255A68B86CFCFC856D4D76DF7CE190393373060EDB3DC707F856CE6B6B7A480A0C81328395DA5C7B18C3057510EC3873D686
310
3F34088C18550F330C39BB3A1BA7051AAC09CA84841A2BD5020AEF55806078A44B0FFD7053A328440C89E1EFC52486BBB8AA8214A99D789CF9E05200300FC927E4FB4D5B375D43103D5527440FB843077C5AA3F5861C8F645F5787F59E95B390B318B55CE45AA638FAA2957BD7248B390B7A7CC51F9C124149C82B8C378810
310
84AB2F42B7B8DD56F413775B8C5999E9FF4471926F8AA236A1AE96B8B3CC434E5839373893369E1FAF30EA395917409EB7F26AF8801C171837A4A6AC9C89E9F9C9B1A58BA30FD6A5EF5DDDCF894B9AD9B6A59C957943A9FCAE2FD5BC4DFE03504B0304140006080800CC70623BAD7543B64E01000033030000300000006662
310
782F41393633353835312D344632462D344230382D423046372D3739314545314133324237412F636E782E786D6CD593CD6EC32010845F0571AD6CE3D48AD20813A9873E410FBD12D82434182C7EAAE6EDBB2424CD25871E7B41D6EC30B3FA84F9E67BB2E40B4234DE8DB46F1925E094D7C6ED479AD3AE5951B2113C789FEE
310
6C943839C1488B4C05DF079FE72A69D8C96C13AAD6B8631503449F83828872B949AC57D26200B826A308D316B4064D6E46FCDA41C05550DC9E483A00797BFD207EFB092A45DE9514C1BBD22178396BD39D891265658C238DEA00936C654E5E433CB65A26D9F6EDB5EBC14EBF49A45CB856E66048291F6939A9A81BB5C89177
310
38143CA680F4AA299D66A042CEB3354A2684DC9D8D178FE0D9B8B41CAAD720F880EE7EF93C0C18769E099ECC04D5A102C8049A8A05632F4DDF376CF1DE0F6BB65C2F8627B65A33C6BB62177CEBBDAD973006829F89F22E814B54F4BC2BE347F8AA8F681390B50FA73F804400B5F542E796F19FF974E7F78DB802FE05E20750
310
4B0304140006080800CC70623BE75B7789680500003C100000340000006662782F41393633353835312D344632462D344230382D423046372D3739314545314133324237412F6F626A656374732E786D6CAD575B8F9B3818FD2B887D06C22499CB8AA1CA655245D5B455A356FB305264C061D8018C6C3393D95FBFC7600890
310
A4CD5EF210B0B1BFEBF98E3F7B1FF6596ABC522E1296DF9BAE3D320D9A872C4AF2F8DE2CE5CEBA358D0FBEC719939D65A691938CDE9B6ADAF4BD98B3B2D05311DD91329583D9D5FC0F438434A7A611A644887B5384CF34233629258BA878B12322891DEFF6B66BD70BFB62634E8AE781D082709A4B588AF91C528CDA28B73F
310
1C998EEF39EABBEFA97FBD6A7C7E9553F9D3D79FE442923C3C523610337627CB87ABE99D359D4CC6D6E4FACAB5E6ABF9D2726FC6A3C5F56271377BB88362213924694B38DD99FE47C48627A1E7D49F5A8BB5E1A74C0A599ED3B0F21F1E56366B89112D681E218F0915D0D6F17AD41FBA2A369DCF6335D62ABBD39779D5DDD1
310
11D4D8DE3CBB96B2E04FB8202E41051754A1AA8E8F76B4C6DFE810B580B1547F4B84911149794252234D024EF8BBE963A95AE27B3D310A9D5C215C7960FAEE415ED75694C6AFB17BCACA5D99A60A9AA65F217B0BFC53292ACB92BF283FAD0D3621576592CB5BED907C2FA8E9DF794E35E97BEA31BED21FEB401ABB94C44839
310
DCACBF0E1C5DA8DA5B2F4DFFD32AD86F543D9E565E7056502E157C00AD2671CD534549AB752FCA9CDA00677A313F04E51B22FF19E57B300579E3C97EB29F682D92935CEC18CF901B7B54FD8C51F362B56FC72FE0B3C1EAE335EDCCBF5AEC39ADB17DC238973F804BA5E6F6BFE7AF1FB32E523BE9F3BD571418E3631DCA4D48
310
5250CF639223210A9446CA30052EDF057BD35F8329C1ECD84552BF0DC8D18BE7BCE23BFE6BD960AB4A7DE79923A103BEBD80F911CBAA2C60DB19B01CF164A5583B772EE6D3FFA56666CBCDA74DC97724A48F9A58967497E489C4D979006FD7A05E227A1EBDD0F737C623387A9C844D3709995625106D157315F8B8392CD4E0
310
A0B9A720C4BE9829CEF37EA1E13111214D53925356365ADA634861B52519DD27A00AEB808EAF0628E6F435519D446F45CF2C9CF5214F0A15B2F6D06B79DA3EE3CBF7F56780D2F4E7EF73A0F5E5B02A38D07DC852C6B7C1FBB6664213E0C39E3EBA7FF4E1AD23EA2829407C85E586727488B751B2DB9502BC7B228A3FD68B6E
310
A65A22397E690AA8D158D7E404EC8CDA235CC3B7D1898680131CEC2CDF2638C65196279577750F15884AEE19F94199155B92B13297978469D4F8D358DF0AEF7631E28DC8F0D9F437D5D39A83B2231A1D52D543813A824EF8D44BCFF2FA6A31BD1E8DAD87F1CCB526B3879935BF59CDADD5C37479BB1CDD4CA7B3556B516589
310
EF352754B706114D9C885EC9131DE6EFEB43D99AFE2391C2F958179413D7CFEF6B1B6DB1E7600F00DE6E5C67454A339A4BA2E0FBA85ED26F045D454F463DBFCE484C2F90F2E5E3666003662ED8F755951A7D1BECD5B30B550B2785C8E7320B7292A4838DDA71BBC863ED7613CAF659337A3354231D4FF4A182A54904C2898C
310
98B28C4AD0CE056CCF332A80986E571EE9DBC305BB5FEB7E509220A58D25CF042D712A806AC0AD0C657FDEF80D2D9CEAA2EE4D1C76F60BFE74219A06527D6F82DF6412526107381E55E353090704D085B52408A8913C4ED159D79BDA71BB4BC506F4831350EB6F975CD22D69BF7AC49B91A2C0A9DDA3D5CA36AD20FC478E37
310
E61844E2352865EBCB61A275A65283CAAA9DD27703B4102F5AF51EF5F573B75CBB5AD38BC845F7A49F82A0966A49C2E3EA5EA0ECD326CD965F1DB402C6FA8B51A4658C5C5E2EC9E214602E55810345408596591009A82E7E7FFACA19EEA299B14A0081A705CB3296EBC14CDF658DCD336EA6D1136881AAEB87B81AB9EE53D5
310
F5EB8BC8362082DA24122F98680A4E7930C01A0079749CEA14382A0783E5EBA5A10F8C098456A03D6A4AEB6BB881E2513747552A5DB22C7EDAF83BD5528081A365F7FF06504B0304140006080000CC70623B000000000000000000000000350000006662782F41393633353835312D344632462D344230382D423046372D37
310
39314545314133324237412F76657274696365732E62696E504B0304140006080800CC70623BF270F1330600000004000000360000006662782F41393633353835312D344632462D344230382D423046372D3739314545314133324237412F747269616E676C65732E62696E636660600000504B0304140006080000CC7062
310
3B000000000000000000000000370000006662782F41393633353835312D344632462D344230382D423046372D3739314545314133324237412F617474726962757465732E62696E504B0304140006080800CC70623B08DA0BD19000000041010000360000006662782F41393633353835312D344632462D344230382D4230
310
46372D3739314545314133324237412F6469726563746F72792E786D6C858F410AC3201045AF22B36F53E9A60B35CBEEBAE80D244E44489C6234F4F835464A48035D0DF398FF9F8AF63D0E6CC63039F212F8F9020C7D47C6792B21C5FE7403D62A1188E2E60C98D7234A5830286103A55745067B9D86B8A3CF9C7F90C11DE6
310
07FB144396D7B6A82D282E9A152AD114D5EF2CB866EEE831B8EEA07A7BB5A8D7D61A2BAAEB7FD5F70921FF497D00504B0304140006080800CC70623BEDD1DC58FD000000A00100003B0000006662782F41393633353835312D344632462D344230382D423046372D3739314545314133324237412F7265736F75726365732F
310
636F72652E786D6C8D504B6E833010BD0A9A6D65B00922041947112427E8052C33A156828DFCA97AFC9A40A576D7CDCCE87D344F8F9FBFE667F689CE6B6B3A6039850C8DB2A336530731DC4903D95970676DF82583CCC8193B5861107C72362E3BA4AC096842428D1D7107A5F7182053CF7474E0D507CE32973124857FE48B
310
540F3961CEF244279DE03EB81420DB9EAC1384436FA353E879B1B182C7A8C75DA3C7F453DF353A1075D537A7BA6464B8F535A99AE14A9A2BBD90E350DD183B5CFABE3AF262350B1EF4FC9351399401471025A527C218A1E53BAB5A5AB765F5469B96525EACF23FA6B88CFF34456DC2A1DCE36E360F82A5202F42F062ED2BAD
310
579969AFDD8A6F504B010214000A0000080000CC70623B3DEE336E79000000790000001B00000000000000000000000000000000006175746F6465736B2D64657369676E2D7061636B6167652E786D6C504B01021400140006080800CC70623BD486FD9CA0000000F40000001300000000000000000000000000B20000005B
310
436F6E74656E745F54797065735D2E786D6C504B01021400140006080800CC70623B853B8169EB0000007C010000080000000000000000000000000083010000636F72652E786D6C504B01021400140006080800CC70623B55019EA25F0000007C000000070000000000000000000000000094020000636E782E786D6C504B
310
01021400140006080800CC70623BDBABAAF470010000D40300000C00000000000000000000000000180300006662782F636F72652E786D6C504B01021400140006080800CC70623B9C113CC27E0000009D0000000B00000000000000000000000000B20400006662782F636E782E786D6C504B01021400140006080800CC70
310
623B7DF2F77C2A010000120200003100000000000000000000000000590500006662782F41393633353835312D344632462D344230382D423046372D3739314545314133324237412F636F72652E786D6C504B01021400140006080800CC70623BAD7543B64E010000330300003000000000000000000000000000D2060000
310
6662782F41393633353835312D344632462D344230382D423046372D3739314545314133324237412F636E782E786D6C504B01021400140006080800CC70623BE75B7789680500003C10000034000000000000000000000000006E0800006662782F41393633353835312D344632462D344230382D423046372D3739314545
310
314133324237412F6F626A656374732E786D6C504B01021400140006080000CC70623B0000000000000000000000003500000000000000000000000000280E00006662782F41393633353835312D344632462D344230382D423046372D3739314545314133324237412F76657274696365732E62696E504B01021400140006
310
080800CC70623BF270F133060000000400000036000000000000000000000000007B0E00006662782F41393633353835312D344632462D344230382D423046372D3739314545314133324237412F747269616E676C65732E62696E504B01021400140006080000CC70623B0000000000000000000000003700000000000000
310
000000000000D50E00006662782F41393633353835312D344632462D344230382D423046372D3739314545314133324237412F617474726962757465732E62696E504B01021400140006080800CC70623B08DA0BD1900000004101000036000000000000000000000000002A0F00006662782F41393633353835312D344632
310
462D344230382D423046372D3739314545314133324237412F6469726563746F72792E786D6C504B01021400140006080800CC70623BEDD1DC58FD000000A00100003B000000000000000000000000000E1000006662782F41393633353835312D344632462D344230382D423046372D3739314545314133324237412F7265
310
736F75726365732F636F72652E786D6C504B0506000000000E000E0080040000641100000000
  0
XRECORD
  5
43
102
{ACAD_REACTORS
330
2060
102
}
330
2060
100
AcDbXrecord
280
     1
 70
     1
 90
429727718
  1
30362254-06B7-45E0-A893-8CFA70E3D6BC
310
504B03040A0000080000CC70623B3DEE336E79000000790000001B0000006175746F6465736B2D64657369676E2D7061636B6167652E786D6C3C3F786D6C2076657273696F6E3D22312E302220656E636F64696E673D227574662D3822203F3E3C666F726D6174733E3C666F726D61743E687474703A2F2F736368656D612E
310
6175746F6465736B2E636F6D2F64657369676E2D7061636B6167652F323030393C2F666F726D61743E3C2F666F726D6174733E504B0304140006080800CC70623BD486FD9CA0000000F4000000130000005B436F6E74656E745F54797065735D2E786D6C7D8EC10E82300C865F65E91D8A1E8C310C0EEA1BF002731658846E
310
D98AC1B77784ABF1D8FE5FBFBF75BBCE937A534CCEB38643598122B6FEE978D0B0485F9C41B54DDD7D022595594E1A469170414C76A4D9A4D207E29CF43ECE46F218070CC6BECC4078ACAA135ACF422C856C0E68EA1BF5669944DDD7BCDE7B1F8E415D77AECB980613C2E4AC91FC167A2B244592486606FC29C8FD7F045B9A
310
EF7053A7E60B504B0304140006080800CC70623B1EC5D7A3EB0000007C01000008000000636F72652E786D6C8D90416EC3201045AF82665B6103C6756C6122AB4D4ED00B204C5C94182C03558F5F9C3852BBEB6A467FFE9B197D71FC9E6FE8CBACC17AD7032D0820E3B41FAD9B7A48F1820F808E52ACDEC75F36404ECDA687
310
4D0629A6D5A76597B477D1B89855E747B38B2A041301E95B6E7A08FAD3CCAA50296647B8168BD2573599823EBB0CA76447F43862C7BCCF5EAC59410E4DDD9C7973C2755553CCCFA4C603E3040F1565ED3B1FDE4E432BCA0D9622DAF9795FAF464533826484B498524CD807E51D79ED187F21878E10516EF63F505AC67F42C9
310
BA58B1FDDD071640D2FCC87D2045B96591CB3DA85CB7DCE40F504B0304140006080800CC70623B55019EA25F0000007C00000007000000636E782E786D6C4DCB3B0E80201045D1AD90E915ED2CF8AC45050C11660C8261F98AB1B07AC9C97D42D718D865D3E909258CFD00CCE24AC6E326A164D74DC0B4128928FF32603847
310
2BA13128B1252AC747C6BAB984FC68F0B87FE8960A5C09FE86CFB69FBA01504B0304140006080800CC70623B8C9102E971010000D40300000C0000006662782F636F72652E786D6CC5535B6E833010BC8AE5DF0A6C08340F1947A84D4ED00B38C6A128602363A31CBFCB234A53A551FA553EC09AD9F5CE8C31DB9E9B1AF5CA
310
7695D1198E428A91D2D214952E33ECDD315861B4E5CC1AE3BE9561A445A3323CC098B3D21ADFCE9034DA29ED00D5A6503328BA4E398C640D8B0C77F253352214DE4145770A5B214FA2546114020D759C75CE8200340D19DE981F0F6746269C33EFAB6266AB02A655C74A59CCF365BADC27CB5D902ED22848F6340DF238A141
310
BE88E2F57B92BFEDF23523433367AE6A2EEAA455C2A902F398D2751045018D3FA264435F3771F242571B4A1919CA6F9A7C5B3CD9E42BED16F12C776AEB308F40C848FC700B1139D4891EF410CEC810227CC6846F8386402064270EF5C5C709A05E49676C024C61FC95EA45ED154CA5211D1FF4FB8291A913A68E9B83EBBB33
310
E2A7673CDE118E5AE8124C0807CB8377834E366998436B950D7A7746DAD846D4CFD978E0F04FD455FC5D49D2D4C6FE9722321F10997F0F32DC47FE05504B0304140006080800CC70623BFFEA85907E0000009D0000000B0000006662782F636E782E786D6C4DCCD10A83201886E15B91FFDC95D95A811AB6F23E625948A6C3
310
E9D8E5AF46073BFAE0E1E365ED67B3E8ADC3CB78C7815C7240DA3DFC64DCC221C519D7805AC182F7F1EF06C88D9BE6703008B6049F9E274D7A1E938DBB5AE3D6131B2589BA0D3D965551E0B2EA732C9B9A624AAEB41E3A557677029960D9AFB4EF11165F504B0304140006080800CC70623B4FEEA4082C0100001202000031
310
0000006662782F39464131463745442D413632322D343644302D413938332D3331353338454246344243312F636F72652E786D6C8D515B6EC32010BC0AE2AB55850DD871ED0813254D72825EC00192A2C460F1A872FC42ED48ED5F7E00CDCECCCEB26C731F6FE05B39AFADE921293004CA082BB5B9F43086336A21D870E6AC
310
0D7F68109861543DCC30E4ECE26C9C164858139409093556AA051CBC570102714B8F1E7AF1A5C6A11862480C7F2DA6415C878B2A4891CA89C7990F2E050073937C42DE1DB7E4F87ED8A36D4329AA9B3D46DBAEAD504556557BD81DEBDD0761E52CE42C462D17B996298E3E6BE59E35C962CE821E1FF18553435012728A7187
310
0841987E927A8D9B35ADDF70BBC6989599FE4F1427F9A4286A132ABAC49D651EF234CD5CE04CDA78BA3DC2A8FB645D00B9DF8B57E215725C60BCA2A463E54C4CE327C7A65E1C7DB02E7DEFCBF594B864C5CA6CDBD49C957943E9FA5D5FBAF336F90F504B0304140006080800CC70623BAD7543B64E01000033030000300000
310
006662782F39464131463745442D413632322D343644302D413938332D3331353338454246344243312F636E782E786D6CD593CD6EC32010845F0571AD6CE3D48AD20813A9873E410FBD12D82434182C7EAAE6EDBB2424CD25871E7B41D6EC30B3FA84F9E67BB2E40B4234DE8DB46F1925E094D7C6ED479AD3AE5951B2113C
310
789FEE6C943839C1488B4C05DF079FE72A69D8C96C13AAD6B8631503449F83828872B949AC57D26200B826A308D316B4064D6E46FCDA41C05550DC9E483A00797BFD207EFB092A45DE9514C1BBD22178396BD39D891265658C238DEA00936C654E5E433CB65A26D9F6EDB5EBC14EBF49A45CB856E66048291F6939A9A81BB5
310
C8917738143CA680F4AA299D66A042CEB3354A2684DC9D8D178FE0D9B8B41CAAD720F880EE7EF93C0C18769E099ECC04D5A102C8049A8A05632F4DDF376CF1DE0F6BB65C2F8627B65A33C6BB62177CEBBDAD973006829F89F22E814B54F4BC2BE347F8AA8F681390B50FA73F804400B5F542E796F19FF974E7F78DB802FE05
310
E207504B0304140006080800CC70623B16AB87BA640500003C100000340000006662782F39464131463745442D413632322D343644302D413938332D3331353338454246344243312F6F626A656374732E786D6CAD575B6FA33818FD2B887DE6924B3BED8A326A92B68A663B534DD4D13E548A0C38942D60649B369D5FBFC7
310
600890A493BDE42160637FD7F31D7FF63E6FB3D478A55C242CBF3247B66B1A340F5994E4F19559CA8D75611A9F7D8F33263BCB4C232719BD32D5B4E97B316765A1A722BA21652A07B3B7B33F0D11D29C9A46981221AE4C113ED38CD8A4942CA2E2C58E882476BCD9DA23BB5ED8171B73523C0F841684D35CC252CCE79062D4
310
468DFA43D7747CCF51DF7D4FFDEB5593E3AB9CCA9FBEFE241792E4E19EB28198C968BAB8199F5D5A67D3E9C49A9E8F47D6EC76B6B0469F26EEFC7C3EBFBCBEB98462213924694B38DD98FE1D62C393D073EA4FADC5DAF04326852CCF6958F90F0F2B9BB5C48816348F90C7840A68EB78EDF68723159BCEE7891A6B95DDE9D3
310
BCEAEEE8086A6C6F9E5D4B59F0175C10A7A0820BAA5055C7473B5AE3CFDD452D602CD5DF12616444529E90D448938013FE6EFA58AA96F85E4F8C42275708571E98FE6827AF6B2B4AE3D7D83D64E5A64C53054DD3AF90BD06FEA9149565C94FCA0F6B834DC85599E4F2423B24DF0B6AFA979E534DFA9E7A4CC6FA631D486393
310
921829879BF5D781A373557BCB85E97FB90DB62B558F8795179C15944B051F40AB495CF35451D26A4727654E6D8033BD98EF82F21D91FF8AF2DD9982BCF1643BDD4EB516C9492E368C67C88DED563FC36D5EACF66DFF057C3658BDBFA69DF9578B3DA735B64F18C7F20770A9D45CFCF7FCF563D6456A277DBEF78A02637CA2
310
43B90A490AEAB94F72244481D24819A6C0E59B606BFA4B3025981DBB48EAB701D97BF19C577CC77F2D1B6C55A9EF3C732474C0B727303F625995056C3B02963D9EAC146BE78EC5FCEC7FA999EBC5EACBAAE41B12D27B4D2C0BBA49F244E2ECDC81B76B502F113D8F5EE8FB1BE3111CDD4FC2AA9B844CAB1288B68AB90A7CDC
310
1C166AB0D3DC5310625FCC14E779BFD0709F8890A629C9292B1B2DED31A4B0DA928CEE135085754027E3018A397D4D5427D15BD1330B677DC8934285AC3DF45A9EB68FF8F2B8FC0A509AFEECFD0FF2DE25CC6047F7214B195F07EFEB9A094D800F7BFAE8FED187B78EA8A3A400F115961BCAD1215E47C966530AF0EE8128FE
310
58CEBB996A8964FFA529A046635D9353B0336A8F700DDF46271A024E70B0B37C9DE01847591E54DED53D54202AB947E4076556AC49C6CA5C9E1226B7F1A7B1BE15DEED62C41B91E1B3E9AFAAA735036547343A925075041DF0A9979E893B391F8FCFA6967B3EFB644DCF6E5CEBFAE272625DCC6FAF3FB93793C5F90CE1EF57
310
407342756B10D1C489E8953CD1617E5CEECAD6F4EF8914CE5D5D504E5C3F1F9736DA62CFC11E00BCDDB8CC8A9466349744C1F75EBDA4DF09BA8A9E8C7A7E9991989E20E5DBDD6A6003664ED8F7A04A8DBE0DF6EAD9B9AA858342E47399053949D2C146EDB85DE4B176BB0965FBAC19BD19AA918E27FA50C1D22402E144464C
310
59462568E704B6E71915404CB72B8FF4EDE184DDAF753F284990D2C6926782963815403548A70C657FDEF80D2D9CEAA2AE4C1C76F60BFE74219A06527D6582DF6412526107381E55E353090704D085B52408D0933C4ED159D79BDA71BB4BC506F4831350EB6F979CD22D69BF7AC49B91A2C0A9DDA3D5CA36AD20FC478E37E6
310
1844E2352865EBCB6EA275A652E3836BE04EFB400BF1A2556F515F1FBB35B2AB35BD889C744FFA1004B5544B121E57F70215746DD2F5E2C1412B602CBF19455AC6C8E5E9922C4E01E65215385004546899059180EAFCF7A707CE7017CD8CDB0410789AB32C63B91E5CEBBBACB17AC6CD347A022D5075FD106377347AAABA7E
310
7D11590744509B44E205134DC1290F06580320F78E537D3D73540E06CB970B431F185308AD40BBD794D6D77003C5A36E8EAA54BA64597CD8F83BD552A080A365F7FF06504B0304140006080000CC70623B000000000000000000000000350000006662782F39464131463745442D413632322D343644302D413938332D3331
310
353338454246344243312F76657274696365732E62696E504B0304140006080800CC70623BF270F1330600000004000000360000006662782F39464131463745442D413632322D343644302D413938332D3331353338454246344243312F747269616E676C65732E62696E636660600000504B0304140006080000CC70623B
310
000000000000000000000000370000006662782F39464131463745442D413632322D343644302D413938332D3331353338454246344243312F617474726962757465732E62696E504B0304140006080800CC70623B08DA0BD19000000041010000360000006662782F39464131463745442D413632322D343644302D413938
310
332D3331353338454246344243312F6469726563746F72792E786D6C858F410AC3201045AF22B36F53E9A60B35CBEEBAE80D244E44489C6234F4F835464A48035D0DF398FF9F8AF63D0E6CC63039F212F8F9020C7D47C6792B21C5FE7403D62A1188E2E60C98D7234A5830286103A55745067B9D86B8A3CF9C7F90C11DE607
310
FB144396D7B6A82D282E9A152AD114D5EF2CB866EEE831B8EEA07A7BB5A8D7D61A2BAAEB7FD5F70921FF497D00504B0304140006080800CC70623B0D6EF93BFE000000A00100003B0000006662782F39464131463745442D413632322D343644302D413938332D3331353338454246344243312F7265736F75726365732F63
310
6F72652E786D6C8D50596E833010BD0A9ADFCA60B334011947A8694ED00B586642AC041B79A97AFC9A40A5F6AF3F33A3B7689E1E3F7DCD8FEC139DD7D6F4C0720A191A65476DA61E62B892236427C19DB5E1970C322367EC618541F0C9D9B8EC90B226A009093576C41D94DE63804C3DD2D18357379C652E63480A7FCF17A9
310
EE72C29CE5894E3AC17D702940B63D59270887DE46A7D0F36263058F518FBB468FE9A7BE6A7420864373B8D4873369AA8691FA421B3294352543C5CAF65C0F6FEF43CB8BD52C78D0F34F46E550061C419494B6843142CB0F5677F4B52BEB177AEC28E5C52AFF638ACBF84F53D42654E51E77B379102C05791282176B5F693D
310
CB4C7BED567C03504B010214000A0000080000CC70623B3DEE336E79000000790000001B00000000000000000000000000000000006175746F6465736B2D64657369676E2D7061636B6167652E786D6C504B01021400140006080800CC70623BD486FD9CA0000000F40000001300000000000000000000000000B20000005B
310
436F6E74656E745F54797065735D2E786D6C504B01021400140006080800CC70623B1EC5D7A3EB0000007C010000080000000000000000000000000083010000636F72652E786D6C504B01021400140006080800CC70623B55019EA25F0000007C000000070000000000000000000000000094020000636E782E786D6C504B
310
01021400140006080800CC70623B8C9102E971010000D40300000C00000000000000000000000000180300006662782F636F72652E786D6C504B01021400140006080800CC70623BFFEA85907E0000009D0000000B00000000000000000000000000B30400006662782F636E782E786D6C504B01021400140006080800CC70
310
623B4FEEA4082C0100001202000031000000000000000000000000005A0500006662782F39464131463745442D413632322D343644302D413938332D3331353338454246344243312F636F72652E786D6C504B01021400140006080800CC70623BAD7543B64E010000330300003000000000000000000000000000D5060000
310
6662782F39464131463745442D413632322D343644302D413938332D3331353338454246344243312F636E782E786D6C504B01021400140006080800CC70623B16AB87BA640500003C1000003400000000000000000000000000710800006662782F39464131463745442D413632322D343644302D413938332D3331353338
310
454246344243312F6F626A656374732E786D6C504B01021400140006080000CC70623B0000000000000000000000003500000000000000000000000000270E00006662782F39464131463745442D413632322D343644302D413938332D3331353338454246344243312F76657274696365732E62696E504B01021400140006
310
080800CC70623BF270F133060000000400000036000000000000000000000000007A0E00006662782F39464131463745442D413632322D343644302D413938332D3331353338454246344243312F747269616E676C65732E62696E504B01021400140006080000CC70623B0000000000000000000000003700000000000000
310
000000000000D40E00006662782F39464131463745442D413632322D343644302D413938332D3331353338454246344243312F617474726962757465732E62696E504B01021400140006080800CC70623B08DA0BD190000000410100003600000000000000000000000000290F00006662782F39464131463745442D413632
310
322D343644302D413938332D3331353338454246344243312F6469726563746F72792E786D6C504B01021400140006080800CC70623B0D6EF93BFE000000A00100003B000000000000000000000000000D1000006662782F39464131463745442D413632322D343644302D413938332D3331353338454246344243312F7265
310
736F75726365732F636F72652E786D6C504B0506000000000E000E0080040000641100000000
  0
XRECORD
  5
3D2
102
{ACAD_REACTORS
330
2061
102
}
330
2061
100
AcDbXrecord
280
     1
270
     1
271
     1
  0
XRECORD
  5
3D3
102
{ACAD_REACTORS
330
2061
102
}
330
2061
100
AcDbXrecord
280
     1
270
     1
271
     1
  0
XRECORD
  5
3D4
102
{ACAD_REACTORS
330
2061
102
}
330
2061
100
AcDbXrecord
280
     1
 70
     0
 90
1673772943
  1
ECE7A1D2-D628-4531-984C-D00F80459256
310
504B03040A0000080000CC70623B3DEE336E79000000790000001B0000006175746F6465736B2D64657369676E2D7061636B6167652E786D6C3C3F786D6C2076657273696F6E3D22312E302220656E636F64696E673D227574662D3822203F3E3C666F726D6174733E3C666F726D61743E687474703A2F2F736368656D612E
310
6175746F6465736B2E636F6D2F64657369676E2D7061636B6167652F323030393C2F666F726D61743E3C2F666F726D6174733E504B0304140006080800CC70623BD486FD9CA0000000F4000000130000005B436F6E74656E745F54797065735D2E786D6C7D8EC10E82300C865F65E91D8A1E8C310C0EEA1BF002731658846E
310
D98AC1B77784ABF1D8FE5FBFBF75BBCE937A534CCEB38643598122B6FEE978D0B0485F9C41B54DDD7D022595594E1A469170414C76A4D9A4D207E29CF43ECE46F218070CC6BECC4078ACAA135ACF422C856C0E68EA1BF5669944DDD7BCDE7B1F8E415D77AECB980613C2E4AC91FC167A2B244592486606FC29C8FD7F045B9A
310
EF7053A7E60B504B0304140006080800CC70623BD9DDAED0EC0000007C01000008000000636F72652E786D6C8D90416EC3201045AF82665B61836D9CD8C2444DD39CA01740405C94182C03558F5F9C3852BBEB6A467FFE9B197D7EF89E6EE8CB2CC17A37002D0820E394D7D68D03A478C17B4007C117EFE32F1B20272733C0
310
2A83E0E3E2D3BC49CABB685CCCAAF3DA6CA20CC14440EA969B0182FA34932C648AD911AEC52CD5558EA6A0CF2EC329598D1E47ACCEFBECC59A050463A7EA5833865FEBDD0E37353BE3EE8DBDE3F6786A48D375FBF6CC78B9C282473B3DEFABC5C86834888A900E538A49F5419B9EB47DD5BC907D4F082F57FB1F28CDFA9F50
310
B22ED6D5F6EE030B20687EE43E10BC5CB3C8E51E54AE6B6EE207504B0304140006080800CC70623B55019EA25F0000007C00000007000000636E782E786D6C4DCB3B0E80201045D1AD90E915ED2CF8AC45050C11660C8261F98AB1B07AC9C97D42D718D865D3E909258CFD00CCE24AC6E326A164D74DC0B4128928FF326038
310
472BA13128B1252AC747C6BAB984FC68F0B87FE8960A5C09FE86CFB69FBA01504B0304140006080800CC70623BA24EB22D72010000D40300000C0000006662782F636F72652E786D6CC5535B6E833010BC8AE5DF0A6C5E49888CA3A6694ED00B38E05014B091B1518EDFE511A5A9D228FD2A1F60CDEC7A67C6986DCE4D8D7A
310
69BA4AAB0C073EC548AA5C17952A33ECECD15B61B4E1CC686DBF9561A44423333CC098B3D268D7CE50AE9595CA02AA74216750749DB418E5352C32DCE59FB211BE70162ABA93DF8AFC244AE9073ED050C759670D0840D390E18DF9F1706664C23973AE2A66B62A605A75ACA4C13C4976E1364A12EF355A2EBD384AF65EFA96
310
BC7B8BED2EA6719AAE16FB8491A199335B351775B991C2CA02F390D2D40B028F861F41BCA68B7518BFD0D59A524686F29B26D7164F36B94AD9289CE54E6D1DE6010819891F6E21228B3AD1831EC219194284CF98F06DD01008846CC5A1BEF83801D4CBDC6A1303536877A57A513B0953A94FC707FDBE6064EA84A9E3E6E0FA
310
EE8CF0E9198F7784A316AA0413C2C2F2E0ECA0934D1AE6D05A69BCDE9E91D2A611F573361E38FC1375157F5752AE6B6DFE4B11990F88CCBF0719EE23FF02504B0304140006080800CC70623B408A7D3B7C0000009D0000000B0000006662782F636E782E786D6C4DCCD10A83201886E15B91FFDC552A92A0064DBC8F581632
310
D3703A76F9ABD1C18E3E78F878E5F0D9027ABBFCF2292AE86E2D20171F69F6715550CB827B40839639A5F2770314A7CD293819B45C73AAFB45B35BA61ACAA1C1C7E7855C58C15BC331339661262CC762340413D68D77DA5B42298546CBE6573AF60CEB2F504B0304140006080800CC70623B449FB9BD290100001202000031
310
0000006662782F36394639363044362D344446342D343946362D394244322D3234314243333846323333332F636F72652E786D6C8D515B6EC32010BC0AE22B55850D98B871848994463E412FE002495162B07854397EA176A4F62F3F2C9A9D991D587EB84F37F0AD7D30CEF6905418026DA553C65E7A98E219ED203808EE9D
310
8B7F6810D871D23D2C3014FCE25D9A57483A1BB58D19B54EE9151C43D0110279CB971E06F9A5A7B11A53CC8C70ADE6515EC78BAE4895DB992778883E0700CB907242D17643D7E2538BD869608875438BBAE38922CAC8F1BDD90DB4691A5E2F42C153326A951B95E398B3D1FE599322163C9AE9115F7A3D46ADA0A018778810
310
84E907617BDCEE297BC5BB3DC6BC2EF47FA234AB2745C9D8D8D035EE220B50105E2F0DC1954B9FB747187D9F9D8FA0CCDB042D5FA0C015C65B42DF78BD10F3F3B363CB56C7109DCFDFBBB97E662ED92EB62D13BC2E1BCAE5777DB9966D8A1F504B0304140006080800CC70623BAD7543B64E01000033030000300000006662
310
782F36394639363044362D344446342D343946362D394244322D3234314243333846323333332F636E782E786D6CD593CD6EC32010845F0571AD6CE3D48AD20813A9873E410FBD12D82434182C7EAAE6EDBB2424CD25871E7B41D6EC30B3FA84F9E67BB2E40B4234DE8DB46F1925E094D7C6ED479AD3AE5951B2113C789FEE
310
6C943839C1488B4C05DF079FE72A69D8C96C13AAD6B8631503449F83828872B949AC57D26200B826A308D316B4064D6E46FCDA41C05550DC9E483A00797BFD207EFB092A45DE9514C1BBD22178396BD39D891265658C238DEA00936C654E5E433CB65A26D9F6EDB5EBC14EBF49A45CB856E66048291F6939A9A81BB5C89177
310
38143CA680F4AA299D66A042CEB3354A2684DC9D8D178FE0D9B8B41CAAD720F880EE7EF93C0C18769E099ECC04D5A102C8049A8A05632F4DDF376CF1DE0F6BB65C2F8627B65A33C6BB62177CEBBDAD973006829F89F22E814B54F4BC2BE347F8AA8F681390B50FA73F804400B5F542E796F19FF974E7F78DB802FE05E20750
310
4B0304140006080800CC70623B8D05915C650500003B100000340000006662782F36394639363044362D344446342D343946362D394244322D3234314243333846323333332F6F626A656374732E786D6CAD575B6FA33814FE2B887D06429276DA1565D4266D158D3A339A6846FB502932E050B66023DB74D2FDF5FB190C01
310
9276B2973C046C8ECFF53B17071F77456EBD502133CEAE6CDF9DD81665314F32965ED995DA3A17B6F5310C04E7AA47665B8C14F4CAD6DB7618A48257A5D94AE89654B91AEDDEDDFC61C998326A5B714EA4BCB265FC440BE2924AF184CA6737218AB8E976E7FA6E4338649B0A523E8D98964450A6A029F619B8588D52FE7039
310
B1BD30F0F4F730D0FF866AF6369557DB33949F31A9088B0F848DD8CCFCF9F2767A76E99CCDE733677E3EF59D9BBB9BA5E37F984D16E78BC5E5F5ED25044B25C0C96822E8D60EEFE11B91C581D77CEA34368A1F5329E68CD1B8B61F16D63A1B8E092D294B10C78C4A48EB593D192E7DED9BDEE7995E1B91FDEDD3ACEA9FE831
310
6A756F9F7D4D79F4274C90A7A04248AA51D5F8C718DAE06FB2F75AC4796EBE65D22A88A22223B995679120E2D50E41AA49C260C046A35368846B0BECD0DFF3EBEB8AD4F835768F69B9ADF25C43D30E6B646F807FAA64AD59F61715C7A54127C4AACA98BA3006A9D792DAE165E0D59B61A01FB3A9F9D838D2DAE62445C86166
310
F37564E842E7DE6A69879FEEA2DD5AE7E371E1A5E025154AC307D06A03D73EB5978C58FFA4C8E9033066E0F3BD53BEC1F39F91BE7B55103791EDE6BBB991A2046172CB4581D8B893FA674DDA17A77B3B7C413D1B511FD2743BFF8A38F03A658705E3ADF8015C3A3417FF3D7E439FF591DA0B5F18BC20C1B8981957AE6392A3
310
F43C640C01D1A0B4728E2DD4F26DB4B3C3152A252A3B4E913CEC1C72F012782FF88EFF8637AA552DBEF76408E8A8DE9E50F9E1CB3A2DA0DB1B6039A893B56063DC5B3E3FFB5F72E67AB9FEB4AEC496C4F4C1149625DD662C53E89D7BF0F6151A046260D1337DFDC94502430F83B0EE07A130A224BCAD7DAE1D9FB6CD422FF6
310
920702629C4BB9AE79C12F243C6432A6794E18E5552BA56B431AAB5D91317302B2B071E86C3A42B1A02F999E24061403B5D0EB639195DA655DD3EBEAB4FB862DDF579F014AD0E73C22F99E28DA57FB98E75C6CA2D74D53086D600F4786E0FE3144B771A8A7B900F03594DB8A633CBC49B2EDB69228BB479CF863B5E807AAAB
310
23872F6DFEB4129B949CA33823F58830E86D65621E10047D9DB34D862E8EAC3C2ABC2F7B2C40D67CDFE01F5545B92105AF983AC54D93D69E56FB8E797F88913F898A9FEC705D3F9D1B54EC8426FB500D40A03BD0119B06E1B95DDC7EB8F6975367793EBD70E66733DFB9BC982F9CE564727731999F5D4ECFCE3B8D6A4DC2A0
310
6D50FD148437D110834A64C6CDDF57FBACB5C307A2A477DFE4939736CFEF2B175371E0E10CF0DD1D5C15654E0BCA14D1E87DD02FF93782A162C0A3D95F1524A52770F972BF1EE9809D13CE7DD599467F8ECE9ADD85CE85A34CD45355448C64F9E8A031DC2D596ACC6E5DD93D9B82DE2EF5CAF81363A8E47996A0DE24564A79
310
4115AACE09C55E14540231FDA13C319787134EBF34E3A022514E5B4D9E0826E25C02D5805B15ABE1BEF51B26383D445DD9E875EE33FE4C22DA16427D65A3BCA92CA6D28DD01DF5DC53330704308475351050232CCD31583787BA75774AFB06E5070DD0C8EF484E19968C5D83BA5B90B244D31E54D55A372320FE4786B7EA58
310
44E135AA5467CB7EA333A61683CC6A8C3257034C10CF46F40EF9F5BE59BE5BD30C3C72D235E95D10345C1D45445A5F0BB47E46A5EBE5570F9380B5FA629579952296A773720405982B9DE04011506178964401AA8BDF1FBF0A8EAB6861DD6580C0E38217056766716DAEB2D6FA0917D3E4116581EADB879C4E7CFFB11EFACD
310
3D641311495D92C8676CB409A72D18610D803CE8A626049E8EC1887CB5B44CC39883690DDA8399B4B9855B481E7D71D4A9D22F96E5BB73BF5793020C02137BF837504B0304140006080000CC70623B000000000000000000000000350000006662782F36394639363044362D344446342D343946362D394244322D32343142
310
43333846323333332F76657274696365732E62696E504B0304140006080800CC70623BF270F1330600000004000000360000006662782F36394639363044362D344446342D343946362D394244322D3234314243333846323333332F747269616E676C65732E62696E636660600000504B0304140006080000CC70623B0000
310
00000000000000000000370000006662782F36394639363044362D344446342D343946362D394244322D3234314243333846323333332F617474726962757465732E62696E504B0304140006080800CC70623B08DA0BD19000000041010000360000006662782F36394639363044362D344446342D343946362D394244322D
310
3234314243333846323333332F6469726563746F72792E786D6C858F410AC3201045AF22B36F53E9A60B35CBEEBAE80D244E44489C6234F4F835464A48035D0DF398FF9F8AF63D0E6CC63039F212F8F9020C7D47C6792B21C5FE7403D62A1188E2E60C98D7234A5830286103A55745067B9D86B8A3CF9C7F90C11DE607FB14
310
4396D7B6A82D282E9A152AD114D5EF2CB866EEE831B8EEA07A7BB5A8D7D61A2BAAEB7FD5F70921FF497D00504B0304140006080800CC70623BCA768048FE000000A00100003B0000006662782F36394639363044362D344446342D343946362D394244322D3234314243333846323333332F7265736F75726365732F636F72
310
652E786D6C8D50596E833010BD0A9ADFCA60D600328E9AA639412F609909B1126CE4A5EAF16B0295DABFFECC8CDEA2797AECF8353F924FB44E193D409E5248504B332A3D0D10FC95B4901C39B3C6F85F3248B49871801506CE266BC2B243D2688FDA47549B11775038871E12F988C7004EDE7016A9083E2ADC3D5D84BC8B09
310
D33C8D74D471E6BC8D0192EDC93A815B742658898E651BCB59086ADC356A8C3FD555A1055ED7E7E254D615792D0F075295F585746FF53B694EE78A565DD736979A65AB9933AFE69F8CD2A2F038022F28ED489E135A7CE4554F9BBEA85E68DB53CAB255FEC71496F19FA6A0B42F8B3DEE6673C0F318E4497096AD7DC5F52C33
310
EEB55BFE0D504B010214000A0000080000CC70623B3DEE336E79000000790000001B00000000000000000000000000000000006175746F6465736B2D64657369676E2D7061636B6167652E786D6C504B01021400140006080800CC70623BD486FD9CA0000000F40000001300000000000000000000000000B20000005B436F
310
6E74656E745F54797065735D2E786D6C504B01021400140006080800CC70623BD9DDAED0EC0000007C010000080000000000000000000000000083010000636F72652E786D6C504B01021400140006080800CC70623B55019EA25F0000007C000000070000000000000000000000000095020000636E782E786D6C504B0102
310
1400140006080800CC70623BA24EB22D72010000D40300000C00000000000000000000000000190300006662782F636F72652E786D6C504B01021400140006080800CC70623B408A7D3B7C0000009D0000000B00000000000000000000000000B50400006662782F636E782E786D6C504B01021400140006080800CC70623B
310
449FB9BD290100001202000031000000000000000000000000005A0500006662782F36394639363044362D344446342D343946362D394244322D3234314243333846323333332F636F72652E786D6C504B01021400140006080800CC70623BAD7543B64E010000330300003000000000000000000000000000D20600006662
310
782F36394639363044362D344446342D343946362D394244322D3234314243333846323333332F636E782E786D6C504B01021400140006080800CC70623B8D05915C650500003B10000034000000000000000000000000006E0800006662782F36394639363044362D344446342D343946362D394244322D32343142433338
310
46323333332F6F626A656374732E786D6C504B01021400140006080000CC70623B0000000000000000000000003500000000000000000000000000250E00006662782F36394639363044362D344446342D343946362D394244322D3234314243333846323333332F76657274696365732E62696E504B010214001400060808
310
00CC70623BF270F13306000000040000003600000000000000000000000000780E00006662782F36394639363044362D344446342D343946362D394244322D3234314243333846323333332F747269616E676C65732E62696E504B01021400140006080000CC70623B00000000000000000000000037000000000000000000
310
00000000D20E00006662782F36394639363044362D344446342D343946362D394244322D3234314243333846323333332F617474726962757465732E62696E504B01021400140006080800CC70623B08DA0BD190000000410100003600000000000000000000000000270F00006662782F36394639363044362D344446342D
310
343946362D394244322D3234314243333846323333332F6469726563746F72792E786D6C504B01021400140006080800CC70623BCA768048FE000000A00100003B000000000000000000000000000B1000006662782F36394639363044362D344446342D343946362D394244322D3234314243333846323333332F7265736F
310
75726365732F636F72652E786D6C504B0506000000000E000E0080040000621100000000
  0
XRECORD
  5
3D5
102
{ACAD_REACTORS
330
2061
102
}
330
2061
100
AcDbXrecord
280
     1
270
     1
271
     1
  0
XRECORD
  5
13
102
{ACAD_REACTORS
330
2061
102
}
330
2061
100
AcDbXrecord
280
     1
270
     1
271
     1
  0
CELLSTYLEMAP
  5
20E2
102
{ACAD_REACTORS
330
2062
102
}
330
2062
100
AcDbCellStyleMap
 90
        3
300
CELLSTYLE
  1
TABLEFORMAT_BEGIN
 90
        5
170
     1
 91
        0
 92
    32768
 62
   257
 93
        1
300
CONTENTFORMAT
  1
CONTENTFORMAT_BEGIN
 90
        0
 91
        0
 92
      512
 93
        0
300

 40
0.0
140
1.0
 94
        5
 62
     0
340
0
144
0.25
309
CONTENTFORMAT_END
171
     0
 94
        6
 95
        1
302
GRIDFORMAT
  1
GRIDFORMAT_BEGIN
 90
        0
 91
        1
 62
     0
 92
       -2
340
0
 93
        0
 40
0.045
309
GRIDFORMAT_END
 95
        2
302
GRIDFORMAT
  1
GRIDFORMAT_BEGIN
 90
        0
 91
        1
 62
     0
 92
       -2
340
0
 93
        0
 40
0.045
309
GRIDFORMAT_END
 95
        4
302
GRIDFORMAT
  1
GRIDFORMAT_BEGIN
 90
        0
 91
        1
 62
     0
 92
       -2
340
0
 93
        0
 40
0.045
309
GRIDFORMAT_END
 95
        8
302
GRIDFORMAT
  1
GRIDFORMAT_BEGIN
 90
        0
 91
        1
 62
     0
 92
       -2
340
0
 93
        0
 40
0.045
309
GRIDFORMAT_END
 95
       16
302
GRIDFORMAT
  1
GRIDFORMAT_BEGIN
 90
        0
 91
        1
 62
     0
 92
       -2
340
0
 93
        0
 40
0.045
309
GRIDFORMAT_END
 95
       32
302
GRIDFORMAT
  1
GRIDFORMAT_BEGIN
 90
        0
 91
        1
 62
     0
 92
       -2
340
0
 93
        0
 40
0.045
309
GRIDFORMAT_END
309
TABLEFORMAT_END
  1
CELLSTYLE_BEGIN
 90
        1
 91
        1
300
_TITLE
309
CELLSTYLE_END
300
CELLSTYLE
  1
TABLEFORMAT_BEGIN
 90
        5
170
     1
 91
        0
 92
        0
 62
   257
 93
        1
300
CONTENTFORMAT
  1
CONTENTFORMAT_BEGIN
 90
        0
 91
        0
 92
      512
 93
        0
300

 40
0.0
140
1.0
 94
        5
 62
     0
340
0
144
0.18
309
CONTENTFORMAT_END
171
     0
 94
        6
 95
        1
302
GRIDFORMAT
  1
GRIDFORMAT_BEGIN
 90
        0
 91
        1
 62
     0
 92
       -2
340
0
 93
        0
 40
0.045
309
GRIDFORMAT_END
 95
        2
302
GRIDFORMAT
  1
GRIDFORMAT_BEGIN
 90
        0
 91
        1
 62
     0
 92
       -2
340
0
 93
        0
 40
0.045
309
GRIDFORMAT_END
 95
        4
302
GRIDFORMAT
  1
GRIDFORMAT_BEGIN
 90
        0
 91
        1
 62
     0
 92
       -2
340
0
 93
        0
 40
0.045
309
GRIDFORMAT_END
 95
        8
302
GRIDFORMAT
  1
GRIDFORMAT_BEGIN
 90
        0
 91
        1
 62
     0
 92
       -2
340
0
 93
        0
 40
0.045
309
GRIDFORMAT_END
 95
       16
302
GRIDFORMAT
  1
GRIDFORMAT_BEGIN
 90
        0
 91
        1
 62
     0
 92
       -2
340
0
 93
        0
 40
0.045
309
GRIDFORMAT_END
 95
       32
302
GRIDFORMAT
  1
GRIDFORMAT_BEGIN
 90
        0
 91
        1
 62
     0
 92
       -2
340
0
 93
        0
 40
0.045
309
GRIDFORMAT_END
309
TABLEFORMAT_END
  1
CELLSTYLE_BEGIN
 90
        2
 91
        1
300
_HEADER
309
CELLSTYLE_END
300
CELLSTYLE
  1
TABLEFORMAT_BEGIN
 90
        5
170
     1
 91
        0
 92
        0
 62
   257
 93
        1
300
CONTENTFORMAT
  1
CONTENTFORMAT_BEGIN
 90
        0
 91
        0
 92
      512
 93
        0
300

 40
0.0
140
1.0
 94
        2
 62
     0
340
0
144
0.18
309
CONTENTFORMAT_END
171
     0
 94
        6
 95
        1
302
GRIDFORMAT
  1
GRIDFORMAT_BEGIN
 90
        0
 91
        1
 62
     0
 92
       -2
340
0
 93
        0
 40
0.045
309
GRIDFORMAT_END
 95
        2
302
GRIDFORMAT
  1
GRIDFORMAT_BEGIN
 90
        0
 91
        1
 62
     0
 92
       -2
340
0
 93
        0
 40
0.045
309
GRIDFORMAT_END
 95
        4
302
GRIDFORMAT
  1
GRIDFORMAT_BEGIN
 90
        0
 91
        1
 62
     0
 92
       -2
340
0
 93
        0
 40
0.045
309
GRIDFORMAT_END
 95
        8
302
GRIDFORMAT
  1
GRIDFORMAT_BEGIN
 90
        0
 91
        1
 62
     0
 92
       -2
340
0
 93
        0
 40
0.045
309
GRIDFORMAT_END
 95
       16
302
GRIDFORMAT
  1
GRIDFORMAT_BEGIN
 90
        0
 91
        1
 62
     0
 92
       -2
340
0
 93
        0
 40
0.045
309
GRIDFORMAT_END
 95
       32
302
GRIDFORMAT
  1
GRIDFORMAT_BEGIN
 90
        0
 91
        1
 62
     0
 92
       -2
340
0
 93
        0
 40
0.045
309
GRIDFORMAT_END
309
TABLEFORMAT_END
  1
CELLSTYLE_BEGIN
 90
        3
 91
        2
300
_DATA
309
CELLSTYLE_END
  0
CELLSTYLEMAP
  5
20E4
102
{ACAD_REACTORS
330
20E3
102
}
330
20E3
100
AcDbCellStyleMap
 90
        3
300
CELLSTYLE
  1
TABLEFORMAT_BEGIN
 90
        5
170
     1
 91
        0
 92
    32768
 62
   257
 93
        1
300
CONTENTFORMAT
  1
CONTENTFORMAT_BEGIN
 90
        0
 91
        0
 92
      512
 93
        0
300

 40
0.0
140
1.0
 94
        5
 62
     0
340
11
144
0.25
309
CONTENTFORMAT_END
171
     0
 94
        6
 95
        1
302
GRIDFORMAT
  1
GRIDFORMAT_BEGIN
 90
        0
 91
        1
 62
     0
 92
       -2
340
0
 93
        0
 40
0.045
309
GRIDFORMAT_END
 95
        2
302
GRIDFORMAT
  1
GRIDFORMAT_BEGIN
 90
        0
 91
        1
 62
     0
 92
       -2
340
0
 93
        0
 40
0.045
309
GRIDFORMAT_END
 95
        4
302
GRIDFORMAT
  1
GRIDFORMAT_BEGIN
 90
        0
 91
        1
 62
     0
 92
       -2
340
0
 93
        0
 40
0.045
309
GRIDFORMAT_END
 95
        8
302
GRIDFORMAT
  1
GRIDFORMAT_BEGIN
 90
        0
 91
        1
 62
     0
 92
       -2
340
0
 93
        0
 40
0.045
309
GRIDFORMAT_END
 95
       16
302
GRIDFORMAT
  1
GRIDFORMAT_BEGIN
 90
        0
 91
        1
 62
     0
 92
       -2
340
0
 93
        0
 40
0.045
309
GRIDFORMAT_END
 95
       32
302
GRIDFORMAT
  1
GRIDFORMAT_BEGIN
 90
        0
 91
        1
 62
     0
 92
       -2
340
0
 93
        0
 40
0.045
309
GRIDFORMAT_END
309
TABLEFORMAT_END
  1
CELLSTYLE_BEGIN
 90
        1
 91
        1
300
_TITLE
309
CELLSTYLE_END
300
CELLSTYLE
  1
TABLEFORMAT_BEGIN
 90
        5
170
     1
 91
        0
 92
        0
 62
   257
 93
        1
300
CONTENTFORMAT
  1
CONTENTFORMAT_BEGIN
 90
        0
 91
        0
 92
      512
 93
        0
300

 40
0.0
140
1.0
 94
        5
 62
     0
340
11
144
0.18
309
CONTENTFORMAT_END
171
     0
 94
        6
 95
        1
302
GRIDFORMAT
  1
GRIDFORMAT_BEGIN
 90
        0
 91
        1
 62
     0
 92
       -2
340
0
 93
        0
 40
0.045
309
GRIDFORMAT_END
 95
        2
302
GRIDFORMAT
  1
GRIDFORMAT_BEGIN
 90
        0
 91
        1
 62
     0
 92
       -2
340
0
 93
        0
 40
0.045
309
GRIDFORMAT_END
 95
        4
302
GRIDFORMAT
  1
GRIDFORMAT_BEGIN
 90
        0
 91
        1
 62
     0
 92
       -2
340
0
 93
        0
 40
0.045
309
GRIDFORMAT_END
 95
        8
302
GRIDFORMAT
  1
GRIDFORMAT_BEGIN
 90
        0
 91
        1
 62
     0
 92
       -2
340
0
 93
        0
 40
0.045
309
GRIDFORMAT_END
 95
       16
302
GRIDFORMAT
  1
GRIDFORMAT_BEGIN
 90
        0
 91
        1
 62
     0
 92
       -2
340
0
 93
        0
 40
0.045
309
GRIDFORMAT_END
 95
       32
302
GRIDFORMAT
  1
GRIDFORMAT_BEGIN
 90
        0
 91
        1
 62
     0
 92
       -2
340
0
 93
        0
 40
0.045
309
GRIDFORMAT_END
309
TABLEFORMAT_END
  1
CELLSTYLE_BEGIN
 90
        2
 91
        1
300
_HEADER
309
CELLSTYLE_END
300
CELLSTYLE
  1
TABLEFORMAT_BEGIN
 90
        5
170
     1
 91
        0
 92
        0
 62
   257
 93
        1
300
CONTENTFORMAT
  1
CONTENTFORMAT_BEGIN
 90
        0
 91
        0
 92
      512
 93
        0
300

 40
0.0
140
1.0
 94
        2
 62
     0
340
11
144
0.18
309
CONTENTFORMAT_END
171
     0
 94
        6
 95
        1
302
GRIDFORMAT
  1
GRIDFORMAT_BEGIN
 90
        0
 91
        1
 62
     0
 92
       -2
340
0
 93
        0
 40
0.045
309
GRIDFORMAT_END
 95
        2
302
GRIDFORMAT
  1
GRIDFORMAT_BEGIN
 90
        0
 91
        1
 62
     0
 92
       -2
340
0
 93
        0
 40
0.045
309
GRIDFORMAT_END
 95
        4
302
GRIDFORMAT
  1
GRIDFORMAT_BEGIN
 90
        0
 91
        1
 62
     0
 92
       -2
340
0
 93
        0
 40
0.045
309
GRIDFORMAT_END
 95
        8
302
GRIDFORMAT
  1
GRIDFORMAT_BEGIN
 90
        0
 91
        1
 62
     0
 92
       -2
340
0
 93
        0
 40
0.045
309
GRIDFORMAT_END
 95
       16
302
GRIDFORMAT
  1
GRIDFORMAT_BEGIN
 90
        0
 91
        1
 62
     0
 92
       -2
340
0
 93
        0
 40
0.045
309
GRIDFORMAT_END
 95
       32
302
GRIDFORMAT
  1
GRIDFORMAT_BEGIN
 90
        0
 91
        1
 62
     0
 92
       -2
340
0
 93
        0
 40
0.045
309
GRIDFORMAT_END
309
TABLEFORMAT_END
  1
CELLSTYLE_BEGIN
 90
        3
 91
        2
300
_DATA
309
CELLSTYLE_END
  0
ENDSEC
  0
EOF
